  0
SECTION
  2
HEADER
  9
$ACADVER
  1
AC1015
  9
$ACADMAINTVER
 70
    10
  9
$DWGCODEPAGE
  3
ANSI_932
  9
$INSBASE
 10
0.0
 20
0.0
 30
0.0
  9
$EXTMIN
 10
24.0
 20
16.999976
 30
0.0
  9
$EXTMAX
 10
810.0
 20
572.999946
 30
0.0
  9
$LIMMIN
 10
0.0
 20
0.0
  9
$LIMMAX
 10
420.0
 20
297.0
  9
$ORTHOMODE
 70
     0
  9
$REGENMODE
 70
     1
  9
$FILLMODE
 70
     1
  9
$QTEXTMODE
 70
     0
  9
$MIRRTEXT
 70
     1
  9
$LTSCALE
 40
1.0
  9
$ATTMODE
 70
     1
  9
$TEXTSIZE
 40
0.0
  9
$TRACEWID
 40
0.05
  9
$TEXTSTYLE
  7
STANDARD
  9
$CLAYER
  8
LAY-1
  9
$CELTYPE
  6
CONTINUOUS
  9
$CECOLOR
 62
   256
  9
$CELTSCALE
 40
1.0
  9
$DISPSILH
 70
     0
  9
$DIMSCALE
 40
1.0
  9
$DIMASZ
 40
0.18
  9
$DIMEXO
 40
0.0625
  9
$DIMDLI
 40
0.38
  9
$DIMRND
 40
0.0
  9
$DIMDLE
 40
0.0
  9
$DIMEXE
 40
0.18
  9
$DIMTP
 40
0.0
  9
$DIMTM
 40
0.0
  9
$DIMTXT
 40
0.18
  9
$DIMCEN
 40
0.09
  9
$DIMTSZ
 40
0.0
  9
$DIMTOL
 70
     0
  9
$DIMLIM
 70
     0
  9
$DIMTIH
 70
     1
  9
$DIMTOH
 70
     1
  9
$DIMSE1
 70
     0
  9
$DIMSE2
 70
     0
  9
$DIMTAD
 70
     0
  9
$DIMZIN
 70
     0
  9
$DIMBLK
  1

  9
$DIMASO
 70
     1
  9
$DIMSHO
 70
     1
  9
$DIMPOST
  1

  9
$DIMAPOST
  1

  9
$DIMALT
 70
     0
  9
$DIMALTD
 70
     2
  9
$DIMALTF
 40
25.4
  9
$DIMLFAC
 40
1.0
  9
$DIMTOFL
 70
     0
  9
$DIMTVP
 40
0.0
  9
$DIMTIX
 70
     0
  9
$DIMSOXD
 70
     0
  9
$DIMSAH
 70
     0
  9
$DIMBLK1
  1

  9
$DIMBLK2
  1

  9
$DIMSTYLE
  2
STANDARD
  9
$DIMCLRD
 70
     0
  9
$DIMCLRE
 70
     0
  9
$DIMCLRT
 70
     0
  9
$DIMTFAC
 40
1.0
  9
$DIMGAP
 40
0.09
  9
$DIMJUST
 70
     0
  9
$DIMSD1
 70
     0
  9
$DIMSD2
 70
     0
  9
$DIMTOLJ
 70
     1
  9
$DIMTZIN
 70
     0
  9
$DIMALTZ
 70
     0
  9
$DIMALTTZ
 70
     0
  9
$DIMUPT
 70
     0
  9
$DIMDEC
 70
     4
  9
$DIMTDEC
 70
     4
  9
$DIMALTU
 70
     2
  9
$DIMALTTD
 70
     2
  9
$DIMTXSTY
  7
STANDARD
  9
$DIMAUNIT
 70
     0
  9
$DIMADEC
 70
     0
  9
$DIMALTRND
 40
0.0
  9
$DIMAZIN
 70
     0
  9
$DIMDSEP
 70
    46
  9
$DIMATFIT
 70
     3
  9
$DIMFRAC
 70
     0
  9
$DIMLDRBLK
  1

  9
$DIMLUNIT
 70
     2
  9
$DIMLWD
 70
    -2
  9
$DIMLWE
 70
    -2
  9
$DIMTMOVE
 70
     0
  9
$LUNITS
 70
     2
  9
$LUPREC
 70
     4
  9
$SKETCHINC
 40
0.1
  9
$FILLETRAD
 40
0.0
  9
$AUNITS
 70
     0
  9
$AUPREC
 70
     0
  9
$MENU
  1
acad
  9
$ELEVATION
 40
0.0
  9
$PELEVATION
 40
0.0
  9
$THICKNESS
 40
0.0
  9
$LIMCHECK
 70
     0
  9
$CHAMFERA
 40
0.0
  9
$CHAMFERB
 40
0.0
  9
$CHAMFERC
 40
0.0
  9
$CHAMFERD
 40
0.0
  9
$SKPOLY
 70
     0
  9
$TDCREATE
 40
2452113.434923310
  9
$TDUCREATE
 40
2452113.059923310
  9
$TDUPDATE
 40
2452157.830017534
  9
$TDUUPDATE
 40
2452157.455017534
  9
$TDINDWG
 40
0.0119371991
  9
$TDUSRTIMER
 40
0.0119371991
  9
$USRTIMER
 70
     1
  9
$ANGBASE
 50
0.0
  9
$ANGDIR
 70
     0
  9
$PDMODE
 70
     0
  9
$PDSIZE
 40
0.0
  9
$PLINEWID
 40
0.0
  9
$SPLFRAME
 70
     0
  9
$SPLINETYPE
 70
     6
  9
$SPLINESEGS
 70
     8
  9
$HANDSEED
  5
214
  9
$SURFTAB1
 70
     6
  9
$SURFTAB2
 70
     6
  9
$SURFTYPE
 70
     6
  9
$SURFU
 70
     6
  9
$SURFV
 70
     6
  9
$UCSBASE
  2

  9
$UCSNAME
  2

  9
$UCSORG
 10
0.0
 20
0.0
 30
0.0
  9
$UCSXDIR
 10
1.0
 20
0.0
 30
0.0
  9
$UCSYDIR
 10
0.0
 20
1.0
 30
0.0
  9
$UCSORTHOREF
  2

  9
$UCSORTHOVIEW
 70
     0
  9
$UCSORGTOP
 10
0.0
 20
0.0
 30
0.0
  9
$UCSORGBOTTOM
 10
0.0
 20
0.0
 30
0.0
  9
$UCSORGLEFT
 10
0.0
 20
0.0
 30
0.0
  9
$UCSORGRIGHT
 10
0.0
 20
0.0
 30
0.0
  9
$UCSORGFRONT
 10
0.0
 20
0.0
 30
0.0
  9
$UCSORGBACK
 10
0.0
 20
0.0
 30
0.0
  9
$PUCSBASE
  2

  9
$PUCSNAME
  2

  9
$PUCSORG
 10
0.0
 20
0.0
 30
0.0
  9
$PUCSXDIR
 10
1.0
 20
0.0
 30
0.0
  9
$PUCSYDIR
 10
0.0
 20
1.0
 30
0.0
  9
$PUCSORTHOREF
  2

  9
$PUCSORTHOVIEW
 70
     0
  9
$PUCSORGTOP
 10
0.0
 20
0.0
 30
0.0
  9
$PUCSORGBOTTOM
 10
0.0
 20
0.0
 30
0.0
  9
$PUCSORGLEFT
 10
0.0
 20
0.0
 30
0.0
  9
$PUCSORGRIGHT
 10
0.0
 20
0.0
 30
0.0
  9
$PUCSORGFRONT
 10
0.0
 20
0.0
 30
0.0
  9
$PUCSORGBACK
 10
0.0
 20
0.0
 30
0.0
  9
$USERI1
 70
     0
  9
$USERI2
 70
     0
  9
$USERI3
 70
     0
  9
$USERI4
 70
     0
  9
$USERI5
 70
     0
  9
$USERR1
 40
0.0
  9
$USERR2
 40
0.0
  9
$USERR3
 40
0.0
  9
$USERR4
 40
0.0
  9
$USERR5
 40
0.0
  9
$WORLDVIEW
 70
     1
  9
$SHADEDGE
 70
     3
  9
$SHADEDIF
 70
    70
  9
$TILEMODE
 70
     1
  9
$MAXACTVP
 70
    16
  9
$PINSBASE
 10
0.0
 20
0.0
 30
0.0
  9
$PLIMCHECK
 70
     0
  9
$PEXTMIN
 10
1.000000000000000E+20
 20
1.000000000000000E+20
 30
1.000000000000000E+20
  9
$PEXTMAX
 10
-1.000000000000000E+20
 20
-1.000000000000000E+20
 30
-1.000000000000000E+20
  9
$PLIMMIN
 10
0.0
 20
0.0
  9
$PLIMMAX
 10
12.0
 20
9.0
  9
$UNITMODE
 70
     0
  9
$VISRETAIN
 70
     0
  9
$PLINEGEN
 70
     1
  9
$PSLTSCALE
 70
     0
  9
$TREEDEPTH
 70
  3020
  9
$CMLSTYLE
  2
STANDARD
  9
$CMLJUST
 70
     0
  9
$CMLSCALE
 40
1.0
  9
$PROXYGRAPHICS
 70
     1
  9
$MEASUREMENT
 70
     0
  9
$CELWEIGHT
370
    -1
  9
$ENDCAPS
280
     0
  9
$JOINSTYLE
280
     0
  9
$LWDISPLAY
290
     0
  9
$INSUNITS
 70
     0
  9
$HYPERLINKBASE
  1

  9
$STYLESHEET
  1

  9
$XEDIT
290
     1
  9
$CEPSNTYPE
380
     0
  9
$PSTYLEMODE
290
     1
  9
$FINGERPRINTGUID
  2
{EBB8FFEE-96E0-40E9-8D5A-999171926156}
  9
$VERSIONGUID
  2
{15D3F9B2-637E-462E-B242-0308BE4A5658}
  9
$EXTNAMES
290
     1
  9
$PSVPSCALE
 40
0.0
  9
$OLESTARTUP
290
     0
  0
ENDSEC
  0
SECTION
  2
CLASSES
  0
CLASS
  1
LWPOLYLINE
  2
AcDbPolyline
  3
AutoCAD 2000
 90
    32768
280
     0
281
     1
  0
CLASS
  1
IMAGE
  2
AcDbRasterImage
  3
ISM
 90
    32895
280
     0
281
     1
  0
CLASS
  1
OLE2FRAME
  2
AcDbOle2Frame
  3
AutoCAD 2000
 90
    32768
280
     0
281
     1
  0
CLASS
  1
HATCH
  2
AcDbHatch
  3
AutoCAD 2000
 90
    32768
280
     0
281
     1
  0
CLASS
  1
DICTIONARYVAR
  2
AcDbDictionaryVar
  3
AutoCAD 2000
 90
    32768
280
     0
281
     0
  0
CLASS
  1
RASTERVARIABLES
  2
AcDbRasterVariables
  3
ISM
 90
    32768
280
     0
281
     0
  0
CLASS
  1
IMAGEDEF
  2
AcDbRasterImageDef
  3
ISM
 90
    32768
280
     0
281
     0
  0
CLASS
  1
IMAGEDEF_REACTOR
  2
AcDbRasterImageDefReactor
  3
ISM
 90
    32769
280
     0
281
     0
  0
CLASS
  1
IDBUFFER
  2
AcDbIdBuffer
  3
AutoCAD 2000
 90
    32768
280
     0
281
     0
  0
CLASS
  1
SPATIAL_FILTER
  2
AcDbSpatialFilter
  3
AutoCAD 2000
 90
    32768
280
     0
281
     0
  0
CLASS
  1
XRECORD
  2
AcDbXrecord
  3
AutoCAD 2000
 90
    32768
280
     0
281
     0
  0
CLASS
  1
SORTENTSTABLE
  2
AcDbSortentsTable
  3
AutoCAD 2000
 90
    32768
280
     0
281
     0
  0
CLASS
  1
LAYER_INDEX
  2
AcDbLayerIndex
  3
AutoCAD 2000
 90
    32768
280
     0
281
     0
  0
CLASS
  1
SPATIAL_INDEX
  2
AcDbSpatialIndex
  3
AutoCAD 2000
 90
    32768
280
     0
281
     0
  0
CLASS
  1
OBJECT_PTR
  2
CAseDLPNTableRecord
  3
ASE-LPNTableRecord
 90
    32769
280
     0
281
     0
  0
CLASS
  1
LAYOUT
  2
AcDbLayout
  3
AutoCAD 2000
 90
        0
280
     0
281
     0
  0
CLASS
  1
PLOTSETTINGS
  2
AcDbPlotSettings
  3
AutoCAD 2000
 90
    32768
280
     0
281
     0
  0
CLASS
  1
ACDBDICTIONARYWDFLT
  2
AcDbDictionaryWithDefault
  3
AutoCAD 2000
 90
        0
280
     0
281
     0
  0
CLASS
  1
ACDBPLACEHOLDER
  2
AcDbPlaceHolder
  3
AutoCAD 2000
 90
        0
280
     0
281
     0
  0
CLASS
  1
VBA_PROJECT
  2
AcDbVbaProject
  3
acadvba
 90
    32768
280
     0
281
     0
  0
CLASS
  1
WIPEOUT
  2
AcDbWipeout
  3
WipeOut|AutoCAD Express Tool|expresstools@autodesk.com
 90
    32768
280
     0
281
     1
  0
CLASS
  1
WIPEOUTVARIABLES
  2
AcDbWipeoutVariables
  3
WipeOut|AutoCAD Express Tool|expresstools@autodesk.com
 90
    32768
280
     0
281
     0
  0
CLASS
  1
RTEXT
  2
RText
  3
RText|AutoCAD Express Tool|expresstools@autodesk.com
 90
    32768
280
     0
281
     1
  0
CLASS
  1
ARCALIGNEDTEXT
  2
AcDbArcAlignedText
  3
ATEXT|AutoCAD Express Tool|expresstools@autodesk.com
 90
    32768
280
     0
281
     1
  0
ENDSEC
  0
SECTION
  2
TABLES
  0
TABLE
  2
VPORT
  5
7
330
0
100
AcDbSymbolTable
 70
     2
  0
VPORT
  5
213
330
7
100
AcDbSymbolTableRecord
100
AcDbViewportTableRecord
  2
*Active
 70
     0
 10
0.0
 20
0.0
 11
1.0
 21
1.0
 12
416.9888324662913
 22
295.0028193068627
 13
0.0
 23
0.0
 14
1.0
 24
1.0
 15
0.0
 25
0.0
 16
0.0
 26
0.0
 36
1.0
 17
0.0
 27
0.0
 37
0.0
 40
561.4983691550918
 41
1.76847290640394
 42
50.0
 43
0.0
 44
0.0
 50
0.0
 51
0.0
 71
     0
 72
   100
 73
     1
 74
     1
 75
     0
 76
     0
 77
     0
 78
     0
281
     0
 65
     1
110
0.0
120
0.0
130
0.0
111
1.0
121
0.0
131
0.0
112
0.0
122
1.0
132
0.0
 79
     0
146
0.0
  0
ENDTAB
  0
TABLE
  2
LTYPE
  5
4
330
0
100
AcDbSymbolTable
 70
     5
  0
LTYPE
  5
11
330
4
100
AcDbSymbolTableRecord
100
AcDbLinetypeTableRecord
  2
BYBLOCK
 70
     0
  3

 72
    65
 73
     0
 40
0.0
  0
LTYPE
  5
12
330
4
100
AcDbSymbolTableRecord
100
AcDbLinetypeTableRecord
  2
BYLAYER
 70
     0
  3

 72
    65
 73
     0
 40
0.0
  0
LTYPE
  5
13
330
4
100
AcDbSymbolTableRecord
100
AcDbLinetypeTableRecord
  2
CONTINUOUS
 70
     0
  3
実線
 72
    65
 73
     0
 40
0.0
  0
LTYPE
  5
1D
330
4
100
AcDbSymbolTableRecord
100
AcDbLinetypeTableRecord
  2
DASHED
 70
     0
  3
破線
 72
    65
 73
     2
 40
3.799999999999998
 49
3.0
 74
     0
 49
-0.8
 74
     0
  0
LTYPE
  5
1E
330
4
100
AcDbSymbolTableRecord
100
AcDbLinetypeTableRecord
  2
DOT
 70
     0
  3
点線
 72
    65
 73
     2
 40
2.0
 49
1.0
 74
     0
 49
-1.0
 74
     0
  0
LTYPE
  5
1F
330
4
100
AcDbSymbolTableRecord
100
AcDbLinetypeTableRecord
  2
DASHDOT
 70
     0
  3
一点鎖線
 72
    65
 73
     4
 40
25.6
 49
20.0
 74
     0
 49
-2.0
 74
     0
 49
1.6
 74
     0
 49
-2.0
 74
     0
  0
LTYPE
  5
20
330
4
100
AcDbSymbolTableRecord
100
AcDbLinetypeTableRecord
  2
DIVIDE
 70
     0
  3
二点鎖線
 72
    65
 73
     6
 40
31.2
 49
20.0
 74
     0
 49
-2.399999999999999
 74
     0
 49
2.0
 74
     0
 49
-2.399999999999999
 74
     0
 49
2.0
 74
     0
 49
-2.399999999999999
 74
     0
  0
ENDTAB
  0
TABLE
  2
LAYER
  5
2
330
0
100
AcDbSymbolTable
 70
     2
  0
LAYER
  5
14
330
2
100
AcDbSymbolTableRecord
100
AcDbLayerTableRecord
  2
0
 70
     0
 62
     7
  6
CONTINUOUS
370
    -3
390
17A
  0
LAYER
  5
25
330
2
100
AcDbSymbolTableRecord
100
AcDbLayerTableRecord
  2
LAY-1
 70
     0
 62
     7
  6
CONTINUOUS
370
    -3
390
17A
  0
ENDTAB
  0
TABLE
  2
STYLE
  5
3
330
0
100
AcDbSymbolTable
 70
     5
  0
STYLE
  5
17
330
3
100
AcDbSymbolTableRecord
100
AcDbTextStyleTableRecord
  2
STANDARD
 70
     0
 40
0.0
 41
1.0
 50
0.0
 71
     0
 42
0.0
  3
monotxt
  4

  0
STYLE
  5
21
330
3
100
AcDbSymbolTableRecord
100
AcDbTextStyleTableRecord
  2
EXCADSTD
 70
     0
 40
0.0
 41
1.0
 50
0.0
 71
     0
 42
0.2
  3
monotxt
  4
extfont
  0
STYLE
  5
22
330
3
100
AcDbSymbolTableRecord
100
AcDbTextStyleTableRecord
  2
EXCADVERT
 70
     4
 40
0.0
 41
1.0
 50
0.0
 71
     0
 42
0.286885
  3
monotxt
  4
extfont
  0
STYLE
  5
23
330
3
100
AcDbSymbolTableRecord
100
AcDbTextStyleTableRecord
  2
EXCADSTD2
 70
     0
 40
0.0
 41
1.0
 50
0.0
 71
     0
 42
0.2
  3
monotxt
  4
extfont
  0
STYLE
  5
24
330
3
100
AcDbSymbolTableRecord
100
AcDbTextStyleTableRecord
  2
EXCADVERT2
 70
     4
 40
0.0
 41
1.0
 50
0.0
 71
     0
 42
0.286885
  3
monotxt
  4
extfont
  0
ENDTAB
  0
TABLE
  2
VIEW
  5
5
330
0
100
AcDbSymbolTable
 70
     0
  0
ENDTAB
  0
TABLE
  2
UCS
  5
6
330
0
100
AcDbSymbolTable
 70
     0
  0
ENDTAB
  0
TABLE
  2
APPID
  5
8
330
0
100
AcDbSymbolTable
 70
     2
  0
APPID
  5
16
330
8
100
AcDbSymbolTableRecord
100
AcDbRegAppTableRecord
  2
ACAD
 70
     0
  0
APPID
  5
1D9
330
8
100
AcDbSymbolTableRecord
100
AcDbRegAppTableRecord
  2
DCO15
 70
     0
  0
ENDTAB
  0
TABLE
  2
DIMSTYLE
  5
9
330
0
100
AcDbSymbolTable
 70
     1
100
AcDbDimStyleTable
 71
     0
  0
DIMSTYLE
105
18
102
{ACAD_REACTORS
330
F2
330
FE
330
10A
330
116
330
122
330
12E
330
13A
330
146
330
152
330
15E
102
}
330
9
100
AcDbSymbolTableRecord
100
AcDbDimStyleTableRecord
  2
STANDARD
 70
     0
340
17
  0
ENDTAB
  0
TABLE
  2
BLOCK_RECORD
  5
1
330
0
100
AcDbSymbolTable
 70
    18
  0
BLOCK_RECORD
  5
A
330
1
100
AcDbSymbolTableRecord
100
AcDbBlockTableRecord
  2
*MODEL_SPACE
340
17D
  0
BLOCK_RECORD
  5
B
330
1
100
AcDbSymbolTableRecord
100
AcDbBlockTableRecord
  2
*PAPER_SPACE
340
17E
  0
BLOCK_RECORD
  5
26
330
1
100
AcDbSymbolTableRecord
100
AcDbBlockTableRecord
  2
_EX_NORM
340
0
  0
BLOCK_RECORD
  5
27
330
1
100
AcDbSymbolTableRecord
100
AcDbBlockTableRecord
  2
_EX_BNORM
340
0
  0
BLOCK_RECORD
  5
28
330
1
100
AcDbSymbolTableRecord
100
AcDbBlockTableRecord
  2
_EX_BCIR
340
0
  0
BLOCK_RECORD
  5
29
330
1
100
AcDbSymbolTableRecord
100
AcDbBlockTableRecord
  2
_EX_RCIVIL
340
0
  0
BLOCK_RECORD
  5
2A
330
1
100
AcDbSymbolTableRecord
100
AcDbBlockTableRecord
  2
_EX_SLANT
340
0
  0
BLOCK_RECORD
  5
2B
330
1
100
AcDbSymbolTableRecord
100
AcDbBlockTableRecord
  2
_EX_NONE
340
0
  0
BLOCK_RECORD
  5
2C
330
1
100
AcDbSymbolTableRecord
100
AcDbBlockTableRecord
  2
_EX_CIVIL
340
0
  0
BLOCK_RECORD
  5
2D
330
1
100
AcDbSymbolTableRecord
100
AcDbBlockTableRecord
  2
_EX_WCIR
340
0
  0
BLOCK_RECORD
  5
E6
330
1
100
AcDbSymbolTableRecord
100
AcDbBlockTableRecord
  2
*D8
340
0
  0
BLOCK_RECORD
  5
F3
330
1
100
AcDbSymbolTableRecord
100
AcDbBlockTableRecord
  2
*D9
340
0
  0
BLOCK_RECORD
  5
FF
330
1
100
AcDbSymbolTableRecord
100
AcDbBlockTableRecord
  2
*D10
340
0
  0
BLOCK_RECORD
  5
10B
330
1
100
AcDbSymbolTableRecord
100
AcDbBlockTableRecord
  2
*D11
340
0
  0
BLOCK_RECORD
  5
117
330
1
100
AcDbSymbolTableRecord
100
AcDbBlockTableRecord
  2
*D12
340
0
  0
BLOCK_RECORD
  5
123
330
1
100
AcDbSymbolTableRecord
100
AcDbBlockTableRecord
  2
*D13
340
0
  0
BLOCK_RECORD
  5
12F
330
1
100
AcDbSymbolTableRecord
100
AcDbBlockTableRecord
  2
*D14
340
0
  0
BLOCK_RECORD
  5
13B
330
1
100
AcDbSymbolTableRecord
100
AcDbBlockTableRecord
  2
*D15
340
0
  0
BLOCK_RECORD
  5
147
330
1
100
AcDbSymbolTableRecord
100
AcDbBlockTableRecord
  2
*D16
340
0
  0
BLOCK_RECORD
  5
153
330
1
100
AcDbSymbolTableRecord
100
AcDbBlockTableRecord
  2
*D17
340
0
  0
ENDTAB
  0
ENDSEC
  0
SECTION
  2
BLOCKS
  0
BLOCK
  5
D
330
A
100
AcDbEntity
  8
0
100
AcDbBlockBegin
  2
*MODEL_SPACE
 70
     0
 10
0.0
 20
0.0
 30
0.0
  3
*MODEL_SPACE
  1

  0
ENDBLK
  5
E
330
A
100
AcDbEntity
  8
0
100
AcDbBlockEnd
  0
BLOCK
  5
F
330
B
100
AcDbEntity
 67
     1
  8
0
100
AcDbBlockBegin
  2
*PAPER_SPACE
 70
     0
 10
0.0
 20
0.0
 30
0.0
  3
*PAPER_SPACE
  1

  0
ENDBLK
  5
10
330
B
100
AcDbEntity
 67
     1
  8
0
100
AcDbBlockEnd
  0
BLOCK
  5
2E
330
26
100
AcDbEntity
  8
0
100
AcDbBlockBegin
  2
_EX_NORM
 70
     0
 10
0.0
 20
0.0
 30
0.0
  3
_EX_NORM
  1

  0
LINE
  5
2F
330
26
100
AcDbEntity
  8
0
  6
Continuous
 62
     0
100
AcDbLine
 10
0.0
 20
0.0
 30
0.0
 11
-1.0
 21
0.0
 31
0.0
  0
LINE
  5
30
330
26
100
AcDbEntity
  8
0
  6
Continuous
 62
     0
100
AcDbLine
 10
0.0
 20
0.0
 30
0.0
 11
-0.9607689999999999
 21
0.27735
 31
0.0
  0
LINE
  5
31
330
26
100
AcDbEntity
  8
0
  6
Continuous
 62
     0
100
AcDbLine
 10
0.0
 20
0.0
 30
0.0
 11
-0.9607689999999999
 21
-0.27735
 31
0.0
  0
ENDBLK
  5
32
330
26
100
AcDbEntity
  8
0
100
AcDbBlockEnd
  0
BLOCK
  5
33
330
27
100
AcDbEntity
  8
0
100
AcDbBlockBegin
  2
_EX_BNORM
 70
     0
 10
0.0
 20
0.0
 30
0.0
  3
_EX_BNORM
  1

  0
LINE
  5
34
330
27
100
AcDbEntity
  8
0
  6
Continuous
 62
     0
100
AcDbLine
 10
0.0
 20
0.0
 30
0.0
 11
-1.0
 21
0.0
 31
0.0
  0
LINE
  5
35
330
27
100
AcDbEntity
  8
0
  6
Continuous
 62
     0
100
AcDbLine
 10
0.0
 20
0.0
 30
0.0
 11
-0.9607689999999999
 21
0.27735
 31
0.0
  0
LINE
  5
36
330
27
100
AcDbEntity
  8
0
  6
Continuous
 62
     0
100
AcDbLine
 10
0.0
 20
0.0
 30
0.0
 11
-0.9607689999999999
 21
-0.27735
 31
0.0
  0
LINE
  5
37
330
27
100
AcDbEntity
  8
0
  6
Continuous
 62
     0
100
AcDbLine
 10
0.0
 20
0.0
 30
0.0
 11
-0.9607689999999999
 21
0.138768
 31
0.0
  0
LINE
  5
38
330
27
100
AcDbEntity
  8
0
  6
Continuous
 62
     0
100
AcDbLine
 10
0.0
 20
0.0
 30
0.0
 11
-0.9607689999999999
 21
-0.138768
 31
0.0
  0
LINE
  5
39
330
27
100
AcDbEntity
  8
0
  6
Continuous
 62
     0
100
AcDbLine
 10
-0.9607689999999999
 20
0.27735
 30
0.0
 11
-0.9607689999999999
 21
-0.27735
 31
0.0
  0
ENDBLK
  5
3A
330
27
100
AcDbEntity
  8
0
100
AcDbBlockEnd
  0
BLOCK
  5
3B
330
28
100
AcDbEntity
  8
0
100
AcDbBlockBegin
  2
_EX_BCIR
 70
     0
 10
0.0
 20
0.0
 30
0.0
  3
_EX_BCIR
  1

  0
LINE
  5
3C
330
28
100
AcDbEntity
  8
0
  6
Continuous
 62
     0
100
AcDbLine
 10
0.0
 20
0.0
 30
0.0
 11
-1.0
 21
0.0
 31
0.0
  0
CIRCLE
  5
3D
330
28
100
AcDbEntity
  8
0
  6
Continuous
 62
     0
100
AcDbCircle
 10
0.0
 20
0.0
 30
0.0
 40
0.5
  0
CIRCLE
  5
3E
330
28
100
AcDbEntity
  8
0
  6
Continuous
 62
     0
100
AcDbCircle
 10
0.0
 20
0.0
 30
0.0
 40
0.25
  0
ENDBLK
  5
3F
330
28
100
AcDbEntity
  8
0
100
AcDbBlockEnd
  0
BLOCK
  5
40
330
29
100
AcDbEntity
  8
0
100
AcDbBlockBegin
  2
_EX_RCIVIL
 70
     0
 10
0.0
 20
0.0
 30
0.0
  3
_EX_RCIVIL
  1

  0
LINE
  5
41
330
29
100
AcDbEntity
  8
0
  6
Continuous
 62
     0
100
AcDbLine
 10
0.0
 20
0.0
 30
0.0
 11
-1.0
 21
0.0
 31
0.0
  0
LINE
  5
42
330
29
100
AcDbEntity
  8
0
  6
Continuous
 62
     0
100
AcDbLine
 10
-1.0
 20
-0.25
 30
0.0
 11
0.0
 21
-0.25
 31
0.0
  0
LINE
  5
43
330
29
100
AcDbEntity
  8
0
  6
Continuous
 62
     0
100
AcDbLine
 10
-1.0
 20
-0.125
 30
0.0
 11
0.0
 21
-0.125
 31
0.0
  0
ENDBLK
  5
44
330
29
100
AcDbEntity
  8
0
100
AcDbBlockEnd
  0
BLOCK
  5
45
330
2A
100
AcDbEntity
  8
0
100
AcDbBlockBegin
  2
_EX_SLANT
 70
     0
 10
0.0
 20
0.0
 30
0.0
  3
_EX_SLANT
  1

  0
LINE
  5
46
330
2A
100
AcDbEntity
  8
0
  6
Continuous
 62
     0
100
AcDbLine
 10
0.0
 20
0.0
 30
0.0
 11
-1.0
 21
0.0
 31
0.0
  0
LINE
  5
47
330
2A
100
AcDbEntity
  8
0
  6
Continuous
 62
     0
100
AcDbLine
 10
0.7071069999999999
 20
0.7071069999999999
 30
0.0
 11
-0.7071069999999999
 21
-0.7071069999999999
 31
0.0
  0
ENDBLK
  5
48
330
2A
100
AcDbEntity
  8
0
100
AcDbBlockEnd
  0
BLOCK
  5
49
330
2B
100
AcDbEntity
  8
0
100
AcDbBlockBegin
  2
_EX_NONE
 70
     0
 10
0.0
 20
0.0
 30
0.0
  3
_EX_NONE
  1

  0
LINE
  5
4A
330
2B
100
AcDbEntity
  8
0
  6
Continuous
 62
     0
100
AcDbLine
 10
0.0
 20
0.0
 30
0.0
 11
-1.0
 21
0.0
 31
0.0
  0
ENDBLK
  5
4B
330
2B
100
AcDbEntity
  8
0
100
AcDbBlockEnd
  0
BLOCK
  5
4C
330
2C
100
AcDbEntity
  8
0
100
AcDbBlockBegin
  2
_EX_CIVIL
 70
     0
 10
0.0
 20
0.0
 30
0.0
  3
_EX_CIVIL
  1

  0
LINE
  5
4D
330
2C
100
AcDbEntity
  8
0
  6
Continuous
 62
     0
100
AcDbLine
 10
0.0
 20
0.0
 30
0.0
 11
-1.0
 21
0.0
 31
0.0
  0
LINE
  5
4E
330
2C
100
AcDbEntity
  8
0
  6
Continuous
 62
     0
100
AcDbLine
 10
-1.0
 20
0.25
 30
0.0
 11
0.0
 21
0.25
 31
0.0
  0
LINE
  5
4F
330
2C
100
AcDbEntity
  8
0
  6
Continuous
 62
     0
100
AcDbLine
 10
-1.0
 20
0.125
 30
0.0
 11
0.0
 21
0.125
 31
0.0
  0
ENDBLK
  5
50
330
2C
100
AcDbEntity
  8
0
100
AcDbBlockEnd
  0
BLOCK
  5
51
330
2D
100
AcDbEntity
  8
0
100
AcDbBlockBegin
  2
_EX_WCIR
 70
     0
 10
0.0
 20
0.0
 30
0.0
  3
_EX_WCIR
  1

  0
LINE
  5
52
330
2D
100
AcDbEntity
  8
0
  6
Continuous
 62
     0
100
AcDbLine
 10
0.0
 20
0.0
 30
0.0
 11
-1.0
 21
0.0
 31
0.0
  0
CIRCLE
  5
53
330
2D
100
AcDbEntity
  8
0
  6
Continuous
 62
     0
100
AcDbCircle
 10
0.0
 20
0.0
 30
0.0
 40
0.5
  0
ENDBLK
  5
54
330
2D
100
AcDbEntity
  8
0
100
AcDbBlockEnd
  0
BLOCK
  5
E7
330
E6
100
AcDbEntity
  8
0
100
AcDbBlockBegin
  2
*D8
 70
     1
 10
0.0
 20
0.0
 30
0.0
  3
*D8
  1

  0
LINE
  5
E8
330
E6
100
AcDbEntity
  8
0
  6
Continuous
 62
     1
100
AcDbLine
 10
732.7011639999997
 20
339.988117
 30
0.0
 11
768.0387139999997
 21
391.4045709999998
 31
0.0
  0
LINE
  5
E9
330
E6
100
AcDbEntity
  8
0
  6
Continuous
 62
     1
100
AcDbLine
 10
645.9971879999998
 20
389.0428659999998
 30
0.0
 11
671.8695079999998
 21
445.81449
 31
0.0
  0
LINE
  5
EA
330
E6
100
AcDbEntity
  8
0
  6
Continuous
 62
     1
100
AcDbLine
 10
760.6836469999997
 20
390.9350339999998
 30
0.0
 11
766.3394959999997
 21
388.932193
 31
0.0
  0
LINE
  5
EB
330
E6
100
AcDbEntity
  8
0
  6
Continuous
 62
     1
100
AcDbLine
 10
766.3394959999997
 20
388.932193
 30
0.0
 11
762.442807
 21
393.4946279999998
 31
0.0
  0
LINE
  5
EC
330
E6
100
AcDbEntity
  8
0
  6
Continuous
 62
     1
100
AcDbLine
 10
676.5431419999997
 20
442.0943209999999
 30
0.0
 11
670.625428
 21
443.0846059999998
 31
0.0
  0
LINE
  5
ED
330
E6
100
AcDbEntity
  8
0
  6
Continuous
 62
     1
100
AcDbLine
 10
670.625428
 20
443.0846059999998
 30
0.0
 11
675.255176
 21
439.268137
 31
0.0
  0
ARC
  5
EE
330
E6
100
AcDbEntity
  8
0
  6
Continuous
 62
     1
100
AcDbCircle
 10
409.0
 20
-131.0
 30
0.0
 40
630.889055
100
AcDbArc
 50
55.5
 51
65.5
  0
TEXT
  5
EF
330
E6
100
AcDbEntity
  8
0
  6
Continuous
 62
     1
100
AcDbText
 10
713.62939
 20
422.661415
 30
0.0
 40
6.0
  1
10
 50
330.5
  7
EXCADSTD
100
AcDbText
  0
TEXT
  5
F0
330
E6
100
AcDbEntity
  8
0
  6
Continuous
 62
     1
100
AcDbText
 10
724.073659
 20
416.7523319999999
 30
0.0
 40
6.0
  1
%%d
 50
330.5
  7
EXCADSTD
100
AcDbText
  0
ENDBLK
  5
F1
330
E6
100
AcDbEntity
  8
0
100
AcDbBlockEnd
  0
BLOCK
  5
F4
330
F3
100
AcDbEntity
  8
0
100
AcDbBlockBegin
  2
*D9
 70
     1
 10
0.0
 20
0.0
 30
0.0
  3
*D9
  1

  0
LINE
  5
F5
330
F3
100
AcDbEntity
  8
0
  6
Continuous
 62
     1
100
AcDbLine
 10
580.8533639999997
 20
414.049237
 30
0.0
 11
599.614115
 21
473.550737
 31
0.0
  0
LINE
  5
F6
330
F3
100
AcDbEntity
  8
0
  6
Continuous
 62
     1
100
AcDbLine
 10
664.707714
 20
444.0748919999998
 30
0.0
 11
670.625428
 21
443.0846059999998
 31
0.0
  0
LINE
  5
F7
330
F3
100
AcDbEntity
  8
0
  6
Continuous
 62
     1
100
AcDbLine
 10
670.625428
 20
443.0846059999998
 30
0.0
 11
665.9956809999997
 21
446.9010759999998
 31
0.0
  0
LINE
  5
F8
330
F3
100
AcDbEntity
  8
0
  6
Continuous
 62
     1
100
AcDbLine
 10
604.7062869999997
 20
470.42787
 30
0.0
 11
598.711998
 21
470.689586
 31
0.0
  0
LINE
  5
F9
330
F3
100
AcDbEntity
  8
0
  6
Continuous
 62
     1
100
AcDbLine
 10
598.711998
 20
470.689586
 30
0.0
 11
603.7723459999997
 21
467.4657879999998
 31
0.0
  0
ARC
  5
FA
330
F3
100
AcDbEntity
  8
0
  6
Continuous
 62
     1
100
AcDbCircle
 10
409.0
 20
-131.0
 30
0.0
 40
630.889055
100
AcDbArc
 50
65.5
 51
72.5
  0
TEXT
  5
FB
330
F3
100
AcDbEntity
  8
0
  6
Continuous
 62
     1
100
AcDbText
 10
631.2476730000001
 20
460.531909
 30
0.0
 40
6.0
  1
7
 50
339.0
  7
EXCADSTD
100
AcDbText
  0
TEXT
  5
FC
330
F3
100
AcDbEntity
  8
0
  6
Continuous
 62
     1
100
AcDbText
 10
636.8491559999998
 20
458.3817019999998
 30
0.0
 40
6.0
  1
%%d
 50
339.0
  7
EXCADSTD
100
AcDbText
  0
ENDBLK
  5
FD
330
F3
100
AcDbEntity
  8
0
100
AcDbBlockEnd
  0
BLOCK
  5
100
330
FF
100
AcDbEntity
  8
0
100
AcDbBlockBegin
  2
*D10
 70
     1
 10
0.0
 20
0.0
 30
0.0
  3
*D10
  1

  0
LINE
  5
101
330
FF
100
AcDbEntity
  8
0
  6
Continuous
 62
     1
100
AcDbLine
 10
513.1476029999999
 20
430.93018
 30
0.0
 11
524.517105
 21
492.274524
 31
0.0
  0
LINE
  5
102
330
FF
100
AcDbEntity
  8
0
  6
Continuous
 62
     1
100
AcDbLine
 10
592.7177079999998
 20
470.9513019999998
 30
0.0
 11
598.711998
 21
470.689586
 31
0.0
  0
LINE
  5
103
330
FF
100
AcDbEntity
  8
0
  6
Continuous
 62
     1
100
AcDbLine
 10
598.711998
 20
470.689586
 30
0.0
 11
593.651649
 21
473.913384
 31
0.0
  0
LINE
  5
104
330
FF
100
AcDbEntity
  8
0
  6
Continuous
 62
     1
100
AcDbLine
 10
529.9519029999999
 20
489.7955139999998
 30
0.0
 11
523.970399
 21
489.3247599999998
 31
0.0
  0
LINE
  5
105
330
FF
100
AcDbEntity
  8
0
  6
Continuous
 62
     1
100
AcDbLine
 10
523.970399
 20
489.3247599999998
 30
0.0
 11
529.3859099999998
 21
486.741693
 31
0.0
  0
ARC
  5
106
330
FF
100
AcDbEntity
  8
0
  6
Continuous
 62
     1
100
AcDbCircle
 10
409.0
 20
-131.0
 30
0.0
 40
630.889055
100
AcDbArc
 50
72.5
 51
79.5
  0
TEXT
  5
107
330
FF
100
AcDbEntity
  8
0
  6
Continuous
 62
     1
100
AcDbText
 10
557.501467
 20
483.207898
 30
0.0
 40
6.0
  1
7
 50
346.0
  7
EXCADSTD
100
AcDbText
  0
TEXT
  5
108
330
FF
100
AcDbEntity
  8
0
  6
Continuous
 62
     1
100
AcDbText
 10
563.3232419999997
 20
481.756367
 30
0.0
 40
6.0
  1
%%d
 50
346.0
  7
EXCADSTD
100
AcDbText
  0
ENDBLK
  5
109
330
FF
100
AcDbEntity
  8
0
100
AcDbBlockEnd
  0
BLOCK
  5
10C
330
10B
100
AcDbEntity
  8
0
100
AcDbBlockBegin
  2
*D11
 70
     1
 10
0.0
 20
0.0
 30
0.0
  3
*D11
  1

  0
LINE
  5
10D
330
10B
100
AcDbEntity
  8
0
  6
Continuous
 62
     1
100
AcDbLine
 10
443.88924
 20
439.434037
 30
0.0
 11
447.698001
 21
501.706724
 31
0.0
  0
LINE
  5
10E
330
10B
100
AcDbEntity
  8
0
  6
Continuous
 62
     1
100
AcDbLine
 10
517.988895
 20
488.8540049999998
 30
0.0
 11
523.970399
 21
489.3247599999998
 31
0.0
  0
LINE
  5
10F
330
10B
100
AcDbEntity
  8
0
  6
Continuous
 62
     1
100
AcDbLine
 10
523.970399
 20
489.3247599999998
 30
0.0
 11
518.5548869999998
 21
491.907826
 31
0.0
  0
LINE
  5
110
330
10B
100
AcDbEntity
  8
0
  6
Continuous
 62
     1
100
AcDbLine
 10
453.394404
 20
499.908528
 30
0.0
 11
447.5148549999998
 21
498.71232
 31
0.0
  0
LINE
  5
111
330
10B
100
AcDbEntity
  8
0
  6
Continuous
 62
     1
100
AcDbLine
 10
447.5148549999998
 20
498.71232
 30
0.0
 11
453.2047969999998
 21
496.8084919999998
 31
0.0
  0
ARC
  5
112
330
10B
100
AcDbEntity
  8
0
  6
Continuous
 62
     1
100
AcDbCircle
 10
409.0
 20
-131.0
 30
0.0
 40
630.889055
100
AcDbArc
 50
79.5
 51
86.5
  0
TEXT
  5
113
330
10B
100
AcDbEntity
  8
0
  6
Continuous
 62
     1
100
AcDbText
 10
481.5414469999998
 20
496.727462
 30
0.0
 40
6.0
  1
7
 50
353.0
  7
EXCADSTD
100
AcDbText
  0
TEXT
  5
114
330
10B
100
AcDbEntity
  8
0
  6
Continuous
 62
     1
100
AcDbText
 10
487.496723
 20
495.9962459999998
 30
0.0
 40
6.0
  1
%%d
 50
353.0
  7
EXCADSTD
100
AcDbText
  0
ENDBLK
  5
115
330
10B
100
AcDbEntity
  8
0
100
AcDbBlockEnd
  0
BLOCK
  5
118
330
117
100
AcDbEntity
  8
0
100
AcDbBlockBegin
  2
*D12
 70
     1
 10
0.0
 20
0.0
 30
0.0
  3
*D12
  1

  0
LINE
  5
119
330
117
100
AcDbEntity
  8
0
  6
Continuous
 62
     1
100
AcDbLine
 10
374.11076
 20
439.434037
 30
0.0
 11
370.301999
 21
501.706724
 31
0.0
  0
LINE
  5
11A
330
117
100
AcDbEntity
  8
0
  6
Continuous
 62
     1
100
AcDbLine
 10
441.635307
 20
497.516112
 30
0.0
 11
447.5148549999998
 21
498.71232
 31
0.0
  0
LINE
  5
11B
330
117
100
AcDbEntity
  8
0
  6
Continuous
 62
     1
100
AcDbLine
 10
447.5148549999998
 20
498.71232
 30
0.0
 11
441.8249129999998
 21
500.6161480000002
 31
0.0
  0
LINE
  5
11C
330
117
100
AcDbEntity
  8
0
  6
Continuous
 62
     1
100
AcDbLine
 10
376.175087
 20
500.6161480000002
 30
0.0
 11
370.485145
 21
498.71232
 31
0.0
  0
LINE
  5
11D
330
117
100
AcDbEntity
  8
0
  6
Continuous
 62
     1
100
AcDbLine
 10
370.485145
 20
498.71232
 30
0.0
 11
376.364693
 21
497.516112
 31
0.0
  0
ARC
  5
11E
330
117
100
AcDbEntity
  8
0
  6
Continuous
 62
     1
100
AcDbCircle
 10
409.0
 20
-131.0
 30
0.0
 40
630.889055
100
AcDbArc
 50
86.5
 51
93.49999999999999
  0
TEXT
  5
11F
330
117
100
AcDbEntity
  8
0
  6
Continuous
 62
     1
100
AcDbText
 10
404.4999999999998
 20
500.889055
 30
0.0
 40
6.0
  1
7
  7
EXCADSTD
100
AcDbText
  0
TEXT
  5
120
330
117
100
AcDbEntity
  8
0
  6
Continuous
 62
     1
100
AcDbText
 10
410.5
 20
500.889055
 30
0.0
 40
6.0
  1
%%d
  7
EXCADSTD
100
AcDbText
  0
ENDBLK
  5
121
330
117
100
AcDbEntity
  8
0
100
AcDbBlockEnd
  0
BLOCK
  5
124
330
123
100
AcDbEntity
  8
0
100
AcDbBlockBegin
  2
*D13
 70
     1
 10
0.0
 20
0.0
 30
0.0
  3
*D13
  1

  0
LINE
  5
125
330
123
100
AcDbEntity
  8
0
  6
Continuous
 62
     1
100
AcDbLine
 10
304.852397
 20
430.93018
 30
0.0
 11
293.482895
 21
492.274524
 31
0.0
  0
LINE
  5
126
330
123
100
AcDbEntity
  8
0
  6
Continuous
 62
     1
100
AcDbLine
 10
364.7952029999998
 20
496.8084919999998
 30
0.0
 11
370.485145
 21
498.71232
 31
0.0
  0
LINE
  5
127
330
123
100
AcDbEntity
  8
0
  6
Continuous
 62
     1
100
AcDbLine
 10
370.485145
 20
498.71232
 30
0.0
 11
364.6055959999998
 21
499.908528
 31
0.0
  0
LINE
  5
128
330
123
100
AcDbEntity
  8
0
  6
Continuous
 62
     1
100
AcDbLine
 10
299.4451129999998
 20
491.907826
 30
0.0
 11
294.0296009999999
 21
489.3247599999998
 31
0.0
  0
LINE
  5
129
330
123
100
AcDbEntity
  8
0
  6
Continuous
 62
     1
100
AcDbLine
 10
294.0296009999999
 20
489.3247599999998
 30
0.0
 11
300.011105
 21
488.8540049999998
 31
0.0
  0
ARC
  5
12A
330
123
100
AcDbEntity
  8
0
  6
Continuous
 62
     1
100
AcDbCircle
 10
409.0
 20
-131.0
 30
0.0
 40
630.889055
100
AcDbArc
 50
93.49999999999999
 51
100.5
  0
TEXT
  5
12B
330
123
100
AcDbEntity
  8
0
  6
Continuous
 62
     1
100
AcDbText
 10
327.525638
 20
495.630638
 30
0.0
 40
6.0
  1
7
 50
7.0
  7
EXCADSTD
100
AcDbText
  0
TEXT
  5
12C
330
123
100
AcDbEntity
  8
0
  6
Continuous
 62
     1
100
AcDbText
 10
333.4809149999998
 20
496.3618539999997
 30
0.0
 40
6.0
  1
%%d
 50
7.0
  7
EXCADSTD
100
AcDbText
  0
ENDBLK
  5
12D
330
123
100
AcDbEntity
  8
0
100
AcDbBlockEnd
  0
BLOCK
  5
130
330
12F
100
AcDbEntity
  8
0
100
AcDbBlockBegin
  2
*D14
 70
     1
 10
0.0
 20
0.0
 30
0.0
  3
*D14
  1

  0
LINE
  5
131
330
12F
100
AcDbEntity
  8
0
  6
Continuous
 62
     1
100
AcDbLine
 10
237.1466359999998
 20
414.049237
 30
0.0
 11
218.385885
 21
473.550737
 31
0.0
  0
LINE
  5
132
330
12F
100
AcDbEntity
  8
0
  6
Continuous
 62
     1
100
AcDbLine
 10
288.61409
 20
486.741693
 30
0.0
 11
294.0296009999999
 21
489.3247599999998
 31
0.0
  0
LINE
  5
133
330
12F
100
AcDbEntity
  8
0
  6
Continuous
 62
     1
100
AcDbLine
 10
294.0296009999999
 20
489.3247599999998
 30
0.0
 11
288.048097
 21
489.7955139999998
 31
0.0
  0
LINE
  5
134
330
12F
100
AcDbEntity
  8
0
  6
Continuous
 62
     1
100
AcDbLine
 10
224.3483509999999
 20
473.913384
 30
0.0
 11
219.288002
 21
470.689586
 31
0.0
  0
LINE
  5
135
330
12F
100
AcDbEntity
  8
0
  6
Continuous
 62
     1
100
AcDbLine
 10
219.288002
 20
470.689586
 30
0.0
 11
225.2822919999999
 21
470.9513019999998
 31
0.0
  0
ARC
  5
136
330
12F
100
AcDbEntity
  8
0
  6
Continuous
 62
     1
100
AcDbCircle
 10
409.0
 20
-131.0
 30
0.0
 40
630.889055
100
AcDbArc
 50
100.5
 51
107.4999999999999
  0
TEXT
  5
137
330
12F
100
AcDbEntity
  8
0
  6
Continuous
 62
     1
100
AcDbText
 10
251.765871
 20
481.0306009999997
 30
0.0
 40
6.0
  1
7
 50
14.0
  7
EXCADSTD
100
AcDbText
  0
TEXT
  5
138
330
12F
100
AcDbEntity
  8
0
  6
Continuous
 62
     1
100
AcDbText
 10
257.5876459999999
 20
482.482133
 30
0.0
 40
6.0
  1
%%d
 50
14.0
  7
EXCADSTD
100
AcDbText
  0
ENDBLK
  5
139
330
12F
100
AcDbEntity
  8
0
100
AcDbBlockEnd
  0
BLOCK
  5
13C
330
13B
100
AcDbEntity
  8
0
100
AcDbBlockBegin
  2
*D15
 70
     1
 10
0.0
 20
0.0
 30
0.0
  3
*D15
  1

  0
LINE
  5
13D
330
13B
100
AcDbEntity
  8
0
  6
Continuous
 62
     1
100
AcDbLine
 10
172.002812
 20
389.0428659999998
 30
0.0
 11
146.130492
 21
445.81449
 31
0.0
  0
LINE
  5
13E
330
13B
100
AcDbEntity
  8
0
  6
Continuous
 62
     1
100
AcDbLine
 10
214.227654
 20
467.4657879999998
 30
0.0
 11
219.288002
 21
470.689586
 31
0.0
  0
LINE
  5
13F
330
13B
100
AcDbEntity
  8
0
  6
Continuous
 62
     1
100
AcDbLine
 10
219.288002
 20
470.689586
 30
0.0
 11
213.293713
 21
470.42787
 31
0.0
  0
LINE
  5
140
330
13B
100
AcDbEntity
  8
0
  6
Continuous
 62
     1
100
AcDbLine
 10
152.0043189999999
 20
446.9010759999998
 30
0.0
 11
147.3745719999999
 21
443.0846059999998
 31
0.0
  0
LINE
  5
141
330
13B
100
AcDbEntity
  8
0
  6
Continuous
 62
     1
100
AcDbLine
 10
147.3745719999999
 20
443.0846059999998
 30
0.0
 11
153.292286
 21
444.0748919999998
 31
0.0
  0
ARC
  5
142
330
13B
100
AcDbEntity
  8
0
  6
Continuous
 62
     1
100
AcDbCircle
 10
409.0
 20
-131.0
 30
0.0
 40
630.889055
100
AcDbArc
 50
107.4999999999999
 51
114.5
  0
TEXT
  5
143
330
13B
100
AcDbEntity
  8
0
  6
Continuous
 62
     1
100
AcDbText
 10
178.350103
 20
457.306598
 30
0.0
 40
6.0
  1
7
 50
21.0
  7
EXCADSTD
100
AcDbText
  0
TEXT
  5
144
330
13B
100
AcDbEntity
  8
0
  6
Continuous
 62
     1
100
AcDbText
 10
183.951586
 20
459.4568059999998
 30
0.0
 40
6.0
  1
%%d
 50
21.0
  7
EXCADSTD
100
AcDbText
  0
ENDBLK
  5
145
330
13B
100
AcDbEntity
  8
0
100
AcDbBlockEnd
  0
BLOCK
  5
148
330
147
100
AcDbEntity
  8
0
100
AcDbBlockBegin
  2
*D16
 70
     1
 10
0.0
 20
0.0
 30
0.0
  3
*D16
  1

  0
LINE
  5
149
330
147
100
AcDbEntity
  8
0
  6
Continuous
 62
     1
100
AcDbLine
 10
85.29883599999998
 20
339.988117
 30
0.0
 11
49.961286
 21
391.4045709999998
 31
0.0
  0
LINE
  5
14A
330
147
100
AcDbEntity
  8
0
  6
Continuous
 62
     1
100
AcDbLine
 10
142.7448239999999
 20
439.268137
 30
0.0
 11
147.3745719999999
 21
443.0846059999998
 31
0.0
  0
LINE
  5
14B
330
147
100
AcDbEntity
  8
0
  6
Continuous
 62
     1
100
AcDbLine
 10
147.3745719999999
 20
443.0846059999998
 30
0.0
 11
141.456858
 21
442.0943209999999
 31
0.0
  0
LINE
  5
14C
330
147
100
AcDbEntity
  8
0
  6
Continuous
 62
     1
100
AcDbLine
 10
55.557193
 20
393.4946279999998
 30
0.0
 11
51.66050399999999
 21
388.932193
 31
0.0
  0
LINE
  5
14D
330
147
100
AcDbEntity
  8
0
  6
Continuous
 62
     1
100
AcDbLine
 10
51.66050399999999
 20
388.932193
 30
0.0
 11
57.316353
 21
390.9350339999998
 31
0.0
  0
ARC
  5
14E
330
147
100
AcDbEntity
  8
0
  6
Continuous
 62
     1
100
AcDbCircle
 10
409.0
 20
-131.0
 30
0.0
 40
630.889055
100
AcDbArc
 50
114.5
 51
124.4999999999999
  0
TEXT
  5
14F
330
147
100
AcDbEntity
  8
0
  6
Continuous
 62
     1
100
AcDbText
 10
91.31527400000001
 20
415.2750619999998
 30
0.0
 40
6.0
  1
10
 50
29.5
  7
EXCADSTD
100
AcDbText
  0
TEXT
  5
150
330
147
100
AcDbEntity
  8
0
  6
Continuous
 62
     1
100
AcDbText
 10
101.759542
 20
421.184144
 30
0.0
 40
6.0
  1
%%d
 50
29.5
  7
EXCADSTD
100
AcDbText
  0
ENDBLK
  5
151
330
147
100
AcDbEntity
  8
0
100
AcDbBlockEnd
  0
BLOCK
  5
154
330
153
100
AcDbEntity
  8
0
100
AcDbBlockBegin
  2
*D17
 70
     1
 10
0.0
 20
0.0
 30
0.0
  3
*D17
  1

  0
LINE
  5
155
330
153
100
AcDbEntity
  8
0
  6
Continuous
 62
     1
100
AcDbLine
 10
285.825123
 20
423.8440769999998
 30
0.0
 11
279.9968279999999
 21
455.290747
 31
0.0
  0
LINE
  5
156
330
153
100
AcDbEntity
  8
0
  6
Continuous
 62
     1
100
AcDbLine
 10
325.15532
 20
431.133498
 30
0.0
 11
319.3270239999999
 21
462.5801679999998
 31
0.0
  0
LINE
  5
157
330
153
100
AcDbEntity
  8
0
  6
Continuous
 62
     1
100
AcDbLine
 10
280.5435339999998
 20
452.340982
 30
0.0
 11
319.8737299999999
 21
459.6304029999997
 31
0.0
  0
LINE
  5
158
330
153
100
AcDbEntity
  8
0
  6
Continuous
 62
     1
100
AcDbLine
 10
285.959046
 20
454.924049
 30
0.0
 11
280.5435339999998
 21
452.340982
 31
0.0
  0
LINE
  5
159
330
153
100
AcDbEntity
  8
0
  6
Continuous
 62
     1
100
AcDbLine
 10
280.5435339999998
 20
452.340982
 30
0.0
 11
286.5250379999998
 21
451.870228
 31
0.0
  0
LINE
  5
15A
330
153
100
AcDbEntity
  8
0
  6
Continuous
 62
     1
100
AcDbLine
 10
314.4582189999998
 20
457.047337
 30
0.0
 11
319.8737299999999
 21
459.6304029999997
 31
0.0
  0
LINE
  5
15B
330
153
100
AcDbEntity
  8
0
  6
Continuous
 62
     1
100
AcDbLine
 10
319.8737299999999
 20
459.6304029999997
 30
0.0
 11
313.892226
 21
460.1011579999997
 31
0.0
  0
TEXT
  5
15C
330
153
100
AcDbEntity
  8
0
  6
Continuous
 62
     1
100
AcDbText
 10
294.1268669999999
 20
455.8755339999998
 30
0.0
 40
6.0
  1
40
 50
10.5
  7
EXCADSTD
100
AcDbText
  0
ENDBLK
  5
15D
330
153
100
AcDbEntity
  8
0
100
AcDbBlockEnd
  0
ENDSEC
  0
SECTION
  2
ENTITIES
  0
LINE
  5
83
330
A
100
AcDbEntity
  8
LAY-1
  6
Continuous
 62
     3
100
AcDbLine
 10
810.0
 20
17.000022
 30
0.0
 11
810.0
 21
572.999946
 31
0.0
  0
LINE
  5
84
330
A
100
AcDbEntity
  8
LAY-1
  6
Continuous
 62
     3
100
AcDbLine
 10
810.0
 20
572.999946
 30
0.0
 11
24.0
 21
572.999946
 31
0.0
  0
LINE
  5
85
330
A
100
AcDbEntity
  8
LAY-1
  6
Continuous
 62
     3
100
AcDbLine
 10
24.0
 20
572.999946
 30
0.0
 11
24.0
 21
17.0
 31
0.0
  0
LINE
  5
86
330
A
100
AcDbEntity
  8
LAY-1
  6
Continuous
 62
     3
100
AcDbLine
 10
24.0
 20
17.0
 30
0.0
 11
810.0
 21
17.0
 31
0.0
  0
POINT
  5
92
330
A
100
AcDbEntity
  8
LAY-1
  6
Continuous
 62
     5
100
AcDbPoint
 10
810.0
 20
17.000022
 30
0.0
  0
POINT
  5
93
330
A
100
AcDbEntity
  8
LAY-1
  6
Continuous
 62
     5
100
AcDbPoint
 10
810.0
 20
37.00002199999996
 30
0.0
  0
POINT
  5
94
330
A
100
AcDbEntity
  8
LAY-1
  6
Continuous
 62
     5
100
AcDbPoint
 10
810.0
 20
17.000022
 30
0.0
  0
POINT
  5
95
330
A
100
AcDbEntity
  8
LAY-1
  6
Continuous
 62
     5
100
AcDbPoint
 10
810.0
 20
57.000022
 30
0.0
  0
POINT
  5
96
330
A
100
AcDbEntity
  8
LAY-1
  6
Continuous
 62
     5
100
AcDbPoint
 10
810.0
 20
17.000022
 30
0.0
  0
POINT
  5
97
330
A
100
AcDbEntity
  8
LAY-1
  6
Continuous
 62
     5
100
AcDbPoint
 10
810.0
 20
77.000022
 30
0.0
  0
POINT
  5
98
330
A
100
AcDbEntity
  8
LAY-1
  6
Continuous
 62
     5
100
AcDbPoint
 10
810.0
 20
17.000022
 30
0.0
  0
POINT
  5
99
330
A
100
AcDbEntity
  8
LAY-1
  6
Continuous
 62
     5
100
AcDbPoint
 10
490.0
 20
17.000038
 30
0.0
  0
POINT
  5
A2
330
A
100
AcDbEntity
  8
LAY-1
  6
Continuous
 62
     5
100
AcDbPoint
 10
810.0
 20
17.000022
 30
0.0
  0
POINT
  5
A3
330
A
100
AcDbEntity
  8
LAY-1
  6
Continuous
 62
     5
100
AcDbPoint
 10
690.0
 20
17.000022
 30
0.0
  0
POINT
  5
B9
330
A
100
AcDbEntity
  8
LAY-1
  6
Continuous
 62
     5
100
AcDbPoint
 10
471.260864
 20
16.999976
 30
0.0
  0
POINT
  5
BA
330
A
100
AcDbEntity
  8
LAY-1
  6
Continuous
 62
     3
100
AcDbPoint
 10
423.529729
 20
434.167132
 30
0.0
  0
POINT
  5
BB
330
A
100
AcDbEntity
  8
LAY-1
  6
Continuous
 62
     3
100
AcDbPoint
 10
463.455121
 20
431.72519
 30
0.0
  0
CIRCLE
  5
BC
330
A
100
AcDbEntity
  8
LAY-1
  6
Continuous
 62
     1
100
AcDbCircle
 10
423.529729
 20
434.167132
 30
0.0
 40
2.1
  0
CIRCLE
  5
BD
330
A
100
AcDbEntity
  8
LAY-1
  6
Continuous
 62
     1
100
AcDbCircle
 10
463.455121
 20
431.72519
 30
0.0
 40
2.1
  0
LINE
  5
BE
330
A
100
AcDbEntity
  8
LAY-1
  6
DOT
 62
     1
100
AcDbLine
 10
442.7171079999998
 20
420.269849
 30
0.0
 11
444.347104
 21
446.920048
 31
0.0
  0
POINT
  5
BF
330
A
100
AcDbEntity
  8
LAY-1
  6
Continuous
 62
     3
100
AcDbPoint
 10
492.297974
 20
428.183733
 30
0.0
  0
POINT
  5
C0
330
A
100
AcDbEntity
  8
LAY-1
  6
Continuous
 62
     3
100
AcDbPoint
 10
531.6281700000001
 20
420.8943119999998
 30
0.0
  0
CIRCLE
  5
C1
330
A
100
AcDbEntity
  8
LAY-1
  6
Continuous
 62
     1
100
AcDbCircle
 10
492.297974
 20
428.183733
 30
0.0
 40
2.1
  0
CIRCLE
  5
C2
330
A
100
AcDbEntity
  8
LAY-1
  6
Continuous
 62
     1
100
AcDbCircle
 10
531.6281700000001
 20
420.8943119999998
 30
0.0
 40
2.1
  0
LINE
  5
C3
330
A
100
AcDbEntity
  8
LAY-1
  6
DOT
 62
     1
100
AcDbLine
 10
509.648681
 20
412.051685
 30
0.0
 11
514.514369
 21
438.3045909999998
 31
0.0
  0
POINT
  5
C4
330
A
100
AcDbEntity
  8
LAY-1
  6
Continuous
 62
     3
100
AcDbPoint
 10
559.8244379999998
 20
413.864193
 30
0.0
  0
POINT
  5
C5
330
A
100
AcDbEntity
  8
LAY-1
  6
Continuous
 62
     3
100
AcDbPoint
 10
597.973116
 20
401.835961
 30
0.0
  0
CIRCLE
  5
C6
330
A
100
AcDbEntity
  8
LAY-1
  6
Continuous
 62
     1
100
AcDbCircle
 10
559.8244379999998
 20
413.864193
 30
0.0
 40
2.1
  0
CIRCLE
  5
C7
330
A
100
AcDbEntity
  8
LAY-1
  6
Continuous
 62
     1
100
AcDbCircle
 10
597.973116
 20
401.835961
 30
0.0
 40
2.1
  0
LINE
  5
C8
330
A
100
AcDbEntity
  8
LAY-1
  6
DOT
 62
     1
100
AcDbLine
 10
575.0798129999997
 20
395.737872
 30
0.0
 11
583.108658
 21
421.202114
 31
0.0
  0
POINT
  5
C9
330
A
100
AcDbEntity
  8
LAY-1
  6
Continuous
 62
     3
100
AcDbPoint
 10
625.1024570000002
 20
391.421983
 30
0.0
  0
POINT
  5
CA
330
A
100
AcDbEntity
  8
LAY-1
  6
Continuous
 62
     3
100
AcDbPoint
 10
661.500908
 20
374.8342529999998
 30
0.0
  0
CIRCLE
  5
CB
330
A
100
AcDbEntity
  8
LAY-1
  6
Continuous
 62
     1
100
AcDbCircle
 10
625.1024570000002
 20
391.421983
 30
0.0
 40
2.1
  0
CIRCLE
  5
CC
330
A
100
AcDbEntity
  8
LAY-1
  6
Continuous
 62
     1
100
AcDbCircle
 10
661.500908
 20
374.8342529999998
 30
0.0
 40
2.1
  0
LINE
  5
CD
330
A
100
AcDbEntity
  8
LAY-1
  6
DOT
 62
     1
100
AcDbLine
 10
638.035078
 20
371.57161
 30
0.0
 11
649.107387
 21
395.8675759999998
 31
0.0
  0
POINT
  5
CE
330
A
100
AcDbEntity
  8
LAY-1
  6
Continuous
 62
     3
100
AcDbPoint
 10
354.544879
 20
431.72519
 30
0.0
  0
POINT
  5
CF
330
A
100
AcDbEntity
  8
LAY-1
  6
Continuous
 62
     3
100
AcDbPoint
 10
394.4702709999998
 20
434.167132
 30
0.0
  0
CIRCLE
  5
D0
330
A
100
AcDbEntity
  8
LAY-1
  6
Continuous
 62
     1
100
AcDbCircle
 10
354.544879
 20
431.72519
 30
0.0
 40
2.1
  0
CIRCLE
  5
D1
330
A
100
AcDbEntity
  8
LAY-1
  6
Continuous
 62
     1
100
AcDbCircle
 10
394.4702709999998
 20
434.167132
 30
0.0
 40
2.1
  0
LINE
  5
D2
330
A
100
AcDbEntity
  8
LAY-1
  6
DOT
 62
     1
100
AcDbLine
 10
375.282892
 20
420.269849
 30
0.0
 11
373.652896
 21
446.920048
 31
0.0
  0
POINT
  5
D3
330
A
100
AcDbEntity
  8
LAY-1
  6
Continuous
 62
     3
100
AcDbPoint
 10
286.37183
 20
420.8943119999998
 30
0.0
  0
POINT
  5
D4
330
A
100
AcDbEntity
  8
LAY-1
  6
Continuous
 62
     3
100
AcDbPoint
 10
325.702026
 20
428.183733
 30
0.0
  0
CIRCLE
  5
D5
330
A
100
AcDbEntity
  8
LAY-1
  6
Continuous
 62
     1
100
AcDbCircle
 10
286.37183
 20
420.8943119999998
 30
0.0
 40
2.1
  0
CIRCLE
  5
D6
330
A
100
AcDbEntity
  8
LAY-1
  6
Continuous
 62
     1
100
AcDbCircle
 10
325.702026
 20
428.183733
 30
0.0
 40
2.1
  0
LINE
  5
D7
330
A
100
AcDbEntity
  8
LAY-1
  6
DOT
 62
     1
100
AcDbLine
 10
308.351319
 20
412.051685
 30
0.0
 11
303.485631
 21
438.3045909999998
 31
0.0
  0
POINT
  5
D8
330
A
100
AcDbEntity
  8
LAY-1
  6
Continuous
 62
     3
100
AcDbPoint
 10
220.026884
 20
401.835961
 30
0.0
  0
POINT
  5
D9
330
A
100
AcDbEntity
  8
LAY-1
  6
Continuous
 62
     3
100
AcDbPoint
 10
258.175562
 20
413.864193
 30
0.0
  0
CIRCLE
  5
DA
330
A
100
AcDbEntity
  8
LAY-1
  6
Continuous
 62
     1
100
AcDbCircle
 10
220.026884
 20
401.835961
 30
0.0
 40
2.1
  0
CIRCLE
  5
DB
330
A
100
AcDbEntity
  8
LAY-1
  6
Continuous
 62
     1
100
AcDbCircle
 10
258.175562
 20
413.864193
 30
0.0
 40
2.1
  0
LINE
  5
DC
330
A
100
AcDbEntity
  8
LAY-1
  6
DOT
 62
     1
100
AcDbLine
 10
242.9201869999999
 20
395.737872
 30
0.0
 11
234.8913419999999
 21
421.202114
 31
0.0
  0
POINT
  5
DD
330
A
100
AcDbEntity
  8
LAY-1
  6
Continuous
 62
     3
100
AcDbPoint
 10
156.4990919999999
 20
374.8342529999998
 30
0.0
  0
POINT
  5
DE
330
A
100
AcDbEntity
  8
LAY-1
  6
Continuous
 62
     3
100
AcDbPoint
 10
192.8975429999999
 20
391.421983
 30
0.0
  0
CIRCLE
  5
DF
330
A
100
AcDbEntity
  8
LAY-1
  6
Continuous
 62
     1
100
AcDbCircle
 10
156.4990919999999
 20
374.8342529999998
 30
0.0
 40
2.1
  0
CIRCLE
  5
E0
330
A
100
AcDbEntity
  8
LAY-1
  6
Continuous
 62
     1
100
AcDbCircle
 10
192.8975429999999
 20
391.421983
 30
0.0
 40
2.1
  0
LINE
  5
E1
330
A
100
AcDbEntity
  8
LAY-1
  6
DOT
 62
     1
100
AcDbLine
 10
179.964922
 20
371.57161
 30
0.0
 11
168.8926129999998
 21
395.8675759999998
 31
0.0
  0
ARC
  5
E2
330
A
100
AcDbEntity
  8
LAY-1
  6
Continuous
 62
     3
100
AcDbCircle
 10
409.0
 20
-131.0
 30
0.0
 40
537.0
100
AcDbArc
 50
55.5
 51
124.4999999999999
  0
ARC
  5
E3
330
A
100
AcDbEntity
  8
LAY-1
  6
Continuous
 62
     3
100
AcDbCircle
 10
409.0
 20
-131.0
 30
0.0
 40
568.5
100
AcDbArc
 50
55.5
 51
124.4999999999999
  0
LINE
  5
E4
330
A
100
AcDbEntity
  8
LAY-1
  6
Continuous
 62
     3
100
AcDbLine
 10
104.8398509999999
 20
311.555763
 30
0.0
 11
86.998054
 21
337.515738
 31
0.0
  0
LINE
  5
E5
330
A
100
AcDbEntity
  8
LAY-1
  6
Continuous
 62
     3
100
AcDbLine
 10
713.160149
 20
311.555763
 30
0.0
 11
731.0019459999997
 21
337.515738
 31
0.0
  0
DIMENSION
  5
F2
330
A
100
AcDbEntity
  8
LAY-1
  6
Continuous
 62
     1
100
AcDbDimension
  2
*D8
 10
719.6646349999999
 20
418.0978829999999
 30
0.0
 11
721.634329
 21
421.579306
 31
0.0
 70
   165
 71
     5
 42
-1.0
  3
STANDARD
100
AcDb3PointAngularDimension
 13
732.6657639999997
 23
339.936609
 33
0.0
 14
645.9712699999998
 24
388.985994
 34
0.0
 15
409.0
 25
-131.0
 35
0.0
1001
ACAD
1000
DSTYLE
1002
{
1070
     6
1000
_EX_NORM
1070
     7
1000
_EX_NORM
1070
    41
1040
6.0
1070
    42
1040
0.0625
1070
    44
1040
3.0
1070
    73
1070
     0
1070
    74
1070
     0
1070
    75
1070
     0
1070
    76
1070
     0
1070
    77
1070
     1
1070
    78
1070
     8
1070
   140
1040
6.0
1070
   147
1040
1.0
1070
   173
1070
     1
1070
   176
1070
     1
1070
   177
1070
     1
1070
   178
1070
     1
1070
   271
1070
     3
1070
   280
1070
     0
1070
   287
1070
     5
1002
}
  0
DIMENSION
  5
FE
330
A
100
AcDbEntity
  8
LAY-1
  6
Continuous
 62
     1
100
AcDbDimension
  2
*D9
 10
635.0904169999997
 20
457.985673
 30
0.0
 11
636.5238889999998
 21
461.719995
 31
0.0
 70
   165
 71
     5
 42
-1.0
  3
STANDARD
100
AcDb3PointAngularDimension
 13
670.625428
 23
443.0846059999998
 33
0.0
 14
580.83457
 24
413.98963
 34
0.0
 15
409.0
 25
-131.0
 35
0.0
1001
ACAD
1000
DSTYLE
1002
{
1070
     6
1000
_EX_NORM
1070
     7
1000
_EX_NORM
1070
    41
1040
6.0
1070
    42
1040
0.0625
1070
    44
1040
3.0
1070
    73
1070
     0
1070
    74
1070
     0
1070
    75
1070
     1
1070
    76
1070
     0
1070
    77
1070
     1
1070
    78
1070
     8
1070
   140
1040
6.0
1070
   147
1040
1.0
1070
   173
1070
     1
1070
   176
1070
     1
1070
   177
1070
     1
1070
   178
1070
     1
1070
   271
1070
     3
1070
   280
1070
     0
1070
   287
1070
     5
1002
}
  0
DIMENSION
  5
10A
330
A
100
AcDbEntity
  8
LAY-1
  6
Continuous
 62
     1
100
AcDbDimension
  2
*D10
 10
561.625876
 20
481.148954
 30
0.0
 11
562.593564
 21
485.030137
 31
0.0
 70
   165
 71
     5
 42
-1.0
  3
STANDARD
100
AcDb3PointAngularDimension
 13
598.711998
 23
470.689586
 33
0.0
 14
513.136213
 24
430.868726
 34
0.0
 15
409.0
 25
-131.0
 35
0.0
1001
ACAD
1000
DSTYLE
1002
{
1070
     6
1000
_EX_NORM
1070
     7
1000
_EX_NORM
1070
    41
1040
6.0
1070
    42
1040
0.0625
1070
    44
1040
3.0
1070
    73
1070
     0
1070
    74
1070
     0
1070
    75
1070
     1
1070
    76
1070
     0
1070
    77
1070
     1
1070
    78
1070
     8
1070
   140
1040
6.0
1070
   147
1040
1.0
1070
   173
1070
     1
1070
   176
1070
     1
1070
   177
1070
     1
1070
   178
1070
     1
1070
   271
1070
     3
1070
   280
1070
     0
1070
   287
1070
     5
1002
}
  0
DIMENSION
  5
116
330
A
100
AcDbEntity
  8
LAY-1
  6
Continuous
 62
     1
100
AcDbDimension
  2
*D11
 10
485.8860349999998
 20
495.186504
 30
0.0
 11
486.373512
 21
499.1566879999998
 31
0.0
 70
   165
 71
     5
 42
-1.0
  3
STANDARD
100
AcDb3PointAngularDimension
 13
523.970399
 23
489.3247599999998
 33
0.0
 14
443.885425
 24
439.3716539999998
 34
0.0
 15
409.0
 25
-131.0
 35
0.0
1001
ACAD
1000
DSTYLE
1002
{
1070
     6
1000
_EX_NORM
1070
     7
1000
_EX_NORM
1070
    41
1040
6.0
1070
    42
1040
0.0625
1070
    44
1040
3.0
1070
    73
1070
     0
1070
    74
1070
     0
1070
    75
1070
     1
1070
    76
1070
     0
1070
    77
1070
     1
1070
    78
1070
     8
1070
   140
1040
6.0
1070
   147
1040
1.0
1070
   173
1070
     1
1070
   176
1070
     1
1070
   177
1070
     1
1070
   178
1070
     1
1070
   271
1070
     3
1070
   280
1070
     0
1070
   287
1070
     5
1002
}
  0
DIMENSION
  5
122
330
A
100
AcDbEntity
  8
LAY-1
  6
Continuous
 62
     1
100
AcDbDimension
  2
*D12
 10
409.0
 20
499.8890549999998
 30
0.0
 11
409.0
 21
503.8890549999998
 31
0.0
 70
   165
 71
     5
 42
-1.0
  3
STANDARD
100
AcDb3PointAngularDimension
 13
447.5148549999998
 23
498.71232
 33
0.0
 14
374.114575
 24
439.3716539999998
 34
0.0
 15
409.0
 25
-131.0
 35
0.0
1001
ACAD
1000
DSTYLE
1002
{
1070
     6
1000
_EX_NORM
1070
     7
1000
_EX_NORM
1070
    41
1040
6.0
1070
    42
1040
0.0625
1070
    44
1040
3.0
1070
    73
1070
     0
1070
    74
1070
     0
1070
    75
1070
     1
1070
    76
1070
     0
1070
    77
1070
     1
1070
    78
1070
     8
1070
   140
1040
6.0
1070
   147
1040
1.0
1070
   173
1070
     1
1070
   176
1070
     1
1070
   177
1070
     1
1070
   178
1070
     1
1070
   271
1070
     3
1070
   280
1070
     0
1070
   287
1070
     5
1002
}
  0
DIMENSION
  5
12E
330
A
100
AcDbEntity
  8
LAY-1
  6
Continuous
 62
     1
100
AcDbDimension
  2
*D13
 10
332.113965
 20
495.186504
 30
0.0
 11
331.6264879999998
 21
499.1566879999998
 31
0.0
 70
   165
 71
     5
 42
-1.0
  3
STANDARD
100
AcDb3PointAngularDimension
 13
370.485145
 23
498.71232
 33
0.0
 14
304.863787
 24
430.868726
 34
0.0
 15
409.0
 25
-131.0
 35
0.0
1001
ACAD
1000
DSTYLE
1002
{
1070
     6
1000
_EX_NORM
1070
     7
1000
_EX_NORM
1070
    41
1040
6.0
1070
    42
1040
0.0625
1070
    44
1040
3.0
1070
    73
1070
     0
1070
    74
1070
     0
1070
    75
1070
     1
1070
    76
1070
     0
1070
    77
1070
     1
1070
    78
1070
     8
1070
   140
1040
6.0
1070
   147
1040
1.0
1070
   173
1070
     1
1070
   176
1070
     1
1070
   177
1070
     1
1070
   178
1070
     1
1070
   271
1070
     3
1070
   280
1070
     0
1070
   287
1070
     5
1002
}
  0
DIMENSION
  5
13A
330
A
100
AcDbEntity
  8
LAY-1
  6
Continuous
 62
     1
100
AcDbDimension
  2
*D14
 10
256.374124
 20
481.148954
 30
0.0
 11
255.4064359999999
 21
485.030137
 31
0.0
 70
   165
 71
     5
 42
-1.0
  3
STANDARD
100
AcDb3PointAngularDimension
 13
294.0296009999999
 23
489.3247599999998
 33
0.0
 14
237.1654299999999
 24
413.98963
 34
0.0
 15
409.0
 25
-131.0
 35
0.0
1001
ACAD
1000
DSTYLE
1002
{
1070
     6
1000
_EX_NORM
1070
     7
1000
_EX_NORM
1070
    41
1040
6.0
1070
    42
1040
0.0625
1070
    44
1040
3.0
1070
    73
1070
     0
1070
    74
1070
     0
1070
    75
1070
     1
1070
    76
1070
     0
1070
    77
1070
     1
1070
    78
1070
     8
1070
   140
1040
6.0
1070
   147
1040
1.0
1070
   173
1070
     1
1070
   176
1070
     1
1070
   177
1070
     1
1070
   178
1070
     1
1070
   271
1070
     3
1070
   280
1070
     0
1070
   287
1070
     5
1002
}
  0
DIMENSION
  5
146
330
A
100
AcDbEntity
  8
LAY-1
  6
Continuous
 62
     1
100
AcDbDimension
  2
*D15
 10
182.9095829999999
 20
457.985673
 30
0.0
 11
181.476111
 21
461.719995
 31
0.0
 70
   165
 71
     5
 42
-1.0
  3
STANDARD
100
AcDb3PointAngularDimension
 13
219.288002
 23
470.689586
 33
0.0
 14
172.02873
 24
388.985994
 34
0.0
 15
409.0
 25
-131.0
 35
0.0
1001
ACAD
1000
DSTYLE
1002
{
1070
     6
1000
_EX_NORM
1070
     7
1000
_EX_NORM
1070
    41
1040
6.0
1070
    42
1040
0.0625
1070
    44
1040
3.0
1070
    73
1070
     0
1070
    74
1070
     0
1070
    75
1070
     1
1070
    76
1070
     0
1070
    77
1070
     1
1070
    78
1070
     8
1070
   140
1040
6.0
1070
   147
1040
1.0
1070
   173
1070
     1
1070
   176
1070
     1
1070
   177
1070
     1
1070
   178
1070
     1
1070
   271
1070
     3
1070
   280
1070
     0
1070
   287
1070
     5
1002
}
  0
DIMENSION
  5
152
330
A
100
AcDbEntity
  8
LAY-1
  6
Continuous
 62
     1
100
AcDbDimension
  2
*D16
 10
98.33536500000001
 20
418.0978829999999
 30
0.0
 11
96.365671
 21
421.579306
 31
0.0
 70
   165
 71
     5
 42
-1.0
  3
STANDARD
100
AcDb3PointAngularDimension
 13
147.3745719999999
 23
443.0846059999998
 33
0.0
 14
85.334236
 24
339.936609
 34
0.0
 15
409.0
 25
-131.0
 35
0.0
1001
ACAD
1000
DSTYLE
1002
{
1070
     6
1000
_EX_NORM
1070
     7
1000
_EX_NORM
1070
    41
1040
6.0
1070
    42
1040
0.0625
1070
    44
1040
3.0
1070
    73
1070
     0
1070
    74
1070
     0
1070
    75
1070
     1
1070
    76
1070
     0
1070
    77
1070
     1
1070
    78
1070
     8
1070
   140
1040
6.0
1070
   147
1040
1.0
1070
   173
1070
     1
1070
   176
1070
     1
1070
   177
1070
     1
1070
   178
1070
     1
1070
   271
1070
     3
1070
   280
1070
     0
1070
   287
1070
     5
1002
}
  0
DIMENSION
  5
15E
330
A
100
AcDbEntity
  8
LAY-1
  6
Continuous
 62
     1
100
AcDbDimension
  2
*D17
 10
319.8737299999999
 20
459.6304029999997
 30
0.0
 11
299.47969
 21
459.918712
 31
0.0
 70
    33
 71
     5
 42
-1.0
  3
STANDARD
100
AcDbAlignedDimension
 13
286.37183
 23
420.8943119999998
 33
0.0
 14
325.702026
 24
428.183733
 34
0.0
1001
ACAD
1000
DSTYLE
1002
{
1070
     6
1000
_EX_NORM
1070
     7
1000
_EX_NORM
1070
    41
1040
6.0
1070
    42
1040
3.0
1070
    44
1040
3.0
1070
    73
1070
     0
1070
    74
1070
     0
1070
    75
1070
     0
1070
    76
1070
     0
1070
    77
1070
     1
1070
    78
1070
     8
1070
   140
1040
6.0
1070
   147
1040
1.0
1070
   173
1070
     1
1070
   176
1070
     1
1070
   177
1070
     1
1070
   178
1070
     1
1070
   271
1070
     3
1070
   280
1070
     0
1070
   287
1070
     3
1002
}
  0
LINE
  5
15F
330
A
100
AcDbEntity
  8
LAY-1
  6
Continuous
 62
     1
100
AcDbLine
 10
500.936963
 20
430.016796
 30
0.0
 11
501.532188
 21
424.0463929999998
 31
0.0
  0
LINE
  5
160
330
A
100
AcDbEntity
  8
LAY-1
  6
Continuous
 62
     1
100
AcDbLine
 10
500.936963
 20
430.016796
 30
0.0
 11
498.4672409999998
 21
424.548663
 31
0.0
  0
TEXT
  5
161
330
A
100
AcDbEntity
  8
LAY-1
  6
Continuous
 62
     1
100
AcDbText
 10
451.3132889999998
 20
133.3873069999997
 30
0.0
 40
6.0
  1
Ｒ
 50
80.69333893632446
 41
0.9999999522893375
  7
EXCADSTD
 72
     5
 11
452.0895379999998
 21
138.124124
 31
0.0
100
AcDbText
  0
TEXT
  5
162
330
A
100
AcDbEntity
  8
LAY-1
  6
Continuous
 62
     1
100
AcDbText
 10
452.2835999999998
 20
139.3083279999999
 30
0.0
 40
6.0
  1
568.5
 50
80.69334106020345
 41
0.964285748374079
  7
EXCADSTD
 72
     5
 11
456.6499999999998
 21
165.952926
 31
0.0
100
AcDbText
  0
LINE
  5
163
330
A
100
AcDbEntity
  8
LAY-1
  6
Continuous
 62
     1
100
AcDbLine
 10
547.985827
 20
387.7021689999998
 30
0.0
 11
547.985827
 21
381.7021689999998
 31
0.0
  0
LINE
  5
164
330
A
100
AcDbEntity
  8
LAY-1
  6
Continuous
 62
     1
100
AcDbLine
 10
547.985827
 20
387.7021689999998
 30
0.0
 11
544.985827
 21
382.5060159999998
 31
0.0
  0
TEXT
  5
165
330
A
100
AcDbEntity
  8
LAY-1
  6
Continuous
 62
     1
100
AcDbText
 10
474.4211589999999
 20
117.0187929999999
 30
0.0
 40
6.0
  1
Ｒ
 50
74.99999337667794
 41
1.00000003826739
  7
EXCADSTD
 72
     5
 11
475.663491
 21
121.655237
 31
0.0
100
AcDbText
  0
TEXT
  5
166
330
A
100
AcDbEntity
  8
LAY-1
  6
Continuous
 62
     1
100
AcDbText
 10
475.974074
 20
122.8143479999999
 30
0.0
 40
6.0
  1
537
 50
75.00000260059173
 41
1.124999994522187
  7
EXCADSTD
 72
     5
 11
480.6328159999998
 21
140.2010129999997
 31
0.0
100
AcDbText
  0
LINE
  5
167
330
A
100
AcDbEntity
  8
LAY-1
  6
Continuous
 62
     1
100
AcDbLine
 10
500.936963
 20
430.016796
 30
0.0
 11
448.0679429999998
 21
107.4
 31
0.0
  0
LINE
  5
168
330
A
100
AcDbEntity
  8
LAY-1
  6
Continuous
 62
     1
100
AcDbLine
 10
547.985827
 20
387.7021689999998
 30
0.0
 11
472.879087
 21
107.4
 31
0.0
  0
TEXT
  5
169
330
A
100
AcDbEntity
  8
LAY-1
  6
Continuous
 62
     1
100
AcDbText
 10
250.6499999999999
 20
311.2
 30
0.0
 40
6.0
  1
16-φ4.2　PCD  ( R=555 )
 41
0.8940397350993379
  7
EXCADSTD
 72
     5
 11
358.65
 21
311.2
 31
0.0
100
AcDbText
  0
LEADER
  5
16A
330
A
100
AcDbEntity
  8
LAY-1
  6
Continuous
 62
     1
100
AcDbLeader
  3
STANDARD
 76
     3
 10
194.073844
 20
389.6823519999998
 30
0.0
 10
236.8
 20
310.1999999999998
 30
0.0
 10
372.5
 20
310.1999999999998
 30
0.0
1001
ACAD
1000
DSTYLE
1002
{
1070
    41
1040
6.0
1070
     5
1000
_EX_NORM
1070
     6
1000
_EX_NORM
1070
     7
1000
_EX_NORM
1002
}
  0
TEXT
  5
16B
330
A
100
AcDbEntity
  8
LAY-1
  6
Continuous
 62
     1
100
AcDbText
 10
175.0
 20
147.0
 30
0.0
 40
10.0
  1
ｔ=1.6
 41
1.027397260273972
  7
EXCADSTD
 72
     5
 11
225.0
 21
147.0
 31
0.0
100
AcDbText
  0
MTEXT
  5
1B6
330
A
100
AcDbEntity
  8
LAY-1
  6
Continuous
100
AcDbMText
 10
34.49688212076796
 20
73.37703232362876
 30
0.0
 40
6.666666666666667
 41
161.9224
 71
     1
 72
     5
  1
MATERIAL :BRASS (SUS304)\P2  REQUIRED
 73
     1
 44
1.0
  0
MTEXT
  5
1C1
330
A
100
AcDbEntity
  8
LAY-1
  6
Continuous
100
AcDbMText
 10
613.237325032552
 20
56.0058885852
 30
0.0
 40
6.000000000000002
 41
66.6666666666667
 71
     1
 72
     5
  1
PHENIX\PDRAWUNG NO.
 73
     1
 44
1.0
  0
MTEXT
  5
1C2
330
A
100
AcDbEntity
  8
LAY-1
  6
Continuous
100
AcDbMText
 10
613.0953928629558
 20
30.03396579022217
 30
0.0
 40
6.000000000000002
 41
63.79469999999997
 71
     1
 72
     5
  1
DRAWING NO.
 73
     1
 44
1.0
  0
LINE
  5
1C3
330
A
100
AcDbEntity
  8
LAY-1
  6
Continuous
370
   100
100
AcDbLine
 10
809.9999992095368
 20
38.30901058506476
 30
0.0
 11
476.6666658762034
 21
38.30899741068306
 31
0.0
210
0.0
220
0.0
230
-1.0
  0
LINE
  5
1C4
330
A
100
AcDbEntity
  8
LAY-1
  6
Continuous
370
   100
100
AcDbLine
 10
809.9999984190739
 20
58.3090105850647
 30
0.0
 11
476.6666650857408
 21
58.30899741068304
 31
0.0
210
0.0
220
0.0
230
-1.0
  0
LINE
  5
1C5
330
A
100
AcDbEntity
  8
LAY-1
  6
Continuous
370
   100
100
AcDbLine
 10
809.9999976286111
 20
78.30901058506475
 30
0.0
 11
476.6666642952777
 21
78.30899741068304
 31
0.0
210
0.0
220
0.0
230
-1.0
  0
MTEXT
  5
1C6
330
A
100
AcDbEntity
  8
LAY-1
  6
Continuous
100
AcDbMText
 10
518.0645039876301
 20
75.42470682059736
 30
0.0
 40
6.666666666666667
 41
26.57976666666668
 71
     1
 72
     5
  1
{\fArial|b1|i1|c0|p34;mm}
 73
     1
 44
1.0
  0
MTEXT
  5
1C7
330
A
100
AcDbEntity
  8
LAY-1
  6
Continuous
100
AcDbMText
 10
511.9990437825519
 20
63.73536400392662
 30
0.0
 40
3.333333333333333
 41
26.57976666666668
 71
     1
 72
     5
  1
{\fArial|b0|i0|c0|p34;MILLIMETERS}
 73
     1
 44
1.0
  0
MTEXT
  5
1C8
330
A
100
AcDbEntity
  8
LAY-1
  6
Continuous
100
AcDbMText
 10
481.3083648681638
 20
35.36693688626099
 30
0.0
 40
5.0
 41
128.9897666666666
 71
     1
 72
     5
  1
{\fArial|b0|i0|c0|p34;JUL 31 2001\P\fArial|b1|i0|c0|p34;\H1.2x;CI \fMS UI Gothic|b1|i0|c0|p17; \fArial|b1|i0|c0|p34;INDUSTRIES, LTD. (JAPAN)}
 73
     1
 44
1.0
  0
MTEXT
  5
1C9
330
A
100
AcDbEntity
  8
LAY-1
  6
Continuous
100
AcDbMText
 10
490.1838124593097
 20
57.24409823015342
 30
0.0
 40
6.000000000000002
 41
111.8305642910657
 71
     1
 72
     5
  1
{\fArial|b1|i0|c0|p34;PHENIX TOC IN TSUKUBA\P\fArial|b0|i0|c0|p34;\H0.6667x;Dept. of Physics , Tsukuba Univ.  Japan}
 73
     1
 44
1.0
  0
LINE
  5
1CA
330
A
100
AcDbEntity
  8
LAY-1
  6
Continuous
370
   100
100
AcDbLine
 10
509.9999976286111
 20
78.30899872812115
 30
0.0
 11
509.9999984190738
 21
58.3089987281212
 31
0.0
210
0.0
220
0.0
230
-1.0
  0
LINE
  5
1CB
330
A
100
AcDbEntity
  8
LAY-1
  6
Continuous
370
   100
100
AcDbLine
 10
476.6666642952777
 20
78.30899741068297
 30
0.0
 11
476.6666666666663
 21
18.30899741068303
 31
0.0
210
0.0
220
0.0
230
-1.0
  0
MTEXT
  5
1CC
330
A
100
AcDbEntity
  8
LAY-1
  6
Continuous
100
AcDbMText
 10
480.3875172932941
 20
71.36715146298221
 30
0.0
 40
6.666666666666667
 41
26.5797546748389
 71
     1
 72
     5
  1
UNIT
 73
     1
 44
1.0
  0
MTEXT
  5
1CD
330
A
100
AcDbEntity
  8
LAY-1
  6
Continuous
100
AcDbMText
 10
585.8810373942056
 20
71.09155492380272
 30
0.0
 40
6.666666666666667
 41
26.5798
 71
     1
 72
     5
  1
{\fArial|b0|i0|c0|p34;1:2}
 73
     1
 44
1.0
  0
LINE
  5
1CE
330
A
100
AcDbEntity
  8
LAY-1
  6
Continuous
370
   100
100
AcDbLine
 10
576.6666642952777
 20
78.30900136299745
 30
0.0
 11
576.6666650857405
 21
58.30900136299754
 31
0.0
210
0.0
220
0.0
230
-1.0
  0
LINE
  5
1CF
330
A
100
AcDbEntity
  8
LAY-1
  6
Continuous
370
   100
100
AcDbLine
 10
543.3333309619444
 20
78.30900004555928
 30
0.0
 11
543.3333317524073
 21
58.30900004555935
 31
0.0
210
0.0
220
0.0
230
-1.0
  0
MTEXT
  5
1D0
330
A
100
AcDbEntity
  8
LAY-1
  6
Continuous
100
AcDbMText
 10
545.9328206380207
 20
71.94509733115643
 30
0.0
 40
6.666666666666667
 41
33.33333332445867
 71
     1
 72
     5
  1
{\fMS UI Gothic|b0|i0|c0|p17;SCALE}
 73
     1
 44
1.0
  0
LINE
  5
1D1
330
A
100
AcDbEntity
  8
LAY-1
  6
Continuous
370
   100
100
AcDbLine
 10
609.9999976286112
 20
78.30900268043571
 30
0.0
 11
609.9999976286112
 21
18.30898858506478
 31
0.0
210
0.0
220
0.0
230
-1.0
  0
MTEXT
  5
1D2
330
A
100
AcDbEntity
  8
LAY-1
  6
Continuous
100
AcDbMText
 10
622.0977071126301
 20
71.48011339103192
 30
0.0
 40
6.666666666666667
 41
66.6666666666667
 71
     1
 72
     5
  1
TITLE
 73
     1
 44
1.0
  0
MTEXT
  5
1D3
330
A
100
AcDbEntity
  8
LAY-1
  6
Continuous
100
AcDbMText
 10
720.3535970052082
 20
74.2877261280518
 30
0.0
 40
10.0
 41
70.56034636052112
 71
     1
 72
     5
  1
{\fArial|b1|i0|c0|p34;Base fix}
 73
     1
 44
1.0
  0
MTEXT
  5
1D4
330
A
100
AcDbEntity
  8
LAY-1
  6
Continuous
100
AcDbMText
 10
700.8927103678386
 20
54.18438820436606
 30
0.0
 40
10.0
 41
93.1714
 71
     1
 72
     5
  1
{\fArial|b1|i0|c0|p34;105-219-002}
 73
     1
 44
1.0
  0
LINE
  5
1D5
330
A
100
AcDbEntity
  8
LAY-1
  6
Continuous
100
AcDbLine
 10
676.6666642952777
 20
78.30900268043571
 30
0.0
 11
676.6666642952777
 21
18.30898858506478
 31
0.0
210
0.0
220
0.0
230
-1.0
  0
MTEXT
  5
1D6
330
A
100
AcDbEntity
  8
LAY-1
  6
Continuous
100
AcDbMText
 10
721.5399525960284
 20
31.36414452786254
 30
0.0
 40
6.666666666666667
 41
35.9574
 71
     1
 72
     5
  1
021
 73
     1
 44
1.0
  0
ENDSEC
  0
SECTION
  2
OBJECTS
  0
DICTIONARY
  5
19
330
0
100
AcDbDictionary
281
     1
  3
ACAD_GROUP
350
1A
  3
ACAD_LAYOUT
350
17B
  3
ACAD_MLINESTYLE
350
1B
  3
ACAD_PLOTSETTINGS
350
17C
  3
ACAD_PLOTSTYLENAME
350
179
  3
ASE_INDEX_DICTIONARY
350
1D8
  0
DICTIONARY
  5
1A
102
{ACAD_REACTORS
330
19
102
}
330
19
100
AcDbDictionary
281
     1
  0
DICTIONARY
  5
17B
102
{ACAD_REACTORS
330
19
102
}
330
19
100
AcDbDictionary
281
     1
  3
Model
350
17D
  3
ﾚｲｱｳﾄ1
350
17E
  0
DICTIONARY
  5
1B
102
{ACAD_REACTORS
330
19
102
}
330
19
100
AcDbDictionary
281
     1
  3
STANDARD
350
1C
  0
DICTIONARY
  5
17C
102
{ACAD_REACTORS
330
19
102
}
330
19
100
AcDbDictionary
281
     1
  0
ACDBDICTIONARYWDFLT
  5
179
102
{ACAD_REACTORS
330
19
102
}
330
19
100
AcDbDictionary
281
     1
  3
Normal
350
17A
100
AcDbDictionaryWithDefault
340
17A
  0
DICTIONARY
  5
1D8
102
{ACAD_REACTORS
330
19
102
}
330
19
100
AcDbDictionary
281
     1
  3
ASEBlockHierarchyIndexRecord
350
1DA
1001
DCO15
1040
1412972647.5
  0
LAYOUT
  5
17D
102
{ACAD_REACTORS
330
17B
102
}
330
17B
100
AcDbPlotSettings
  1

  2
Tektronix Phaser 850DP
  4

  6

 40
0.0
 41
0.0
 42
0.0
 43
0.0
 44
0.0
 45
0.0
 46
0.0
 47
0.0
 48
0.0
 49
0.0
140
0.0
141
0.0
142
1.0
143
1.0
 70
  1712
 72
     0
 73
     0
 74
     0
  7

 75
     0
147
1.0
148
0.0
149
0.0
100
AcDbLayout
  1
Model
 70
     1
 71
     0
 10
0.0
 20
0.0
 11
12.0
 21
9.0
 12
0.0
 22
0.0
 32
0.0
 14
0.0
 24
0.0
 34
0.0
 15
0.0
 25
0.0
 35
0.0
146
0.0
 13
0.0
 23
0.0
 33
0.0
 16
1.0
 26
0.0
 36
0.0
 17
0.0
 27
1.0
 37
0.0
 76
     0
330
A
  0
LAYOUT
  5
17E
102
{ACAD_REACTORS
330
17B
102
}
330
17B
100
AcDbPlotSettings
  1

  2
Tektronix Phaser 850DP
  4

  6

 40
0.0
 41
0.0
 42
0.0
 43
0.0
 44
0.0
 45
0.0
 46
0.0
 47
0.0
 48
0.0
 49
0.0
140
0.0
141
0.0
142
1.0
143
1.0
 70
   688
 72
     0
 73
     0
 74
     5
  7

 75
    16
147
1.0
148
0.0
149
0.0
100
AcDbLayout
  1
ﾚｲｱｳﾄ1
 70
     0
 71
     1
 10
0.0
 20
0.0
 11
12.0
 21
9.0
 12
0.0
 22
0.0
 32
0.0
 14
1.000000000000000E+20
 24
1.000000000000000E+20
 34
1.000000000000000E+20
 15
-1.000000000000000E+20
 25
-1.000000000000000E+20
 35
-1.000000000000000E+20
146
0.0
 13
0.0
 23
0.0
 33
0.0
 16
1.0
 26
0.0
 36
0.0
 17
0.0
 27
1.0
 37
0.0
 76
     0
330
B
  0
MLINESTYLE
  5
1C
102
{ACAD_REACTORS
330
1B
102
}
330
1B
100
AcDbMlineStyle
  2
STANDARD
 70
     0
  3

 62
     0
 51
90.0
 52
90.0
 71
     2
 49
0.5
 62
   256
  6
BYLAYER
 49
-0.5
 62
   256
  6
BYLAYER
  0
ACDBPLACEHOLDER
  5
17A
102
{ACAD_REACTORS
330
179
102
}
330
179
  0
XRECORD
  5
1DA
102
{ACAD_REACTORS
330
1D8
102
}
330
1D8
100
AcDbXrecord
280
     1
  0
ENDSEC
  0
EOF
