  0
SECTION
  2
HEADER
  9
$ACADVER
  1
AC1015
  9
$ACADMAINTVER
 70
    10
  9
$DWGCODEPAGE
  3
ANSI_932
  9
$INSBASE
 10
0.0
 20
0.0
 30
0.0
  9
$EXTMIN
 10
12.99682716489405
 20
8.986679779117366
 30
-0.0015258207003583
  9
$EXTMAX
 10
406.0098276217583
 20
287.0163123253922
 30
0.0000000349246037
  9
$LIMMIN
 10
0.0
 20
0.0
  9
$LIMMAX
 10
420.0
 20
297.0
  9
$ORTHOMODE
 70
     0
  9
$REGENMODE
 70
     1
  9
$FILLMODE
 70
     1
  9
$QTEXTMODE
 70
     0
  9
$MIRRTEXT
 70
     1
  9
$LTSCALE
 40
1.0
  9
$ATTMODE
 70
     1
  9
$TEXTSIZE
 40
0.0
  9
$TRACEWID
 40
0.05
  9
$TEXTSTYLE
  7
STANDARD
  9
$CLAYER
  8
LAY-1
  9
$CELTYPE
  6
CONTINUOUS
  9
$CECOLOR
 62
   256
  9
$CELTSCALE
 40
1.0
  9
$DISPSILH
 70
     0
  9
$DIMSCALE
 40
1.0
  9
$DIMASZ
 40
0.18
  9
$DIMEXO
 40
0.0625
  9
$DIMDLI
 40
0.38
  9
$DIMRND
 40
0.0
  9
$DIMDLE
 40
0.0
  9
$DIMEXE
 40
0.18
  9
$DIMTP
 40
0.0
  9
$DIMTM
 40
0.0
  9
$DIMTXT
 40
0.18
  9
$DIMCEN
 40
0.09
  9
$DIMTSZ
 40
0.0
  9
$DIMTOL
 70
     0
  9
$DIMLIM
 70
     0
  9
$DIMTIH
 70
     1
  9
$DIMTOH
 70
     1
  9
$DIMSE1
 70
     0
  9
$DIMSE2
 70
     0
  9
$DIMTAD
 70
     0
  9
$DIMZIN
 70
     0
  9
$DIMBLK
  1

  9
$DIMASO
 70
     1
  9
$DIMSHO
 70
     1
  9
$DIMPOST
  1

  9
$DIMAPOST
  1

  9
$DIMALT
 70
     0
  9
$DIMALTD
 70
     2
  9
$DIMALTF
 40
25.4
  9
$DIMLFAC
 40
1.0
  9
$DIMTOFL
 70
     0
  9
$DIMTVP
 40
0.0
  9
$DIMTIX
 70
     0
  9
$DIMSOXD
 70
     0
  9
$DIMSAH
 70
     0
  9
$DIMBLK1
  1

  9
$DIMBLK2
  1

  9
$DIMSTYLE
  2
STANDARD
  9
$DIMCLRD
 70
     0
  9
$DIMCLRE
 70
     0
  9
$DIMCLRT
 70
     0
  9
$DIMTFAC
 40
1.0
  9
$DIMGAP
 40
0.09
  9
$DIMJUST
 70
     0
  9
$DIMSD1
 70
     0
  9
$DIMSD2
 70
     0
  9
$DIMTOLJ
 70
     1
  9
$DIMTZIN
 70
     0
  9
$DIMALTZ
 70
     0
  9
$DIMALTTZ
 70
     0
  9
$DIMUPT
 70
     0
  9
$DIMDEC
 70
     4
  9
$DIMTDEC
 70
     4
  9
$DIMALTU
 70
     2
  9
$DIMALTTD
 70
     2
  9
$DIMTXSTY
  7
STANDARD
  9
$DIMAUNIT
 70
     0
  9
$DIMADEC
 70
     0
  9
$DIMALTRND
 40
0.0
  9
$DIMAZIN
 70
     0
  9
$DIMDSEP
 70
    46
  9
$DIMATFIT
 70
     3
  9
$DIMFRAC
 70
     0
  9
$DIMLDRBLK
  1

  9
$DIMLUNIT
 70
     2
  9
$DIMLWD
 70
    -2
  9
$DIMLWE
 70
    -2
  9
$DIMTMOVE
 70
     0
  9
$LUNITS
 70
     2
  9
$LUPREC
 70
     4
  9
$SKETCHINC
 40
0.1
  9
$FILLETRAD
 40
0.0
  9
$AUNITS
 70
     0
  9
$AUPREC
 70
     0
  9
$MENU
  1
acad
  9
$ELEVATION
 40
0.0
  9
$PELEVATION
 40
0.0
  9
$THICKNESS
 40
0.0
  9
$LIMCHECK
 70
     0
  9
$CHAMFERA
 40
0.0
  9
$CHAMFERB
 40
0.0
  9
$CHAMFERC
 40
0.0
  9
$CHAMFERD
 40
0.0
  9
$SKPOLY
 70
     0
  9
$TDCREATE
 40
2452100.510546447
  9
$TDUCREATE
 40
2452100.135546447
  9
$TDUPDATE
 40
2452157.831497928
  9
$TDUUPDATE
 40
2452157.456497928
  9
$TDINDWG
 40
0.0143666782
  9
$TDUSRTIMER
 40
0.0143664931
  9
$USRTIMER
 70
     1
  9
$ANGBASE
 50
0.0
  9
$ANGDIR
 70
     0
  9
$PDMODE
 70
     0
  9
$PDSIZE
 40
0.0
  9
$PLINEWID
 40
0.0
  9
$SPLFRAME
 70
     0
  9
$SPLINETYPE
 70
     6
  9
$SPLINESEGS
 70
     8
  9
$HANDSEED
  5
31C
  9
$SURFTAB1
 70
     6
  9
$SURFTAB2
 70
     6
  9
$SURFTYPE
 70
     6
  9
$SURFU
 70
     6
  9
$SURFV
 70
     6
  9
$UCSBASE
  2

  9
$UCSNAME
  2

  9
$UCSORG
 10
0.0
 20
0.0
 30
0.0
  9
$UCSXDIR
 10
1.0
 20
0.0
 30
0.0
  9
$UCSYDIR
 10
0.0
 20
1.0
 30
0.0
  9
$UCSORTHOREF
  2

  9
$UCSORTHOVIEW
 70
     0
  9
$UCSORGTOP
 10
0.0
 20
0.0
 30
0.0
  9
$UCSORGBOTTOM
 10
0.0
 20
0.0
 30
0.0
  9
$UCSORGLEFT
 10
0.0
 20
0.0
 30
0.0
  9
$UCSORGRIGHT
 10
0.0
 20
0.0
 30
0.0
  9
$UCSORGFRONT
 10
0.0
 20
0.0
 30
0.0
  9
$UCSORGBACK
 10
0.0
 20
0.0
 30
0.0
  9
$PUCSBASE
  2

  9
$PUCSNAME
  2

  9
$PUCSORG
 10
0.0
 20
0.0
 30
0.0
  9
$PUCSXDIR
 10
1.0
 20
0.0
 30
0.0
  9
$PUCSYDIR
 10
0.0
 20
1.0
 30
0.0
  9
$PUCSORTHOREF
  2

  9
$PUCSORTHOVIEW
 70
     0
  9
$PUCSORGTOP
 10
0.0
 20
0.0
 30
0.0
  9
$PUCSORGBOTTOM
 10
0.0
 20
0.0
 30
0.0
  9
$PUCSORGLEFT
 10
0.0
 20
0.0
 30
0.0
  9
$PUCSORGRIGHT
 10
0.0
 20
0.0
 30
0.0
  9
$PUCSORGFRONT
 10
0.0
 20
0.0
 30
0.0
  9
$PUCSORGBACK
 10
0.0
 20
0.0
 30
0.0
  9
$USERI1
 70
     0
  9
$USERI2
 70
     0
  9
$USERI3
 70
     0
  9
$USERI4
 70
     0
  9
$USERI5
 70
     0
  9
$USERR1
 40
0.0
  9
$USERR2
 40
0.0
  9
$USERR3
 40
0.0
  9
$USERR4
 40
0.0
  9
$USERR5
 40
0.0
  9
$WORLDVIEW
 70
     1
  9
$SHADEDGE
 70
     3
  9
$SHADEDIF
 70
    70
  9
$TILEMODE
 70
     1
  9
$MAXACTVP
 70
    16
  9
$PINSBASE
 10
0.0
 20
0.0
 30
0.0
  9
$PLIMCHECK
 70
     0
  9
$PEXTMIN
 10
1.000000000000000E+20
 20
1.000000000000000E+20
 30
1.000000000000000E+20
  9
$PEXTMAX
 10
-1.000000000000000E+20
 20
-1.000000000000000E+20
 30
-1.000000000000000E+20
  9
$PLIMMIN
 10
0.0
 20
0.0
  9
$PLIMMAX
 10
12.0
 20
9.0
  9
$UNITMODE
 70
     0
  9
$VISRETAIN
 70
     0
  9
$PLINEGEN
 70
     1
  9
$PSLTSCALE
 70
     0
  9
$TREEDEPTH
 70
  3020
  9
$CMLSTYLE
  2
STANDARD
  9
$CMLJUST
 70
     0
  9
$CMLSCALE
 40
1.0
  9
$PROXYGRAPHICS
 70
     1
  9
$MEASUREMENT
 70
     0
  9
$CELWEIGHT
370
    -1
  9
$ENDCAPS
280
     0
  9
$JOINSTYLE
280
     0
  9
$LWDISPLAY
290
     0
  9
$INSUNITS
 70
     0
  9
$HYPERLINKBASE
  1

  9
$STYLESHEET
  1

  9
$XEDIT
290
     1
  9
$CEPSNTYPE
380
     0
  9
$PSTYLEMODE
290
     1
  9
$FINGERPRINTGUID
  2
{1EA8842C-F463-49D8-BB49-5F1A4BE0CED1}
  9
$VERSIONGUID
  2
{63F97CC5-F0D0-449E-B273-8F1837B59F8E}
  9
$EXTNAMES
290
     1
  9
$PSVPSCALE
 40
0.0
  9
$OLESTARTUP
290
     0
  0
ENDSEC
  0
SECTION
  2
CLASSES
  0
CLASS
  1
LWPOLYLINE
  2
AcDbPolyline
  3
AutoCAD 2000
 90
    32768
280
     0
281
     1
  0
CLASS
  1
IMAGE
  2
AcDbRasterImage
  3
ISM
 90
    32895
280
     0
281
     1
  0
CLASS
  1
OLE2FRAME
  2
AcDbOle2Frame
  3
AutoCAD 2000
 90
    32768
280
     0
281
     1
  0
CLASS
  1
HATCH
  2
AcDbHatch
  3
AutoCAD 2000
 90
    32768
280
     0
281
     1
  0
CLASS
  1
DICTIONARYVAR
  2
AcDbDictionaryVar
  3
AutoCAD 2000
 90
    32768
280
     0
281
     0
  0
CLASS
  1
RASTERVARIABLES
  2
AcDbRasterVariables
  3
ISM
 90
    32768
280
     0
281
     0
  0
CLASS
  1
IMAGEDEF
  2
AcDbRasterImageDef
  3
ISM
 90
    32768
280
     0
281
     0
  0
CLASS
  1
IMAGEDEF_REACTOR
  2
AcDbRasterImageDefReactor
  3
ISM
 90
    32769
280
     0
281
     0
  0
CLASS
  1
IDBUFFER
  2
AcDbIdBuffer
  3
AutoCAD 2000
 90
    32768
280
     0
281
     0
  0
CLASS
  1
SPATIAL_FILTER
  2
AcDbSpatialFilter
  3
AutoCAD 2000
 90
    32768
280
     0
281
     0
  0
CLASS
  1
XRECORD
  2
AcDbXrecord
  3
AutoCAD 2000
 90
    32768
280
     0
281
     0
  0
CLASS
  1
SORTENTSTABLE
  2
AcDbSortentsTable
  3
AutoCAD 2000
 90
    32768
280
     0
281
     0
  0
CLASS
  1
LAYER_INDEX
  2
AcDbLayerIndex
  3
AutoCAD 2000
 90
    32768
280
     0
281
     0
  0
CLASS
  1
SPATIAL_INDEX
  2
AcDbSpatialIndex
  3
AutoCAD 2000
 90
    32768
280
     0
281
     0
  0
CLASS
  1
OBJECT_PTR
  2
CAseDLPNTableRecord
  3
ASE-LPNTableRecord
 90
    32769
280
     0
281
     0
  0
CLASS
  1
LAYOUT
  2
AcDbLayout
  3
AutoCAD 2000
 90
        0
280
     0
281
     0
  0
CLASS
  1
PLOTSETTINGS
  2
AcDbPlotSettings
  3
AutoCAD 2000
 90
    32768
280
     0
281
     0
  0
CLASS
  1
ACDBDICTIONARYWDFLT
  2
AcDbDictionaryWithDefault
  3
AutoCAD 2000
 90
        0
280
     0
281
     0
  0
CLASS
  1
ACDBPLACEHOLDER
  2
AcDbPlaceHolder
  3
AutoCAD 2000
 90
        0
280
     0
281
     0
  0
CLASS
  1
VBA_PROJECT
  2
AcDbVbaProject
  3
acadvba
 90
    32768
280
     0
281
     0
  0
CLASS
  1
WIPEOUT
  2
AcDbWipeout
  3
WipeOut|AutoCAD Express Tool|expresstools@autodesk.com
 90
    32768
280
     0
281
     1
  0
CLASS
  1
WIPEOUTVARIABLES
  2
AcDbWipeoutVariables
  3
WipeOut|AutoCAD Express Tool|expresstools@autodesk.com
 90
    32768
280
     0
281
     0
  0
CLASS
  1
RTEXT
  2
RText
  3
RText|AutoCAD Express Tool|expresstools@autodesk.com
 90
    32768
280
     0
281
     1
  0
CLASS
  1
ARCALIGNEDTEXT
  2
AcDbArcAlignedText
  3
ATEXT|AutoCAD Express Tool|expresstools@autodesk.com
 90
    32768
280
     0
281
     1
  0
ENDSEC
  0
SECTION
  2
TABLES
  0
TABLE
  2
VPORT
  5
7
330
0
100
AcDbSymbolTable
 70
     2
  0
VPORT
  5
31B
330
7
100
AcDbSymbolTableRecord
100
AcDbViewportTableRecord
  2
*Active
 70
     0
 10
0.0
 20
0.0
 11
1.0
 21
1.0
 12
209.5033273933262
 22
148.0014960522548
 13
0.0
 23
0.0
 14
1.0
 24
1.0
 15
0.0
 25
0.0
 16
0.0
 26
0.0
 36
1.0
 17
0.0
 27
0.0
 37
0.0
 40
280.7643502434514
 41
1.76847290640394
 42
50.0
 43
0.0
 44
0.0
 50
0.0
 51
0.0
 71
     0
 72
   100
 73
     1
 74
     1
 75
     0
 76
     0
 77
     0
 78
     0
281
     0
 65
     1
110
0.0
120
0.0
130
0.0
111
1.0
121
0.0
131
0.0
112
0.0
122
1.0
132
0.0
 79
     0
146
0.0
  0
ENDTAB
  0
TABLE
  2
LTYPE
  5
4
330
0
100
AcDbSymbolTable
 70
     5
  0
LTYPE
  5
11
330
4
100
AcDbSymbolTableRecord
100
AcDbLinetypeTableRecord
  2
BYBLOCK
 70
     0
  3

 72
    65
 73
     0
 40
0.0
  0
LTYPE
  5
12
330
4
100
AcDbSymbolTableRecord
100
AcDbLinetypeTableRecord
  2
BYLAYER
 70
     0
  3

 72
    65
 73
     0
 40
0.0
  0
LTYPE
  5
13
330
4
100
AcDbSymbolTableRecord
100
AcDbLinetypeTableRecord
  2
CONTINUOUS
 70
     0
  3
実線
 72
    65
 73
     0
 40
0.0
  0
LTYPE
  5
1D
330
4
100
AcDbSymbolTableRecord
100
AcDbLinetypeTableRecord
  2
DASHED
 70
     0
  3
破線
 72
    65
 73
     2
 40
3.799999999999998
 49
3.0
 74
     0
 49
-0.8
 74
     0
  0
LTYPE
  5
1E
330
4
100
AcDbSymbolTableRecord
100
AcDbLinetypeTableRecord
  2
DOT
 70
     0
  3
点線
 72
    65
 73
     2
 40
2.0
 49
1.0
 74
     0
 49
-1.0
 74
     0
  0
LTYPE
  5
1F
330
4
100
AcDbSymbolTableRecord
100
AcDbLinetypeTableRecord
  2
DASHDOT
 70
     0
  3
一点鎖線
 72
    65
 73
     4
 40
25.6
 49
20.0
 74
     0
 49
-2.0
 74
     0
 49
1.6
 74
     0
 49
-2.0
 74
     0
  0
LTYPE
  5
20
330
4
100
AcDbSymbolTableRecord
100
AcDbLinetypeTableRecord
  2
DIVIDE
 70
     0
  3
二点鎖線
 72
    65
 73
     6
 40
31.2
 49
20.0
 74
     0
 49
-2.399999999999999
 74
     0
 49
2.0
 74
     0
 49
-2.399999999999999
 74
     0
 49
2.0
 74
     0
 49
-2.399999999999999
 74
     0
  0
ENDTAB
  0
TABLE
  2
LAYER
  5
2
330
0
100
AcDbSymbolTable
 70
     2
  0
LAYER
  5
14
330
2
100
AcDbSymbolTableRecord
100
AcDbLayerTableRecord
  2
0
 70
     0
 62
     7
  6
CONTINUOUS
370
    -3
390
2A2
  0
LAYER
  5
25
330
2
100
AcDbSymbolTableRecord
100
AcDbLayerTableRecord
  2
LAY-1
 70
     0
 62
     7
  6
CONTINUOUS
370
    -3
390
2A2
  0
ENDTAB
  0
TABLE
  2
STYLE
  5
3
330
0
100
AcDbSymbolTable
 70
     5
  0
STYLE
  5
17
330
3
100
AcDbSymbolTableRecord
100
AcDbTextStyleTableRecord
  2
STANDARD
 70
     0
 40
0.0
 41
1.0
 50
0.0
 71
     0
 42
0.0
  3
monotxt
  4

  0
STYLE
  5
21
330
3
100
AcDbSymbolTableRecord
100
AcDbTextStyleTableRecord
  2
EXCADSTD
 70
     0
 40
0.0
 41
1.0
 50
0.0
 71
     0
 42
0.2
  3
monotxt
  4
extfont
  0
STYLE
  5
22
330
3
100
AcDbSymbolTableRecord
100
AcDbTextStyleTableRecord
  2
EXCADVERT
 70
     4
 40
0.0
 41
1.0
 50
0.0
 71
     0
 42
0.286885
  3
monotxt
  4
extfont
  0
STYLE
  5
23
330
3
100
AcDbSymbolTableRecord
100
AcDbTextStyleTableRecord
  2
EXCADSTD2
 70
     0
 40
0.0
 41
1.0
 50
0.0
 71
     0
 42
0.2
  3
monotxt
  4
extfont
  0
STYLE
  5
24
330
3
100
AcDbSymbolTableRecord
100
AcDbTextStyleTableRecord
  2
EXCADVERT2
 70
     4
 40
0.0
 41
1.0
 50
0.0
 71
     0
 42
0.286885
  3
monotxt
  4
extfont
  0
ENDTAB
  0
TABLE
  2
VIEW
  5
5
330
0
100
AcDbSymbolTable
 70
     0
  0
ENDTAB
  0
TABLE
  2
UCS
  5
6
330
0
100
AcDbSymbolTable
 70
     0
  0
ENDTAB
  0
TABLE
  2
APPID
  5
8
330
0
100
AcDbSymbolTable
 70
     2
  0
APPID
  5
16
330
8
100
AcDbSymbolTableRecord
100
AcDbRegAppTableRecord
  2
ACAD
 70
     0
  0
APPID
  5
301
330
8
100
AcDbSymbolTableRecord
100
AcDbRegAppTableRecord
  2
DCO15
 70
     0
  0
ENDTAB
  0
TABLE
  2
DIMSTYLE
  5
9
330
0
100
AcDbSymbolTable
 70
     1
100
AcDbDimStyleTable
 71
     0
  0
DIMSTYLE
105
18
102
{ACAD_REACTORS
330
DD
330
E8
330
174
330
180
330
18B
330
196
330
1A1
330
1AD
330
1B8
330
1C3
330
1CC
330
1D8
330
1E2
330
1ED
330
1F8
330
203
330
20C
330
218
330
223
330
22E
330
23A
330
245
330
250
330
25C
330
266
330
271
330
27D
330
287
330
292
102
}
330
9
100
AcDbSymbolTableRecord
100
AcDbDimStyleTableRecord
  2
STANDARD
 70
     0
340
17
  0
ENDTAB
  0
TABLE
  2
BLOCK_RECORD
  5
1
330
0
100
AcDbSymbolTable
 70
    38
  0
BLOCK_RECORD
  5
A
330
1
100
AcDbSymbolTableRecord
100
AcDbBlockTableRecord
  2
*MODEL_SPACE
340
2A5
  0
BLOCK_RECORD
  5
B
330
1
100
AcDbSymbolTableRecord
100
AcDbBlockTableRecord
  2
*PAPER_SPACE
340
2A6
  0
BLOCK_RECORD
  5
26
330
1
100
AcDbSymbolTableRecord
100
AcDbBlockTableRecord
  2
_EX_NORM
340
0
  0
BLOCK_RECORD
  5
27
330
1
100
AcDbSymbolTableRecord
100
AcDbBlockTableRecord
  2
_EX_BNORM
340
0
  0
BLOCK_RECORD
  5
28
330
1
100
AcDbSymbolTableRecord
100
AcDbBlockTableRecord
  2
_EX_BCIR
340
0
  0
BLOCK_RECORD
  5
29
330
1
100
AcDbSymbolTableRecord
100
AcDbBlockTableRecord
  2
_EX_RCIVIL
340
0
  0
BLOCK_RECORD
  5
2A
330
1
100
AcDbSymbolTableRecord
100
AcDbBlockTableRecord
  2
_EX_SLANT
340
0
  0
BLOCK_RECORD
  5
2B
330
1
100
AcDbSymbolTableRecord
100
AcDbBlockTableRecord
  2
_EX_NONE
340
0
  0
BLOCK_RECORD
  5
2C
330
1
100
AcDbSymbolTableRecord
100
AcDbBlockTableRecord
  2
_EX_CIVIL
340
0
  0
BLOCK_RECORD
  5
2D
330
1
100
AcDbSymbolTableRecord
100
AcDbBlockTableRecord
  2
_EX_WCIR
340
0
  0
BLOCK_RECORD
  5
2E
330
1
100
AcDbSymbolTableRecord
100
AcDbBlockTableRecord
  2
SYM-1
340
0
102
{BLKREFS
331
13D
331
13E
331
13F
102
}
  0
BLOCK_RECORD
  5
D2
330
1
100
AcDbSymbolTableRecord
100
AcDbBlockTableRecord
  2
*D9
340
0
  0
BLOCK_RECORD
  5
DE
330
1
100
AcDbSymbolTableRecord
100
AcDbBlockTableRecord
  2
*D10
340
0
  0
BLOCK_RECORD
  5
169
330
1
100
AcDbSymbolTableRecord
100
AcDbBlockTableRecord
  2
*D11
340
0
  0
BLOCK_RECORD
  5
175
330
1
100
AcDbSymbolTableRecord
100
AcDbBlockTableRecord
  2
*D12
340
0
  0
BLOCK_RECORD
  5
181
330
1
100
AcDbSymbolTableRecord
100
AcDbBlockTableRecord
  2
*D13
340
0
  0
BLOCK_RECORD
  5
18C
330
1
100
AcDbSymbolTableRecord
100
AcDbBlockTableRecord
  2
*D14
340
0
  0
BLOCK_RECORD
  5
197
330
1
100
AcDbSymbolTableRecord
100
AcDbBlockTableRecord
  2
*D15
340
0
  0
BLOCK_RECORD
  5
1A2
330
1
100
AcDbSymbolTableRecord
100
AcDbBlockTableRecord
  2
*D16
340
0
  0
BLOCK_RECORD
  5
1AE
330
1
100
AcDbSymbolTableRecord
100
AcDbBlockTableRecord
  2
*D17
340
0
  0
BLOCK_RECORD
  5
1B9
330
1
100
AcDbSymbolTableRecord
100
AcDbBlockTableRecord
  2
*D18
340
0
  0
BLOCK_RECORD
  5
1C4
330
1
100
AcDbSymbolTableRecord
100
AcDbBlockTableRecord
  2
*D19
340
0
  0
BLOCK_RECORD
  5
1CD
330
1
100
AcDbSymbolTableRecord
100
AcDbBlockTableRecord
  2
*D20
340
0
  0
BLOCK_RECORD
  5
1D9
330
1
100
AcDbSymbolTableRecord
100
AcDbBlockTableRecord
  2
*D21
340
0
  0
BLOCK_RECORD
  5
1E3
330
1
100
AcDbSymbolTableRecord
100
AcDbBlockTableRecord
  2
*D22
340
0
  0
BLOCK_RECORD
  5
1EE
330
1
100
AcDbSymbolTableRecord
100
AcDbBlockTableRecord
  2
*D23
340
0
  0
BLOCK_RECORD
  5
1F9
330
1
100
AcDbSymbolTableRecord
100
AcDbBlockTableRecord
  2
*D24
340
0
  0
BLOCK_RECORD
  5
204
330
1
100
AcDbSymbolTableRecord
100
AcDbBlockTableRecord
  2
*D25
340
0
  0
BLOCK_RECORD
  5
20D
330
1
100
AcDbSymbolTableRecord
100
AcDbBlockTableRecord
  2
*D26
340
0
  0
BLOCK_RECORD
  5
219
330
1
100
AcDbSymbolTableRecord
100
AcDbBlockTableRecord
  2
*D27
340
0
  0
BLOCK_RECORD
  5
224
330
1
100
AcDbSymbolTableRecord
100
AcDbBlockTableRecord
  2
*D28
340
0
  0
BLOCK_RECORD
  5
22F
330
1
100
AcDbSymbolTableRecord
100
AcDbBlockTableRecord
  2
*D29
340
0
  0
BLOCK_RECORD
  5
23B
330
1
100
AcDbSymbolTableRecord
100
AcDbBlockTableRecord
  2
*D30
340
0
  0
BLOCK_RECORD
  5
246
330
1
100
AcDbSymbolTableRecord
100
AcDbBlockTableRecord
  2
*D31
340
0
  0
BLOCK_RECORD
  5
251
330
1
100
AcDbSymbolTableRecord
100
AcDbBlockTableRecord
  2
*D32
340
0
  0
BLOCK_RECORD
  5
25D
330
1
100
AcDbSymbolTableRecord
100
AcDbBlockTableRecord
  2
*D33
340
0
  0
BLOCK_RECORD
  5
267
330
1
100
AcDbSymbolTableRecord
100
AcDbBlockTableRecord
  2
*D34
340
0
  0
BLOCK_RECORD
  5
272
330
1
100
AcDbSymbolTableRecord
100
AcDbBlockTableRecord
  2
*D35
340
0
  0
BLOCK_RECORD
  5
27E
330
1
100
AcDbSymbolTableRecord
100
AcDbBlockTableRecord
  2
*D36
340
0
  0
BLOCK_RECORD
  5
288
330
1
100
AcDbSymbolTableRecord
100
AcDbBlockTableRecord
  2
*D37
340
0
  0
ENDTAB
  0
ENDSEC
  0
SECTION
  2
BLOCKS
  0
BLOCK
  5
D
330
A
100
AcDbEntity
  8
0
100
AcDbBlockBegin
  2
*MODEL_SPACE
 70
     0
 10
0.0
 20
0.0
 30
0.0
  3
*MODEL_SPACE
  1

  0
ENDBLK
  5
E
330
A
100
AcDbEntity
  8
0
100
AcDbBlockEnd
  0
BLOCK
  5
F
330
B
100
AcDbEntity
 67
     1
  8
0
100
AcDbBlockBegin
  2
*PAPER_SPACE
 70
     0
 10
0.0
 20
0.0
 30
0.0
  3
*PAPER_SPACE
  1

  0
ENDBLK
  5
10
330
B
100
AcDbEntity
 67
     1
  8
0
100
AcDbBlockEnd
  0
BLOCK
  5
2F
330
26
100
AcDbEntity
  8
0
100
AcDbBlockBegin
  2
_EX_NORM
 70
     0
 10
0.0
 20
0.0
 30
0.0
  3
_EX_NORM
  1

  0
LINE
  5
30
330
26
100
AcDbEntity
  8
0
  6
Continuous
 62
     0
100
AcDbLine
 10
0.0
 20
0.0
 30
0.0
 11
-1.0
 21
0.0
 31
0.0
  0
LINE
  5
31
330
26
100
AcDbEntity
  8
0
  6
Continuous
 62
     0
100
AcDbLine
 10
0.0
 20
0.0
 30
0.0
 11
-0.9607689999999999
 21
0.27735
 31
0.0
  0
LINE
  5
32
330
26
100
AcDbEntity
  8
0
  6
Continuous
 62
     0
100
AcDbLine
 10
0.0
 20
0.0
 30
0.0
 11
-0.9607689999999999
 21
-0.27735
 31
0.0
  0
ENDBLK
  5
33
330
26
100
AcDbEntity
  8
0
100
AcDbBlockEnd
  0
BLOCK
  5
34
330
27
100
AcDbEntity
  8
0
100
AcDbBlockBegin
  2
_EX_BNORM
 70
     0
 10
0.0
 20
0.0
 30
0.0
  3
_EX_BNORM
  1

  0
LINE
  5
35
330
27
100
AcDbEntity
  8
0
  6
Continuous
 62
     0
100
AcDbLine
 10
0.0
 20
0.0
 30
0.0
 11
-1.0
 21
0.0
 31
0.0
  0
LINE
  5
36
330
27
100
AcDbEntity
  8
0
  6
Continuous
 62
     0
100
AcDbLine
 10
0.0
 20
0.0
 30
0.0
 11
-0.9607689999999999
 21
0.27735
 31
0.0
  0
LINE
  5
37
330
27
100
AcDbEntity
  8
0
  6
Continuous
 62
     0
100
AcDbLine
 10
0.0
 20
0.0
 30
0.0
 11
-0.9607689999999999
 21
-0.27735
 31
0.0
  0
LINE
  5
38
330
27
100
AcDbEntity
  8
0
  6
Continuous
 62
     0
100
AcDbLine
 10
0.0
 20
0.0
 30
0.0
 11
-0.9607689999999999
 21
0.138768
 31
0.0
  0
LINE
  5
39
330
27
100
AcDbEntity
  8
0
  6
Continuous
 62
     0
100
AcDbLine
 10
0.0
 20
0.0
 30
0.0
 11
-0.9607689999999999
 21
-0.138768
 31
0.0
  0
LINE
  5
3A
330
27
100
AcDbEntity
  8
0
  6
Continuous
 62
     0
100
AcDbLine
 10
-0.9607689999999999
 20
0.27735
 30
0.0
 11
-0.9607689999999999
 21
-0.27735
 31
0.0
  0
ENDBLK
  5
3B
330
27
100
AcDbEntity
  8
0
100
AcDbBlockEnd
  0
BLOCK
  5
3C
330
28
100
AcDbEntity
  8
0
100
AcDbBlockBegin
  2
_EX_BCIR
 70
     0
 10
0.0
 20
0.0
 30
0.0
  3
_EX_BCIR
  1

  0
LINE
  5
3D
330
28
100
AcDbEntity
  8
0
  6
Continuous
 62
     0
100
AcDbLine
 10
0.0
 20
0.0
 30
0.0
 11
-1.0
 21
0.0
 31
0.0
  0
CIRCLE
  5
3E
330
28
100
AcDbEntity
  8
0
  6
Continuous
 62
     0
100
AcDbCircle
 10
0.0
 20
0.0
 30
0.0
 40
0.5
  0
CIRCLE
  5
3F
330
28
100
AcDbEntity
  8
0
  6
Continuous
 62
     0
100
AcDbCircle
 10
0.0
 20
0.0
 30
0.0
 40
0.25
  0
ENDBLK
  5
40
330
28
100
AcDbEntity
  8
0
100
AcDbBlockEnd
  0
BLOCK
  5
41
330
29
100
AcDbEntity
  8
0
100
AcDbBlockBegin
  2
_EX_RCIVIL
 70
     0
 10
0.0
 20
0.0
 30
0.0
  3
_EX_RCIVIL
  1

  0
LINE
  5
42
330
29
100
AcDbEntity
  8
0
  6
Continuous
 62
     0
100
AcDbLine
 10
0.0
 20
0.0
 30
0.0
 11
-1.0
 21
0.0
 31
0.0
  0
LINE
  5
43
330
29
100
AcDbEntity
  8
0
  6
Continuous
 62
     0
100
AcDbLine
 10
-1.0
 20
-0.25
 30
0.0
 11
0.0
 21
-0.25
 31
0.0
  0
LINE
  5
44
330
29
100
AcDbEntity
  8
0
  6
Continuous
 62
     0
100
AcDbLine
 10
-1.0
 20
-0.125
 30
0.0
 11
0.0
 21
-0.125
 31
0.0
  0
ENDBLK
  5
45
330
29
100
AcDbEntity
  8
0
100
AcDbBlockEnd
  0
BLOCK
  5
46
330
2A
100
AcDbEntity
  8
0
100
AcDbBlockBegin
  2
_EX_SLANT
 70
     0
 10
0.0
 20
0.0
 30
0.0
  3
_EX_SLANT
  1

  0
LINE
  5
47
330
2A
100
AcDbEntity
  8
0
  6
Continuous
 62
     0
100
AcDbLine
 10
0.0
 20
0.0
 30
0.0
 11
-1.0
 21
0.0
 31
0.0
  0
LINE
  5
48
330
2A
100
AcDbEntity
  8
0
  6
Continuous
 62
     0
100
AcDbLine
 10
0.7071069999999999
 20
0.7071069999999999
 30
0.0
 11
-0.7071069999999999
 21
-0.7071069999999999
 31
0.0
  0
ENDBLK
  5
49
330
2A
100
AcDbEntity
  8
0
100
AcDbBlockEnd
  0
BLOCK
  5
4A
330
2B
100
AcDbEntity
  8
0
100
AcDbBlockBegin
  2
_EX_NONE
 70
     0
 10
0.0
 20
0.0
 30
0.0
  3
_EX_NONE
  1

  0
LINE
  5
4B
330
2B
100
AcDbEntity
  8
0
  6
Continuous
 62
     0
100
AcDbLine
 10
0.0
 20
0.0
 30
0.0
 11
-1.0
 21
0.0
 31
0.0
  0
ENDBLK
  5
4C
330
2B
100
AcDbEntity
  8
0
100
AcDbBlockEnd
  0
BLOCK
  5
4D
330
2C
100
AcDbEntity
  8
0
100
AcDbBlockBegin
  2
_EX_CIVIL
 70
     0
 10
0.0
 20
0.0
 30
0.0
  3
_EX_CIVIL
  1

  0
LINE
  5
4E
330
2C
100
AcDbEntity
  8
0
  6
Continuous
 62
     0
100
AcDbLine
 10
0.0
 20
0.0
 30
0.0
 11
-1.0
 21
0.0
 31
0.0
  0
LINE
  5
4F
330
2C
100
AcDbEntity
  8
0
  6
Continuous
 62
     0
100
AcDbLine
 10
-1.0
 20
0.25
 30
0.0
 11
0.0
 21
0.25
 31
0.0
  0
LINE
  5
50
330
2C
100
AcDbEntity
  8
0
  6
Continuous
 62
     0
100
AcDbLine
 10
-1.0
 20
0.125
 30
0.0
 11
0.0
 21
0.125
 31
0.0
  0
ENDBLK
  5
51
330
2C
100
AcDbEntity
  8
0
100
AcDbBlockEnd
  0
BLOCK
  5
52
330
2D
100
AcDbEntity
  8
0
100
AcDbBlockBegin
  2
_EX_WCIR
 70
     0
 10
0.0
 20
0.0
 30
0.0
  3
_EX_WCIR
  1

  0
LINE
  5
53
330
2D
100
AcDbEntity
  8
0
  6
Continuous
 62
     0
100
AcDbLine
 10
0.0
 20
0.0
 30
0.0
 11
-1.0
 21
0.0
 31
0.0
  0
CIRCLE
  5
54
330
2D
100
AcDbEntity
  8
0
  6
Continuous
 62
     0
100
AcDbCircle
 10
0.0
 20
0.0
 30
0.0
 40
0.5
  0
ENDBLK
  5
55
330
2D
100
AcDbEntity
  8
0
100
AcDbBlockEnd
  0
BLOCK
  5
56
330
2E
100
AcDbEntity
  8
0
100
AcDbBlockBegin
  2
SYM-1
 70
     0
 10
0.0
 20
0.0
 30
0.0
  3
SYM-1
  1

  0
POINT
  5
57
330
2E
100
AcDbEntity
  8
0
  6
Continuous
 62
     1
100
AcDbPoint
 10
0.0
 20
0.0
 30
0.0
  0
POINT
  5
58
330
2E
100
AcDbEntity
  8
0
  6
Continuous
 62
     1
100
AcDbPoint
 10
2.0
 20
0.0
 30
0.0
  0
POINT
  5
59
330
2E
100
AcDbEntity
  8
0
  6
Continuous
 62
     1
100
AcDbPoint
 10
-2.0
 20
0.0
 30
0.0
  0
POINT
  5
5A
330
2E
100
AcDbEntity
  8
0
  6
Continuous
 62
     1
100
AcDbPoint
 10
1.5
 20
0.0
 30
0.0
  0
POINT
  5
5B
330
2E
100
AcDbEntity
  8
0
  6
Continuous
 62
     1
100
AcDbPoint
 10
-1.5
 20
0.0
 30
0.0
  0
LWPOLYLINE
  5
5C
330
2E
100
AcDbEntity
  8
0
  6
DOT
 62
     1
100
AcDbPolyline
 90
        3
 70
   128
 43
0.0
 10
-1.5
 20
0.0
 10
-1.5
 20
10.0
 10
-0.01993
 20
10.854519
  0
LWPOLYLINE
  5
61
330
2E
100
AcDbEntity
  8
0
  6
DOT
 62
     1
100
AcDbPolyline
 90
        3
 70
   128
 43
0.0
 10
1.5
 20
0.0
 10
1.5
 20
10.0
 10
-0.009965
 20
10.871779
  0
LWPOLYLINE
  5
66
330
2E
100
AcDbEntity
  8
0
  6
DOT
 62
     1
100
AcDbPolyline
 90
        4
 70
   128
 43
0.0
 10
-2.0
 20
0.0
 10
-2.0
 20
9.0
 10
2.0
 20
9.0
 10
2.0
 20
0.0
  0
ENDBLK
  5
6C
330
2E
100
AcDbEntity
  8
0
100
AcDbBlockEnd
  0
BLOCK
  5
D3
330
D2
100
AcDbEntity
  8
0
100
AcDbBlockBegin
  2
*D9
 70
     1
 10
0.0
 20
0.0
 30
0.0
  3
*D9
  1

  0
LINE
  5
D4
330
D2
100
AcDbEntity
  8
0
  6
Continuous
 62
     1
100
AcDbLine
 10
360.88333
 20
136.7357439999999
 30
0.0
 11
385.38333
 21
136.7357439999999
 31
0.0
  0
LINE
  5
D5
330
D2
100
AcDbEntity
  8
0
  6
Continuous
 62
     1
100
AcDbLine
 10
348.38333
 20
170.7357439999999
 30
0.0
 11
385.38333
 21
170.7357439999999
 31
0.0
  0
TEXT
  5
D6
330
D2
100
AcDbEntity
  8
0
  6
Continuous
 62
     1
100
AcDbText
 10
383.38333
 20
150.7357439999998
 30
0.0
 40
3.0
  1
34
 50
90.0
  7
EXCADSTD
100
AcDbText
  0
LINE
  5
D7
330
D2
100
AcDbEntity
  8
0
  6
Continuous
 62
     1
100
AcDbLine
 10
383.88333
 20
136.7357439999999
 30
0.0
 11
383.88333
 21
170.7357439999999
 31
0.0
  0
LINE
  5
D8
330
D2
100
AcDbEntity
  8
0
  6
Continuous
 62
     1
100
AcDbLine
 10
383.106873
 20
139.633522
 30
0.0
 11
383.88333
 21
136.7357439999999
 31
0.0
  0
LINE
  5
D9
330
D2
100
AcDbEntity
  8
0
  6
Continuous
 62
     1
100
AcDbLine
 10
383.88333
 20
136.7357439999999
 30
0.0
 11
384.659787
 21
139.633522
 31
0.0
  0
LINE
  5
DA
330
D2
100
AcDbEntity
  8
0
  6
Continuous
 62
     1
100
AcDbLine
 10
384.659787
 20
167.8379669999999
 30
0.0
 11
383.88333
 21
170.7357439999999
 31
0.0
  0
LINE
  5
DB
330
D2
100
AcDbEntity
  8
0
  6
Continuous
 62
     1
100
AcDbLine
 10
383.88333
 20
170.7357439999999
 30
0.0
 11
383.106873
 21
167.8379669999999
 31
0.0
  0
ENDBLK
  5
DC
330
D2
100
AcDbEntity
  8
0
100
AcDbBlockEnd
  0
BLOCK
  5
DF
330
DE
100
AcDbEntity
  8
0
100
AcDbBlockBegin
  2
*D10
 70
     1
 10
0.0
 20
0.0
 30
0.0
  3
*D10
  1

  0
LINE
  5
E0
330
DE
100
AcDbEntity
  8
0
  6
Continuous
 62
     1
100
AcDbLine
 10
360.88333
 20
204.7357439999999
 30
0.0
 11
385.38333
 21
204.7357439999999
 31
0.0
  0
TEXT
  5
E1
330
DE
100
AcDbEntity
  8
0
  6
Continuous
 62
     1
100
AcDbText
 10
383.38333
 20
184.7357439999999
 30
0.0
 40
3.0
  1
34
 50
90.0
  7
EXCADSTD
100
AcDbText
  0
LINE
  5
E2
330
DE
100
AcDbEntity
  8
0
  6
Continuous
 62
     1
100
AcDbLine
 10
383.88333
 20
170.7357439999999
 30
0.0
 11
383.88333
 21
204.7357439999999
 31
0.0
  0
LINE
  5
E3
330
DE
100
AcDbEntity
  8
0
  6
Continuous
 62
     1
100
AcDbLine
 10
383.106873
 20
173.6335219999999
 30
0.0
 11
383.88333
 21
170.7357439999999
 31
0.0
  0
LINE
  5
E4
330
DE
100
AcDbEntity
  8
0
  6
Continuous
 62
     1
100
AcDbLine
 10
383.88333
 20
170.7357439999999
 30
0.0
 11
384.659787
 21
173.6335219999999
 31
0.0
  0
LINE
  5
E5
330
DE
100
AcDbEntity
  8
0
  6
Continuous
 62
     1
100
AcDbLine
 10
384.659787
 20
201.8379669999999
 30
0.0
 11
383.88333
 21
204.7357439999999
 31
0.0
  0
LINE
  5
E6
330
DE
100
AcDbEntity
  8
0
  6
Continuous
 62
     1
100
AcDbLine
 10
383.88333
 20
204.7357439999999
 30
0.0
 11
383.106873
 21
201.8379669999999
 31
0.0
  0
ENDBLK
  5
E7
330
DE
100
AcDbEntity
  8
0
100
AcDbBlockEnd
  0
BLOCK
  5
16A
330
169
100
AcDbEntity
  8
0
100
AcDbBlockBegin
  2
*D11
 70
     1
 10
0.0
 20
0.0
 30
0.0
  3
*D11
  1

  0
LINE
  5
16B
330
169
100
AcDbEntity
  8
0
  6
Continuous
 62
     1
100
AcDbLine
 10
146.88333
 20
187.2357439999999
 30
0.0
 11
146.88333
 21
258.4999999999999
 31
0.0
  0
LINE
  5
16C
330
169
100
AcDbEntity
  8
0
  6
Continuous
 62
     1
100
AcDbLine
 10
359.38333
 20
206.2357439999999
 30
0.0
 11
359.38333
 21
258.4999999999999
 31
0.0
  0
LINE
  5
16D
330
169
100
AcDbEntity
  8
0
  6
Continuous
 62
     1
100
AcDbLine
 10
146.88333
 20
257.0
 30
0.0
 11
359.38333
 21
257.0
 31
0.0
  0
LINE
  5
16E
330
169
100
AcDbEntity
  8
0
  6
Continuous
 62
     1
100
AcDbLine
 10
149.781108
 20
257.7764569999999
 30
0.0
 11
146.88333
 21
257.0
 31
0.0
  0
LINE
  5
16F
330
169
100
AcDbEntity
  8
0
  6
Continuous
 62
     1
100
AcDbLine
 10
146.88333
 20
257.0
 30
0.0
 11
149.781108
 21
256.223543
 31
0.0
  0
LINE
  5
170
330
169
100
AcDbEntity
  8
0
  6
Continuous
 62
     1
100
AcDbLine
 10
356.4855529999998
 20
256.223543
 30
0.0
 11
359.38333
 21
257.0
 31
0.0
  0
LINE
  5
171
330
169
100
AcDbEntity
  8
0
  6
Continuous
 62
     1
100
AcDbLine
 10
359.38333
 20
257.0
 30
0.0
 11
356.4855529999998
 21
257.7764569999999
 31
0.0
  0
TEXT
  5
172
330
169
100
AcDbEntity
  8
0
  6
Continuous
 62
     1
100
AcDbText
 10
246.3833299999999
 20
257.5
 30
0.0
 40
3.0
  1
212.5
  7
EXCADSTD
100
AcDbText
  0
ENDBLK
  5
173
330
169
100
AcDbEntity
  8
0
100
AcDbBlockEnd
  0
BLOCK
  5
176
330
175
100
AcDbEntity
  8
0
100
AcDbBlockBegin
  2
*D12
 70
     1
 10
0.0
 20
0.0
 30
0.0
  3
*D12
  1

  0
LINE
  5
177
330
175
100
AcDbEntity
  8
0
  6
Continuous
 62
     1
100
AcDbLine
 10
146.88333
 20
187.2357439999999
 30
0.0
 11
146.88333
 21
247.5
 31
0.0
  0
LINE
  5
178
330
175
100
AcDbEntity
  8
0
  6
Continuous
 62
     1
100
AcDbLine
 10
206.88333
 20
206.2357439999999
 30
0.0
 11
206.88333
 21
247.5
 31
0.0
  0
LINE
  5
179
330
175
100
AcDbEntity
  8
0
  6
Continuous
 62
     1
100
AcDbLine
 10
146.88333
 20
246.0
 30
0.0
 11
206.88333
 21
246.0
 31
0.0
  0
LINE
  5
17A
330
175
100
AcDbEntity
  8
0
  6
Continuous
 62
     1
100
AcDbLine
 10
149.781108
 20
246.7764569999999
 30
0.0
 11
146.88333
 21
246.0
 31
0.0
  0
LINE
  5
17B
330
175
100
AcDbEntity
  8
0
  6
Continuous
 62
     1
100
AcDbLine
 10
146.88333
 20
246.0
 30
0.0
 11
149.781108
 21
245.2235429999999
 31
0.0
  0
LINE
  5
17C
330
175
100
AcDbEntity
  8
0
  6
Continuous
 62
     1
100
AcDbLine
 10
203.985553
 20
245.2235429999999
 30
0.0
 11
206.88333
 21
246.0
 31
0.0
  0
LINE
  5
17D
330
175
100
AcDbEntity
  8
0
  6
Continuous
 62
     1
100
AcDbLine
 10
206.88333
 20
246.0
 30
0.0
 11
203.985553
 21
246.7764569999999
 31
0.0
  0
TEXT
  5
17E
330
175
100
AcDbEntity
  8
0
  6
Continuous
 62
     1
100
AcDbText
 10
173.88333
 20
246.4999999999999
 30
0.0
 40
3.0
  1
60
  7
EXCADSTD
100
AcDbText
  0
ENDBLK
  5
17F
330
175
100
AcDbEntity
  8
0
100
AcDbBlockEnd
  0
BLOCK
  5
182
330
181
100
AcDbEntity
  8
0
100
AcDbBlockBegin
  2
*D13
 70
     1
 10
0.0
 20
0.0
 30
0.0
  3
*D13
  1

  0
LINE
  5
183
330
181
100
AcDbEntity
  8
0
  6
Continuous
 62
     1
100
AcDbLine
 10
296.88333
 20
172.2357439999999
 30
0.0
 11
296.88333
 21
247.5
 31
0.0
  0
LINE
  5
184
330
181
100
AcDbEntity
  8
0
  6
Continuous
 62
     1
100
AcDbLine
 10
206.88333
 20
246.0
 30
0.0
 11
296.88333
 21
246.0
 31
0.0
  0
LINE
  5
185
330
181
100
AcDbEntity
  8
0
  6
Continuous
 62
     1
100
AcDbLine
 10
209.781108
 20
246.7764569999999
 30
0.0
 11
206.88333
 21
246.0
 31
0.0
  0
LINE
  5
186
330
181
100
AcDbEntity
  8
0
  6
Continuous
 62
     1
100
AcDbLine
 10
206.88333
 20
246.0
 30
0.0
 11
209.781108
 21
245.2235429999999
 31
0.0
  0
LINE
  5
187
330
181
100
AcDbEntity
  8
0
  6
Continuous
 62
     1
100
AcDbLine
 10
293.9855529999998
 20
245.2235429999999
 30
0.0
 11
296.88333
 21
246.0
 31
0.0
  0
LINE
  5
188
330
181
100
AcDbEntity
  8
0
  6
Continuous
 62
     1
100
AcDbLine
 10
296.88333
 20
246.0
 30
0.0
 11
293.9855529999998
 21
246.7764569999999
 31
0.0
  0
TEXT
  5
189
330
181
100
AcDbEntity
  8
0
  6
Continuous
 62
     1
100
AcDbText
 10
248.8833299999999
 20
246.4999999999999
 30
0.0
 40
3.0
  1
90
  7
EXCADSTD
100
AcDbText
  0
ENDBLK
  5
18A
330
181
100
AcDbEntity
  8
0
100
AcDbBlockEnd
  0
BLOCK
  5
18D
330
18C
100
AcDbEntity
  8
0
100
AcDbBlockBegin
  2
*D14
 70
     1
 10
0.0
 20
0.0
 30
0.0
  3
*D14
  1

  0
LINE
  5
18E
330
18C
100
AcDbEntity
  8
0
  6
Continuous
 62
     1
100
AcDbLine
 10
346.88333
 20
172.2357439999999
 30
0.0
 11
346.88333
 21
247.5
 31
0.0
  0
LINE
  5
18F
330
18C
100
AcDbEntity
  8
0
  6
Continuous
 62
     1
100
AcDbLine
 10
296.88333
 20
246.0
 30
0.0
 11
346.88333
 21
246.0
 31
0.0
  0
LINE
  5
190
330
18C
100
AcDbEntity
  8
0
  6
Continuous
 62
     1
100
AcDbLine
 10
299.781108
 20
246.7764569999999
 30
0.0
 11
296.88333
 21
246.0
 31
0.0
  0
LINE
  5
191
330
18C
100
AcDbEntity
  8
0
  6
Continuous
 62
     1
100
AcDbLine
 10
296.88333
 20
246.0
 30
0.0
 11
299.781108
 21
245.2235429999999
 31
0.0
  0
LINE
  5
192
330
18C
100
AcDbEntity
  8
0
  6
Continuous
 62
     1
100
AcDbLine
 10
343.9855529999998
 20
245.2235429999999
 30
0.0
 11
346.88333
 21
246.0
 31
0.0
  0
LINE
  5
193
330
18C
100
AcDbEntity
  8
0
  6
Continuous
 62
     1
100
AcDbLine
 10
346.88333
 20
246.0
 30
0.0
 11
343.9855529999998
 21
246.7764569999999
 31
0.0
  0
TEXT
  5
194
330
18C
100
AcDbEntity
  8
0
  6
Continuous
 62
     1
100
AcDbText
 10
318.88333
 20
246.4999999999999
 30
0.0
 40
3.0
  1
50
  7
EXCADSTD
100
AcDbText
  0
ENDBLK
  5
195
330
18C
100
AcDbEntity
  8
0
100
AcDbBlockEnd
  0
BLOCK
  5
198
330
197
100
AcDbEntity
  8
0
100
AcDbBlockBegin
  2
*D15
 70
     1
 10
0.0
 20
0.0
 30
0.0
  3
*D15
  1

  0
LINE
  5
199
330
197
100
AcDbEntity
  8
0
  6
Continuous
 62
     1
100
AcDbLine
 10
359.38333
 20
206.2357439999999
 30
0.0
 11
359.38333
 21
247.5
 31
0.0
  0
LINE
  5
19A
330
197
100
AcDbEntity
  8
0
  6
Continuous
 62
     1
100
AcDbLine
 10
346.88333
 20
246.0
 30
0.0
 11
359.38333
 21
246.0
 31
0.0
  0
LINE
  5
19B
330
197
100
AcDbEntity
  8
0
  6
Continuous
 62
     1
100
AcDbLine
 10
349.781108
 20
246.7764569999999
 30
0.0
 11
346.88333
 21
246.0
 31
0.0
  0
LINE
  5
19C
330
197
100
AcDbEntity
  8
0
  6
Continuous
 62
     1
100
AcDbLine
 10
346.88333
 20
246.0
 30
0.0
 11
349.781108
 21
245.2235429999999
 31
0.0
  0
LINE
  5
19D
330
197
100
AcDbEntity
  8
0
  6
Continuous
 62
     1
100
AcDbLine
 10
356.4855529999998
 20
245.2235429999999
 30
0.0
 11
359.38333
 21
246.0
 31
0.0
  0
LINE
  5
19E
330
197
100
AcDbEntity
  8
0
  6
Continuous
 62
     1
100
AcDbLine
 10
359.38333
 20
246.0
 30
0.0
 11
356.4855529999998
 21
246.7764569999999
 31
0.0
  0
TEXT
  5
19F
330
197
100
AcDbEntity
  8
0
  6
Continuous
 62
     1
100
AcDbText
 10
347.88333
 20
246.4999999999999
 30
0.0
 40
3.0
  1
12.5
  7
EXCADSTD
100
AcDbText
  0
ENDBLK
  5
1A0
330
197
100
AcDbEntity
  8
0
100
AcDbBlockEnd
  0
BLOCK
  5
1A3
330
1A2
100
AcDbEntity
  8
0
100
AcDbBlockBegin
  2
*D16
 70
     1
 10
0.0
 20
0.0
 30
0.0
  3
*D16
  1

  0
LINE
  5
1A4
330
1A2
100
AcDbEntity
  8
0
  6
Continuous
 62
     1
100
AcDbLine
 10
146.88333
 20
187.2357439999999
 30
0.0
 11
146.88333
 21
235.0
 31
0.0
  0
LINE
  5
1A5
330
1A2
100
AcDbEntity
  8
0
  6
Continuous
 62
     1
100
AcDbLine
 10
324.3833299999999
 20
196.2357439999999
 30
0.0
 11
324.3833299999999
 21
235.0
 31
0.0
  0
LINE
  5
1A6
330
1A2
100
AcDbEntity
  8
0
  6
Continuous
 62
     1
100
AcDbLine
 10
146.88333
 20
233.4999999999999
 30
0.0
 11
324.3833299999999
 21
233.4999999999999
 31
0.0
  0
LINE
  5
1A7
330
1A2
100
AcDbEntity
  8
0
  6
Continuous
 62
     1
100
AcDbLine
 10
149.781108
 20
234.2764569999999
 30
0.0
 11
146.88333
 21
233.4999999999999
 31
0.0
  0
LINE
  5
1A8
330
1A2
100
AcDbEntity
  8
0
  6
Continuous
 62
     1
100
AcDbLine
 10
146.88333
 20
233.4999999999999
 30
0.0
 11
149.781108
 21
232.7235429999999
 31
0.0
  0
LINE
  5
1A9
330
1A2
100
AcDbEntity
  8
0
  6
Continuous
 62
     1
100
AcDbLine
 10
321.4855529999998
 20
232.7235429999999
 30
0.0
 11
324.3833299999999
 21
233.4999999999999
 31
0.0
  0
LINE
  5
1AA
330
1A2
100
AcDbEntity
  8
0
  6
Continuous
 62
     1
100
AcDbLine
 10
324.3833299999999
 20
233.4999999999999
 30
0.0
 11
321.4855529999998
 21
234.2764569999999
 31
0.0
  0
TEXT
  5
1AB
330
1A2
100
AcDbEntity
  8
0
  6
Continuous
 62
     1
100
AcDbText
 10
228.8833299999999
 20
234.0
 30
0.0
 40
3.0
  1
177.5
  7
EXCADSTD
100
AcDbText
  0
ENDBLK
  5
1AC
330
1A2
100
AcDbEntity
  8
0
100
AcDbBlockEnd
  0
BLOCK
  5
1AF
330
1AE
100
AcDbEntity
  8
0
100
AcDbBlockBegin
  2
*D17
 70
     1
 10
0.0
 20
0.0
 30
0.0
  3
*D17
  1

  0
LINE
  5
1B0
330
1AE
100
AcDbEntity
  8
0
  6
Continuous
 62
     1
100
AcDbLine
 10
339.38333
 20
196.2357439999999
 30
0.0
 11
339.38333
 21
235.0
 31
0.0
  0
LINE
  5
1B1
330
1AE
100
AcDbEntity
  8
0
  6
Continuous
 62
     1
100
AcDbLine
 10
324.3833299999999
 20
233.4999999999999
 30
0.0
 11
339.38333
 21
233.4999999999999
 31
0.0
  0
LINE
  5
1B2
330
1AE
100
AcDbEntity
  8
0
  6
Continuous
 62
     1
100
AcDbLine
 10
327.281108
 20
234.2764569999999
 30
0.0
 11
324.3833299999999
 21
233.4999999999999
 31
0.0
  0
LINE
  5
1B3
330
1AE
100
AcDbEntity
  8
0
  6
Continuous
 62
     1
100
AcDbLine
 10
324.3833299999999
 20
233.4999999999999
 30
0.0
 11
327.281108
 21
232.7235429999999
 31
0.0
  0
LINE
  5
1B4
330
1AE
100
AcDbEntity
  8
0
  6
Continuous
 62
     1
100
AcDbLine
 10
336.4855529999998
 20
232.7235429999999
 30
0.0
 11
339.38333
 21
233.4999999999999
 31
0.0
  0
LINE
  5
1B5
330
1AE
100
AcDbEntity
  8
0
  6
Continuous
 62
     1
100
AcDbLine
 10
339.38333
 20
233.4999999999999
 30
0.0
 11
336.4855529999998
 21
234.2764569999999
 31
0.0
  0
TEXT
  5
1B6
330
1AE
100
AcDbEntity
  8
0
  6
Continuous
 62
     1
100
AcDbText
 10
328.88333
 20
234.0
 30
0.0
 40
3.0
  1
15
  7
EXCADSTD
100
AcDbText
  0
ENDBLK
  5
1B7
330
1AE
100
AcDbEntity
  8
0
100
AcDbBlockEnd
  0
BLOCK
  5
1BA
330
1B9
100
AcDbEntity
  8
0
100
AcDbBlockBegin
  2
*D18
 70
     1
 10
0.0
 20
0.0
 30
0.0
  3
*D18
  1

  0
LINE
  5
1BB
330
1B9
100
AcDbEntity
  8
0
  6
Continuous
 62
     1
100
AcDbLine
 10
354.38333
 20
196.2357439999999
 30
0.0
 11
354.38333
 21
235.0
 31
0.0
  0
LINE
  5
1BC
330
1B9
100
AcDbEntity
  8
0
  6
Continuous
 62
     1
100
AcDbLine
 10
339.38333
 20
233.4999999999999
 30
0.0
 11
354.38333
 21
233.4999999999999
 31
0.0
  0
LINE
  5
1BD
330
1B9
100
AcDbEntity
  8
0
  6
Continuous
 62
     1
100
AcDbLine
 10
342.281108
 20
234.2764569999999
 30
0.0
 11
339.38333
 21
233.4999999999999
 31
0.0
  0
LINE
  5
1BE
330
1B9
100
AcDbEntity
  8
0
  6
Continuous
 62
     1
100
AcDbLine
 10
339.38333
 20
233.4999999999999
 30
0.0
 11
342.281108
 21
232.7235429999999
 31
0.0
  0
LINE
  5
1BF
330
1B9
100
AcDbEntity
  8
0
  6
Continuous
 62
     1
100
AcDbLine
 10
351.4855529999998
 20
232.7235429999999
 30
0.0
 11
354.38333
 21
233.4999999999999
 31
0.0
  0
LINE
  5
1C0
330
1B9
100
AcDbEntity
  8
0
  6
Continuous
 62
     1
100
AcDbLine
 10
354.38333
 20
233.4999999999999
 30
0.0
 11
351.4855529999998
 21
234.2764569999999
 31
0.0
  0
TEXT
  5
1C1
330
1B9
100
AcDbEntity
  8
0
  6
Continuous
 62
     1
100
AcDbText
 10
343.88333
 20
234.0
 30
0.0
 40
3.0
  1
15
  7
EXCADSTD
100
AcDbText
  0
ENDBLK
  5
1C2
330
1B9
100
AcDbEntity
  8
0
100
AcDbBlockEnd
  0
BLOCK
  5
1C5
330
1C4
100
AcDbEntity
  8
0
100
AcDbBlockBegin
  2
*D19
 70
     1
 10
0.0
 20
0.0
 30
0.0
  3
*D19
  1

  0
LINE
  5
1C6
330
1C4
100
AcDbEntity
  8
0
  6
Continuous
 62
     1
100
AcDbLine
 10
359.38333
 20
206.2357439999999
 30
0.0
 11
359.38333
 21
235.0
 31
0.0
  0
LINE
  5
1C7
330
1C4
100
AcDbEntity
  8
0
  6
Continuous
 62
     1
100
AcDbLine
 10
354.38333
 20
233.4999999999999
 30
0.0
 11
364.38333
 21
233.4999999999999
 31
0.0
  0
LINE
  5
1C8
330
1C4
100
AcDbEntity
  8
0
  6
Continuous
 62
     1
100
AcDbLine
 10
362.281108
 20
234.2764569999999
 30
0.0
 11
359.38333
 21
233.4999999999999
 31
0.0
  0
LINE
  5
1C9
330
1C4
100
AcDbEntity
  8
0
  6
Continuous
 62
     1
100
AcDbLine
 10
359.38333
 20
233.4999999999999
 30
0.0
 11
362.281108
 21
232.7235429999999
 31
0.0
  0
TEXT
  5
1CA
330
1C4
100
AcDbEntity
  8
0
  6
Continuous
 62
     1
100
AcDbText
 10
355.3833299999998
 20
234.0
 30
0.0
 40
3.0
  1
5
  7
EXCADSTD
100
AcDbText
  0
ENDBLK
  5
1CB
330
1C4
100
AcDbEntity
  8
0
100
AcDbBlockEnd
  0
BLOCK
  5
1CE
330
1CD
100
AcDbEntity
  8
0
100
AcDbBlockBegin
  2
*D20
 70
     1
 10
0.0
 20
0.0
 30
0.0
  3
*D20
  1

  0
LINE
  5
1CF
330
1CD
100
AcDbEntity
  8
0
  6
Continuous
 62
     1
100
AcDbLine
 10
90.6
 20
204.7357439999999
 30
0.0
 11
51.0
 21
204.7357439999999
 31
0.0
  0
LINE
  5
1D0
330
1CD
100
AcDbEntity
  8
0
  6
Continuous
 62
     1
100
AcDbLine
 10
90.6
 20
136.7357439999999
 30
0.0
 11
51.0
 21
136.7357439999999
 31
0.0
  0
LINE
  5
1D1
330
1CD
100
AcDbEntity
  8
0
  6
Continuous
 62
     1
100
AcDbLine
 10
52.5
 20
204.7357439999999
 30
0.0
 11
52.5
 21
136.7357439999999
 31
0.0
  0
LINE
  5
1D2
330
1CD
100
AcDbEntity
  8
0
  6
Continuous
 62
     1
100
AcDbLine
 10
53.27645699999999
 20
201.8379669999999
 30
0.0
 11
52.5
 21
204.7357439999999
 31
0.0
  0
LINE
  5
1D3
330
1CD
100
AcDbEntity
  8
0
  6
Continuous
 62
     1
100
AcDbLine
 10
52.5
 20
204.7357439999999
 30
0.0
 11
51.723543
 21
201.8379669999999
 31
0.0
  0
LINE
  5
1D4
330
1CD
100
AcDbEntity
  8
0
  6
Continuous
 62
     1
100
AcDbLine
 10
51.723543
 20
139.633522
 30
0.0
 11
52.5
 21
136.7357439999999
 31
0.0
  0
LINE
  5
1D5
330
1CD
100
AcDbEntity
  8
0
  6
Continuous
 62
     1
100
AcDbLine
 10
52.5
 20
136.7357439999999
 30
0.0
 11
53.27645699999999
 21
139.633522
 31
0.0
  0
TEXT
  5
1D6
330
1CD
100
AcDbEntity
  8
0
  6
Continuous
 62
     1
100
AcDbText
 10
52.0
 20
167.7357439999999
 30
0.0
 40
3.0
  1
68
 50
90.0
  7
EXCADSTD
100
AcDbText
  0
ENDBLK
  5
1D7
330
1CD
100
AcDbEntity
  8
0
100
AcDbBlockEnd
  0
BLOCK
  5
1DA
330
1D9
100
AcDbEntity
  8
0
100
AcDbBlockBegin
  2
*D21
 70
     1
 10
0.0
 20
0.0
 30
0.0
  3
*D21
  1

  0
LINE
  5
1DB
330
1D9
100
AcDbEntity
  8
0
  6
Continuous
 62
     1
100
AcDbLine
 10
90.6
 20
136.7357439999999
 30
0.0
 11
68.59999999999999
 21
136.7357439999999
 31
0.0
  0
LINE
  5
1DC
330
1D9
100
AcDbEntity
  8
0
  6
Continuous
 62
     1
100
AcDbLine
 10
95.6
 20
141.7357439999999
 30
0.0
 11
68.59999999999999
 21
141.7357439999999
 31
0.0
  0
LINE
  5
1DD
330
1D9
100
AcDbEntity
  8
0
  6
Continuous
 62
     1
100
AcDbLine
 10
70.09999999999999
 20
131.7357439999997
 30
0.0
 11
70.09999999999999
 21
141.7357439999999
 31
0.0
  0
LINE
  5
1DE
330
1D9
100
AcDbEntity
  8
0
  6
Continuous
 62
     1
100
AcDbLine
 10
70.87645699999999
 20
133.8379669999999
 30
0.0
 11
70.09999999999999
 21
136.7357439999999
 31
0.0
  0
LINE
  5
1DF
330
1D9
100
AcDbEntity
  8
0
  6
Continuous
 62
     1
100
AcDbLine
 10
70.09999999999999
 20
136.7357439999999
 30
0.0
 11
69.323543
 21
133.8379669999999
 31
0.0
  0
TEXT
  5
1E0
330
1D9
100
AcDbEntity
  8
0
  6
Continuous
 62
     1
100
AcDbText
 10
69.59999999999999
 20
137.7357439999999
 30
0.0
 40
3.0
  1
5
 50
90.0
  7
EXCADSTD
100
AcDbText
  0
ENDBLK
  5
1E1
330
1D9
100
AcDbEntity
  8
0
100
AcDbBlockEnd
  0
BLOCK
  5
1E4
330
1E3
100
AcDbEntity
  8
0
100
AcDbBlockBegin
  2
*D22
 70
     1
 10
0.0
 20
0.0
 30
0.0
  3
*D22
  1

  0
LINE
  5
1E5
330
1E3
100
AcDbEntity
  8
0
  6
Continuous
 62
     1
100
AcDbLine
 10
95.6
 20
160.7357439999999
 30
0.0
 11
68.59999999999999
 21
160.7357439999999
 31
0.0
  0
LINE
  5
1E6
330
1E3
100
AcDbEntity
  8
0
  6
Continuous
 62
     1
100
AcDbLine
 10
70.09999999999999
 20
141.7357439999999
 30
0.0
 11
70.09999999999999
 21
160.7357439999999
 31
0.0
  0
LINE
  5
1E7
330
1E3
100
AcDbEntity
  8
0
  6
Continuous
 62
     1
100
AcDbLine
 10
69.323543
 20
144.6335219999999
 30
0.0
 11
70.09999999999999
 21
141.7357439999999
 31
0.0
  0
LINE
  5
1E8
330
1E3
100
AcDbEntity
  8
0
  6
Continuous
 62
     1
100
AcDbLine
 10
70.09999999999999
 20
141.7357439999999
 30
0.0
 11
70.87645699999999
 21
144.6335219999999
 31
0.0
  0
LINE
  5
1E9
330
1E3
100
AcDbEntity
  8
0
  6
Continuous
 62
     1
100
AcDbLine
 10
70.87645699999999
 20
157.8379669999999
 30
0.0
 11
70.09999999999999
 21
160.7357439999999
 31
0.0
  0
LINE
  5
1EA
330
1E3
100
AcDbEntity
  8
0
  6
Continuous
 62
     1
100
AcDbLine
 10
70.09999999999999
 20
160.7357439999999
 30
0.0
 11
69.323543
 21
157.8379669999999
 31
0.0
  0
TEXT
  5
1EB
330
1E3
100
AcDbEntity
  8
0
  6
Continuous
 62
     1
100
AcDbText
 10
69.59999999999999
 20
148.2357439999999
 30
0.0
 40
3.0
  1
19
 50
90.0
  7
EXCADSTD
100
AcDbText
  0
ENDBLK
  5
1EC
330
1E3
100
AcDbEntity
  8
0
100
AcDbBlockEnd
  0
BLOCK
  5
1EF
330
1EE
100
AcDbEntity
  8
0
100
AcDbBlockBegin
  2
*D23
 70
     1
 10
0.0
 20
0.0
 30
0.0
  3
*D23
  1

  0
LINE
  5
1F0
330
1EE
100
AcDbEntity
  8
0
  6
Continuous
 62
     1
100
AcDbLine
 10
95.6
 20
180.7357439999999
 30
0.0
 11
68.59999999999999
 21
180.7357439999999
 31
0.0
  0
LINE
  5
1F1
330
1EE
100
AcDbEntity
  8
0
  6
Continuous
 62
     1
100
AcDbLine
 10
70.09999999999999
 20
160.7357439999999
 30
0.0
 11
70.09999999999999
 21
180.7357439999999
 31
0.0
  0
LINE
  5
1F2
330
1EE
100
AcDbEntity
  8
0
  6
Continuous
 62
     1
100
AcDbLine
 10
69.323543
 20
163.633522
 30
0.0
 11
70.09999999999999
 21
160.7357439999999
 31
0.0
  0
LINE
  5
1F3
330
1EE
100
AcDbEntity
  8
0
  6
Continuous
 62
     1
100
AcDbLine
 10
70.09999999999999
 20
160.7357439999999
 30
0.0
 11
70.87645699999999
 21
163.633522
 31
0.0
  0
LINE
  5
1F4
330
1EE
100
AcDbEntity
  8
0
  6
Continuous
 62
     1
100
AcDbLine
 10
70.87645699999999
 20
177.8379669999999
 30
0.0
 11
70.09999999999999
 21
180.7357439999999
 31
0.0
  0
LINE
  5
1F5
330
1EE
100
AcDbEntity
  8
0
  6
Continuous
 62
     1
100
AcDbLine
 10
70.09999999999999
 20
180.7357439999999
 30
0.0
 11
69.323543
 21
177.8379669999999
 31
0.0
  0
TEXT
  5
1F6
330
1EE
100
AcDbEntity
  8
0
  6
Continuous
 62
     1
100
AcDbText
 10
69.59999999999999
 20
167.7357439999999
 30
0.0
 40
3.0
  1
20
 50
90.0
  7
EXCADSTD
100
AcDbText
  0
ENDBLK
  5
1F7
330
1EE
100
AcDbEntity
  8
0
100
AcDbBlockEnd
  0
BLOCK
  5
1FA
330
1F9
100
AcDbEntity
  8
0
100
AcDbBlockBegin
  2
*D24
 70
     1
 10
0.0
 20
0.0
 30
0.0
  3
*D24
  1

  0
LINE
  5
1FB
330
1F9
100
AcDbEntity
  8
0
  6
Continuous
 62
     1
100
AcDbLine
 10
95.6
 20
199.7357439999999
 30
0.0
 11
68.59999999999999
 21
199.7357439999999
 31
0.0
  0
LINE
  5
1FC
330
1F9
100
AcDbEntity
  8
0
  6
Continuous
 62
     1
100
AcDbLine
 10
70.09999999999999
 20
180.7357439999999
 30
0.0
 11
70.09999999999999
 21
199.7357439999999
 31
0.0
  0
LINE
  5
1FD
330
1F9
100
AcDbEntity
  8
0
  6
Continuous
 62
     1
100
AcDbLine
 10
69.323543
 20
183.633522
 30
0.0
 11
70.09999999999999
 21
180.7357439999999
 31
0.0
  0
LINE
  5
1FE
330
1F9
100
AcDbEntity
  8
0
  6
Continuous
 62
     1
100
AcDbLine
 10
70.09999999999999
 20
180.7357439999999
 30
0.0
 11
70.87645699999999
 21
183.633522
 31
0.0
  0
LINE
  5
1FF
330
1F9
100
AcDbEntity
  8
0
  6
Continuous
 62
     1
100
AcDbLine
 10
70.87645699999999
 20
196.837967
 30
0.0
 11
70.09999999999999
 21
199.7357439999999
 31
0.0
  0
LINE
  5
200
330
1F9
100
AcDbEntity
  8
0
  6
Continuous
 62
     1
100
AcDbLine
 10
70.09999999999999
 20
199.7357439999999
 30
0.0
 11
69.323543
 21
196.837967
 31
0.0
  0
TEXT
  5
201
330
1F9
100
AcDbEntity
  8
0
  6
Continuous
 62
     1
100
AcDbText
 10
69.59999999999999
 20
187.2357439999999
 30
0.0
 40
3.0
  1
19
 50
90.0
  7
EXCADSTD
100
AcDbText
  0
ENDBLK
  5
202
330
1F9
100
AcDbEntity
  8
0
100
AcDbBlockEnd
  0
BLOCK
  5
205
330
204
100
AcDbEntity
  8
0
100
AcDbBlockBegin
  2
*D25
 70
     1
 10
0.0
 20
0.0
 30
0.0
  3
*D25
  1

  0
LINE
  5
206
330
204
100
AcDbEntity
  8
0
  6
Continuous
 62
     1
100
AcDbLine
 10
90.6
 20
204.7357439999999
 30
0.0
 11
68.59999999999999
 21
204.7357439999999
 31
0.0
  0
LINE
  5
207
330
204
100
AcDbEntity
  8
0
  6
Continuous
 62
     1
100
AcDbLine
 10
70.09999999999999
 20
199.7357439999999
 30
0.0
 11
70.09999999999999
 21
209.7357439999999
 31
0.0
  0
LINE
  5
208
330
204
100
AcDbEntity
  8
0
  6
Continuous
 62
     1
100
AcDbLine
 10
69.323543
 20
207.6335219999999
 30
0.0
 11
70.09999999999999
 21
204.7357439999999
 31
0.0
  0
LINE
  5
209
330
204
100
AcDbEntity
  8
0
  6
Continuous
 62
     1
100
AcDbLine
 10
70.09999999999999
 20
204.7357439999999
 30
0.0
 11
70.87645699999999
 21
207.6335219999999
 31
0.0
  0
TEXT
  5
20A
330
204
100
AcDbEntity
  8
0
  6
Continuous
 62
     1
100
AcDbText
 10
69.59999999999999
 20
200.7357439999999
 30
0.0
 40
3.0
  1
5
 50
90.0
  7
EXCADSTD
100
AcDbText
  0
ENDBLK
  5
20B
330
204
100
AcDbEntity
  8
0
100
AcDbBlockEnd
  0
BLOCK
  5
20E
330
20D
100
AcDbEntity
  8
0
100
AcDbBlockBegin
  2
*D26
 70
     1
 10
0.0
 20
0.0
 30
0.0
  3
*D26
  1

  0
LINE
  5
20F
330
20D
100
AcDbEntity
  8
0
  6
Continuous
 62
     1
100
AcDbLine
 10
205.3833299999999
 20
136.7357439999999
 30
0.0
 11
128.0999999999999
 21
136.7357439999999
 31
0.0
  0
LINE
  5
210
330
20D
100
AcDbEntity
  8
0
  6
Continuous
 62
     1
100
AcDbLine
 10
145.38333
 20
155.7357439999998
 30
0.0
 11
128.0999999999999
 21
155.7357439999998
 31
0.0
  0
LINE
  5
211
330
20D
100
AcDbEntity
  8
0
  6
Continuous
 62
     1
100
AcDbLine
 10
129.6
 20
136.7357439999999
 30
0.0
 11
129.6
 21
155.7357439999998
 31
0.0
  0
LINE
  5
212
330
20D
100
AcDbEntity
  8
0
  6
Continuous
 62
     1
100
AcDbLine
 10
128.823543
 20
139.633522
 30
0.0
 11
129.6
 21
136.7357439999999
 31
0.0
  0
LINE
  5
213
330
20D
100
AcDbEntity
  8
0
  6
Continuous
 62
     1
100
AcDbLine
 10
129.6
 20
136.7357439999999
 30
0.0
 11
130.376457
 21
139.633522
 31
0.0
  0
LINE
  5
214
330
20D
100
AcDbEntity
  8
0
  6
Continuous
 62
     1
100
AcDbLine
 10
130.376457
 20
152.8379669999999
 30
0.0
 11
129.6
 21
155.7357439999998
 31
0.0
  0
LINE
  5
215
330
20D
100
AcDbEntity
  8
0
  6
Continuous
 62
     1
100
AcDbLine
 10
129.6
 20
155.7357439999998
 30
0.0
 11
128.823543
 21
152.8379669999999
 31
0.0
  0
TEXT
  5
216
330
20D
100
AcDbEntity
  8
0
  6
Continuous
 62
     1
100
AcDbText
 10
129.0999999999999
 20
143.2357439999998
 30
0.0
 40
3.0
  1
19
 50
90.0
  7
EXCADSTD
100
AcDbText
  0
ENDBLK
  5
217
330
20D
100
AcDbEntity
  8
0
100
AcDbBlockEnd
  0
BLOCK
  5
21A
330
219
100
AcDbEntity
  8
0
100
AcDbBlockBegin
  2
*D27
 70
     1
 10
0.0
 20
0.0
 30
0.0
  3
*D27
  1

  0
LINE
  5
21B
330
219
100
AcDbEntity
  8
0
  6
Continuous
 62
     1
100
AcDbLine
 10
145.38333
 20
185.7357439999999
 30
0.0
 11
128.0999999999999
 21
185.7357439999999
 31
0.0
  0
LINE
  5
21C
330
219
100
AcDbEntity
  8
0
  6
Continuous
 62
     1
100
AcDbLine
 10
129.6
 20
155.7357439999998
 30
0.0
 11
129.6
 21
185.7357439999999
 31
0.0
  0
LINE
  5
21D
330
219
100
AcDbEntity
  8
0
  6
Continuous
 62
     1
100
AcDbLine
 10
128.823543
 20
158.633522
 30
0.0
 11
129.6
 21
155.7357439999998
 31
0.0
  0
LINE
  5
21E
330
219
100
AcDbEntity
  8
0
  6
Continuous
 62
     1
100
AcDbLine
 10
129.6
 20
155.7357439999998
 30
0.0
 11
130.376457
 21
158.633522
 31
0.0
  0
LINE
  5
21F
330
219
100
AcDbEntity
  8
0
  6
Continuous
 62
     1
100
AcDbLine
 10
130.376457
 20
182.8379669999999
 30
0.0
 11
129.6
 21
185.7357439999999
 31
0.0
  0
LINE
  5
220
330
219
100
AcDbEntity
  8
0
  6
Continuous
 62
     1
100
AcDbLine
 10
129.6
 20
185.7357439999999
 30
0.0
 11
128.823543
 21
182.8379669999999
 31
0.0
  0
TEXT
  5
221
330
219
100
AcDbEntity
  8
0
  6
Continuous
 62
     1
100
AcDbText
 10
129.0999999999999
 20
167.7357439999999
 30
0.0
 40
3.0
  1
30
 50
90.0
  7
EXCADSTD
100
AcDbText
  0
ENDBLK
  5
222
330
219
100
AcDbEntity
  8
0
100
AcDbBlockEnd
  0
BLOCK
  5
225
330
224
100
AcDbEntity
  8
0
100
AcDbBlockBegin
  2
*D28
 70
     1
 10
0.0
 20
0.0
 30
0.0
  3
*D28
  1

  0
LINE
  5
226
330
224
100
AcDbEntity
  8
0
  6
Continuous
 62
     1
100
AcDbLine
 10
205.3833299999999
 20
204.7357439999999
 30
0.0
 11
128.0999999999999
 21
204.7357439999999
 31
0.0
  0
LINE
  5
227
330
224
100
AcDbEntity
  8
0
  6
Continuous
 62
     1
100
AcDbLine
 10
129.6
 20
185.7357439999999
 30
0.0
 11
129.6
 21
204.7357439999999
 31
0.0
  0
LINE
  5
228
330
224
100
AcDbEntity
  8
0
  6
Continuous
 62
     1
100
AcDbLine
 10
128.823543
 20
188.633522
 30
0.0
 11
129.6
 21
185.7357439999999
 31
0.0
  0
LINE
  5
229
330
224
100
AcDbEntity
  8
0
  6
Continuous
 62
     1
100
AcDbLine
 10
129.6
 20
185.7357439999999
 30
0.0
 11
130.376457
 21
188.633522
 31
0.0
  0
LINE
  5
22A
330
224
100
AcDbEntity
  8
0
  6
Continuous
 62
     1
100
AcDbLine
 10
130.376457
 20
201.8379669999999
 30
0.0
 11
129.6
 21
204.7357439999999
 31
0.0
  0
LINE
  5
22B
330
224
100
AcDbEntity
  8
0
  6
Continuous
 62
     1
100
AcDbLine
 10
129.6
 20
204.7357439999999
 30
0.0
 11
128.823543
 21
201.8379669999999
 31
0.0
  0
TEXT
  5
22C
330
224
100
AcDbEntity
  8
0
  6
Continuous
 62
     1
100
AcDbText
 10
129.0999999999999
 20
192.2357439999999
 30
0.0
 40
3.0
  1
19
 50
90.0
  7
EXCADSTD
100
AcDbText
  0
ENDBLK
  5
22D
330
224
100
AcDbEntity
  8
0
100
AcDbBlockEnd
  0
BLOCK
  5
230
330
22F
100
AcDbEntity
  8
0
100
AcDbBlockBegin
  2
*D29
 70
     1
 10
0.0
 20
0.0
 30
0.0
  3
*D29
  1

  0
LINE
  5
231
330
22F
100
AcDbEntity
  8
0
  6
Continuous
 62
     1
100
AcDbLine
 10
360.88333
 20
136.7357439999999
 30
0.0
 11
375.8999999999998
 21
136.7357439999999
 31
0.0
  0
LINE
  5
232
330
22F
100
AcDbEntity
  8
0
  6
Continuous
 62
     1
100
AcDbLine
 10
355.8833299999998
 20
146.7357439999998
 30
0.0
 11
375.8999999999998
 21
146.7357439999998
 31
0.0
  0
LINE
  5
233
330
22F
100
AcDbEntity
  8
0
  6
Continuous
 62
     1
100
AcDbLine
 10
374.3999999999998
 20
136.7357439999999
 30
0.0
 11
374.3999999999998
 21
146.7357439999998
 31
0.0
  0
LINE
  5
234
330
22F
100
AcDbEntity
  8
0
  6
Continuous
 62
     1
100
AcDbLine
 10
373.623543
 20
139.633522
 30
0.0
 11
374.3999999999998
 21
136.7357439999999
 31
0.0
  0
LINE
  5
235
330
22F
100
AcDbEntity
  8
0
  6
Continuous
 62
     1
100
AcDbLine
 10
374.3999999999998
 20
136.7357439999999
 30
0.0
 11
375.1764569999998
 21
139.633522
 31
0.0
  0
LINE
  5
236
330
22F
100
AcDbEntity
  8
0
  6
Continuous
 62
     1
100
AcDbLine
 10
375.1764569999998
 20
143.8379669999999
 30
0.0
 11
374.3999999999998
 21
146.7357439999998
 31
0.0
  0
LINE
  5
237
330
22F
100
AcDbEntity
  8
0
  6
Continuous
 62
     1
100
AcDbLine
 10
374.3999999999998
 20
146.7357439999998
 30
0.0
 11
373.623543
 21
143.8379669999999
 31
0.0
  0
TEXT
  5
238
330
22F
100
AcDbEntity
  8
0
  6
Continuous
 62
     1
100
AcDbText
 10
373.8999999999998
 20
138.7357439999999
 30
0.0
 40
3.0
  1
10
 50
90.0
  7
EXCADSTD
100
AcDbText
  0
ENDBLK
  5
239
330
22F
100
AcDbEntity
  8
0
100
AcDbBlockEnd
  0
BLOCK
  5
23C
330
23B
100
AcDbEntity
  8
0
100
AcDbBlockBegin
  2
*D30
 70
     1
 10
0.0
 20
0.0
 30
0.0
  3
*D30
  1

  0
LINE
  5
23D
330
23B
100
AcDbEntity
  8
0
  6
Continuous
 62
     1
100
AcDbLine
 10
355.8833299999998
 20
194.7357439999999
 30
0.0
 11
375.8999999999998
 21
194.7357439999999
 31
0.0
  0
LINE
  5
23E
330
23B
100
AcDbEntity
  8
0
  6
Continuous
 62
     1
100
AcDbLine
 10
374.3999999999998
 20
146.7357439999998
 30
0.0
 11
374.3999999999998
 21
194.7357439999999
 31
0.0
  0
LINE
  5
23F
330
23B
100
AcDbEntity
  8
0
  6
Continuous
 62
     1
100
AcDbLine
 10
373.623543
 20
149.6335219999999
 30
0.0
 11
374.3999999999998
 21
146.7357439999998
 31
0.0
  0
LINE
  5
240
330
23B
100
AcDbEntity
  8
0
  6
Continuous
 62
     1
100
AcDbLine
 10
374.3999999999998
 20
146.7357439999998
 30
0.0
 11
375.1764569999998
 21
149.6335219999999
 31
0.0
  0
LINE
  5
241
330
23B
100
AcDbEntity
  8
0
  6
Continuous
 62
     1
100
AcDbLine
 10
375.1764569999998
 20
191.837967
 30
0.0
 11
374.3999999999998
 21
194.7357439999999
 31
0.0
  0
LINE
  5
242
330
23B
100
AcDbEntity
  8
0
  6
Continuous
 62
     1
100
AcDbLine
 10
374.3999999999998
 20
194.7357439999999
 30
0.0
 11
373.623543
 21
191.837967
 31
0.0
  0
TEXT
  5
243
330
23B
100
AcDbEntity
  8
0
  6
Continuous
 62
     1
100
AcDbText
 10
373.8999999999998
 20
167.7357439999999
 30
0.0
 40
3.0
  1
48
 50
90.0
  7
EXCADSTD
100
AcDbText
  0
ENDBLK
  5
244
330
23B
100
AcDbEntity
  8
0
100
AcDbBlockEnd
  0
BLOCK
  5
247
330
246
100
AcDbEntity
  8
0
100
AcDbBlockBegin
  2
*D31
 70
     1
 10
0.0
 20
0.0
 30
0.0
  3
*D31
  1

  0
LINE
  5
248
330
246
100
AcDbEntity
  8
0
  6
Continuous
 62
     1
100
AcDbLine
 10
360.88333
 20
204.7357439999999
 30
0.0
 11
375.8999999999998
 21
204.7357439999999
 31
0.0
  0
LINE
  5
249
330
246
100
AcDbEntity
  8
0
  6
Continuous
 62
     1
100
AcDbLine
 10
374.3999999999998
 20
194.7357439999999
 30
0.0
 11
374.3999999999998
 21
204.7357439999999
 31
0.0
  0
LINE
  5
24A
330
246
100
AcDbEntity
  8
0
  6
Continuous
 62
     1
100
AcDbLine
 10
373.623543
 20
197.6335219999999
 30
0.0
 11
374.3999999999998
 21
194.7357439999999
 31
0.0
  0
LINE
  5
24B
330
246
100
AcDbEntity
  8
0
  6
Continuous
 62
     1
100
AcDbLine
 10
374.3999999999998
 20
194.7357439999999
 30
0.0
 11
375.1764569999998
 21
197.6335219999999
 31
0.0
  0
LINE
  5
24C
330
246
100
AcDbEntity
  8
0
  6
Continuous
 62
     1
100
AcDbLine
 10
375.1764569999998
 20
201.8379669999999
 30
0.0
 11
374.3999999999998
 21
204.7357439999999
 31
0.0
  0
LINE
  5
24D
330
246
100
AcDbEntity
  8
0
  6
Continuous
 62
     1
100
AcDbLine
 10
374.3999999999998
 20
204.7357439999999
 30
0.0
 11
373.623543
 21
201.8379669999999
 31
0.0
  0
TEXT
  5
24E
330
246
100
AcDbEntity
  8
0
  6
Continuous
 62
     1
100
AcDbText
 10
373.8999999999998
 20
196.7357439999999
 30
0.0
 40
3.0
  1
10
 50
90.0
  7
EXCADSTD
100
AcDbText
  0
ENDBLK
  5
24F
330
246
100
AcDbEntity
  8
0
100
AcDbBlockEnd
  0
BLOCK
  5
252
330
251
100
AcDbEntity
  8
0
100
AcDbBlockBegin
  2
*D32
 70
     1
 10
0.0
 20
0.0
 30
0.0
  3
*D32
  1

  0
LINE
  5
253
330
251
100
AcDbEntity
  8
0
  6
Continuous
 62
     1
100
AcDbLine
 10
102.0999999999999
 20
206.2357439999999
 30
0.0
 11
102.0999999999999
 21
247.5999999999999
 31
0.0
  0
LINE
  5
254
330
251
100
AcDbEntity
  8
0
  6
Continuous
 62
     1
100
AcDbLine
 10
92.09999999999999
 20
206.2357439999999
 30
0.0
 11
92.09999999999999
 21
247.5999999999999
 31
0.0
  0
LINE
  5
255
330
251
100
AcDbEntity
  8
0
  6
Continuous
 62
     1
100
AcDbLine
 10
111.5999999999999
 20
246.0999999999999
 30
0.0
 11
87.09999999999999
 21
246.0999999999999
 31
0.0
  0
LINE
  5
256
330
251
100
AcDbEntity
  8
0
  6
Continuous
 62
     1
100
AcDbLine
 10
104.9977769999999
 20
246.8764569999999
 30
0.0
 11
102.0999999999999
 21
246.0999999999999
 31
0.0
  0
LINE
  5
257
330
251
100
AcDbEntity
  8
0
  6
Continuous
 62
     1
100
AcDbLine
 10
102.0999999999999
 20
246.0999999999999
 30
0.0
 11
104.9977769999999
 21
245.323543
 31
0.0
  0
LINE
  5
258
330
251
100
AcDbEntity
  8
0
  6
Continuous
 62
     1
100
AcDbLine
 10
89.202223
 20
245.323543
 30
0.0
 11
92.09999999999999
 21
246.0999999999999
 31
0.0
  0
LINE
  5
259
330
251
100
AcDbEntity
  8
0
  6
Continuous
 62
     1
100
AcDbLine
 10
92.09999999999999
 20
246.0999999999999
 30
0.0
 11
89.202223
 21
246.8764569999999
 31
0.0
  0
TEXT
  5
25A
330
251
100
AcDbEntity
  8
0
  6
Continuous
 62
     1
100
AcDbText
 10
105.0999999999999
 20
246.6
 30
0.0
 40
3.0
  1
10
  7
EXCADSTD
100
AcDbText
  0
ENDBLK
  5
25B
330
251
100
AcDbEntity
  8
0
100
AcDbBlockEnd
  0
BLOCK
  5
25E
330
25D
100
AcDbEntity
  8
0
100
AcDbBlockBegin
  2
*D33
 70
     1
 10
0.0
 20
0.0
 30
0.0
  3
*D33
  1

  0
LINE
  5
25F
330
25D
100
AcDbEntity
  8
0
  6
Continuous
 62
     1
100
AcDbLine
 10
92.09999999999999
 20
206.2357439999999
 30
0.0
 11
92.09999999999999
 21
235.0999999999999
 31
0.0
  0
LINE
  5
260
330
25D
100
AcDbEntity
  8
0
  6
Continuous
 62
     1
100
AcDbLine
 10
97.1
 20
201.2357439999999
 30
0.0
 11
97.1
 21
235.0999999999999
 31
0.0
  0
LINE
  5
261
330
25D
100
AcDbEntity
  8
0
  6
Continuous
 62
     1
100
AcDbLine
 10
87.09999999999999
 20
233.5999999999999
 30
0.0
 11
97.1
 21
233.5999999999999
 31
0.0
  0
LINE
  5
262
330
25D
100
AcDbEntity
  8
0
  6
Continuous
 62
     1
100
AcDbLine
 10
89.202223
 20
232.823543
 30
0.0
 11
92.09999999999999
 21
233.5999999999999
 31
0.0
  0
LINE
  5
263
330
25D
100
AcDbEntity
  8
0
  6
Continuous
 62
     1
100
AcDbLine
 10
92.09999999999999
 20
233.5999999999999
 30
0.0
 11
89.202223
 21
234.3764569999999
 31
0.0
  0
TEXT
  5
264
330
25D
100
AcDbEntity
  8
0
  6
Continuous
 62
     1
100
AcDbText
 10
93.1
 20
234.1
 30
0.0
 40
3.0
  1
5
  7
EXCADSTD
100
AcDbText
  0
ENDBLK
  5
265
330
25D
100
AcDbEntity
  8
0
100
AcDbBlockEnd
  0
BLOCK
  5
268
330
267
100
AcDbEntity
  8
0
100
AcDbBlockBegin
  2
*D34
 70
     1
 10
0.0
 20
0.0
 30
0.0
  3
*D34
  1

  0
LINE
  5
269
330
267
100
AcDbEntity
  8
0
  6
Continuous
 62
     1
100
AcDbLine
 10
102.0999999999999
 20
206.2357439999999
 30
0.0
 11
102.0999999999999
 21
235.0999999999999
 31
0.0
  0
LINE
  5
26A
330
267
100
AcDbEntity
  8
0
  6
Continuous
 62
     1
100
AcDbLine
 10
97.1
 20
233.5999999999999
 30
0.0
 11
107.0999999999999
 21
233.5999999999999
 31
0.0
  0
CIRCLE
  5
26B
330
267
100
AcDbEntity
  8
0
  6
Continuous
 62
     1
100
AcDbCircle
 10
97.1
 20
233.5999999999999
 30
0.0
 40
0.5
  0
CIRCLE
  5
26C
330
267
100
AcDbEntity
  8
0
  6
Continuous
 62
     1
100
AcDbCircle
 10
97.1
 20
233.5999999999999
 30
0.0
 40
0.25
  0
LINE
  5
26D
330
267
100
AcDbEntity
  8
0
  6
Continuous
 62
     1
100
AcDbLine
 10
104.9977769999999
 20
234.3764569999999
 30
0.0
 11
102.0999999999999
 21
233.5999999999999
 31
0.0
  0
LINE
  5
26E
330
267
100
AcDbEntity
  8
0
  6
Continuous
 62
     1
100
AcDbLine
 10
102.0999999999999
 20
233.5999999999999
 30
0.0
 11
104.9977769999999
 21
232.823543
 31
0.0
  0
TEXT
  5
26F
330
267
100
AcDbEntity
  8
0
  6
Continuous
 62
     1
100
AcDbText
 10
98.1
 20
234.1
 30
0.0
 40
3.0
  1
5
  7
EXCADSTD
100
AcDbText
  0
ENDBLK
  5
270
330
267
100
AcDbEntity
  8
0
100
AcDbBlockEnd
  0
BLOCK
  5
273
330
272
100
AcDbEntity
  8
0
100
AcDbBlockBegin
  2
*D35
 70
     1
 10
0.0
 20
0.0
 30
0.0
  3
*D35
  1

  0
LINE
  5
274
330
272
100
AcDbEntity
  8
0
  6
Continuous
 62
     1
100
AcDbLine
 10
145.38333
 20
88.735744
 30
0.0
 11
118.2
 21
88.735744
 31
0.0
  0
LINE
  5
275
330
272
100
AcDbEntity
  8
0
  6
Continuous
 62
     1
100
AcDbLine
 10
145.38333
 20
98.735744
 30
0.0
 11
118.2
 21
98.735744
 31
0.0
  0
LINE
  5
276
330
272
100
AcDbEntity
  8
0
  6
Continuous
 62
     1
100
AcDbLine
 10
119.7
 20
88.735744
 30
0.0
 11
119.7
 21
98.735744
 31
0.0
  0
LINE
  5
277
330
272
100
AcDbEntity
  8
0
  6
Continuous
 62
     1
100
AcDbLine
 10
118.9235429999999
 20
91.633522
 30
0.0
 11
119.7
 21
88.735744
 31
0.0
  0
LINE
  5
278
330
272
100
AcDbEntity
  8
0
  6
Continuous
 62
     1
100
AcDbLine
 10
119.7
 20
88.735744
 30
0.0
 11
120.476457
 21
91.633522
 31
0.0
  0
LINE
  5
279
330
272
100
AcDbEntity
  8
0
  6
Continuous
 62
     1
100
AcDbLine
 10
120.476457
 20
95.837967
 30
0.0
 11
119.7
 21
98.735744
 31
0.0
  0
LINE
  5
27A
330
272
100
AcDbEntity
  8
0
  6
Continuous
 62
     1
100
AcDbLine
 10
119.7
 20
98.735744
 30
0.0
 11
118.9235429999999
 21
95.837967
 31
0.0
  0
TEXT
  5
27B
330
272
100
AcDbEntity
  8
0
  6
Continuous
 62
     1
100
AcDbText
 10
119.1999999999999
 20
90.735744
 30
0.0
 40
3.0
  1
10
 50
90.0
  7
EXCADSTD
100
AcDbText
  0
ENDBLK
  5
27C
330
272
100
AcDbEntity
  8
0
100
AcDbBlockEnd
  0
BLOCK
  5
27F
330
27E
100
AcDbEntity
  8
0
100
AcDbBlockBegin
  2
*D36
 70
     1
 10
0.0
 20
0.0
 30
0.0
  3
*D36
  1

  0
LINE
  5
280
330
27E
100
AcDbEntity
  8
0
  6
Continuous
 62
     1
100
AcDbLine
 10
145.38333
 20
88.735744
 30
0.0
 11
128.0999999999999
 21
88.735744
 31
0.0
  0
LINE
  5
281
330
27E
100
AcDbEntity
  8
0
  6
Continuous
 62
     1
100
AcDbLine
 10
145.38333
 20
93.735744
 30
0.0
 11
128.0999999999999
 21
93.735744
 31
0.0
  0
LINE
  5
282
330
27E
100
AcDbEntity
  8
0
  6
Continuous
 62
     1
100
AcDbLine
 10
129.6
 20
83.735744
 30
0.0
 11
129.6
 21
93.735744
 31
0.0
  0
LINE
  5
283
330
27E
100
AcDbEntity
  8
0
  6
Continuous
 62
     1
100
AcDbLine
 10
130.376457
 20
85.837967
 30
0.0
 11
129.6
 21
88.735744
 31
0.0
  0
LINE
  5
284
330
27E
100
AcDbEntity
  8
0
  6
Continuous
 62
     1
100
AcDbLine
 10
129.6
 20
88.735744
 30
0.0
 11
128.823543
 21
85.837967
 31
0.0
  0
TEXT
  5
285
330
27E
100
AcDbEntity
  8
0
  6
Continuous
 62
     1
100
AcDbText
 10
129.0999999999999
 20
89.735744
 30
0.0
 40
3.0
  1
5
 50
90.0
  7
EXCADSTD
100
AcDbText
  0
ENDBLK
  5
286
330
27E
100
AcDbEntity
  8
0
100
AcDbBlockEnd
  0
BLOCK
  5
289
330
288
100
AcDbEntity
  8
0
100
AcDbBlockBegin
  2
*D37
 70
     1
 10
0.0
 20
0.0
 30
0.0
  3
*D37
  1

  0
LINE
  5
28A
330
288
100
AcDbEntity
  8
0
  6
Continuous
 62
     1
100
AcDbLine
 10
145.38333
 20
98.735744
 30
0.0
 11
128.0999999999999
 21
98.735744
 31
0.0
  0
LINE
  5
28B
330
288
100
AcDbEntity
  8
0
  6
Continuous
 62
     1
100
AcDbLine
 10
129.6
 20
93.735744
 30
0.0
 11
129.6
 21
103.735744
 31
0.0
  0
CIRCLE
  5
28C
330
288
100
AcDbEntity
  8
0
  6
Continuous
 62
     1
100
AcDbCircle
 10
129.6
 20
93.735744
 30
0.0
 40
0.5
  0
CIRCLE
  5
28D
330
288
100
AcDbEntity
  8
0
  6
Continuous
 62
     1
100
AcDbCircle
 10
129.6
 20
93.735744
 30
0.0
 40
0.25
  0
LINE
  5
28E
330
288
100
AcDbEntity
  8
0
  6
Continuous
 62
     1
100
AcDbLine
 10
128.823543
 20
101.6335219999999
 30
0.0
 11
129.6
 21
98.735744
 31
0.0
  0
LINE
  5
28F
330
288
100
AcDbEntity
  8
0
  6
Continuous
 62
     1
100
AcDbLine
 10
129.6
 20
98.735744
 30
0.0
 11
130.376457
 21
101.6335219999999
 31
0.0
  0
TEXT
  5
290
330
288
100
AcDbEntity
  8
0
  6
Continuous
 62
     1
100
AcDbText
 10
129.0999999999999
 20
94.735744
 30
0.0
 40
3.0
  1
5
 50
90.0
  7
EXCADSTD
100
AcDbText
  0
ENDBLK
  5
291
330
288
100
AcDbEntity
  8
0
100
AcDbBlockEnd
  0
ENDSEC
  0
SECTION
  2
ENTITIES
  0
LINE
  5
9B
330
A
100
AcDbEntity
  8
LAY-1
  6
Continuous
 62
     3
100
AcDbLine
 10
406.0
 20
9.000011
 30
0.0
 11
406.0
 21
286.9999729999999
 31
0.0
  0
LINE
  5
9C
330
A
100
AcDbEntity
  8
LAY-1
  6
Continuous
 62
     3
100
AcDbLine
 10
406.0
 20
286.9999729999999
 30
0.0
 11
13.0
 21
286.9999729999999
 31
0.0
  0
LINE
  5
9D
330
A
100
AcDbEntity
  8
LAY-1
  6
Continuous
 62
     3
100
AcDbLine
 10
13.0
 20
286.9999729999999
 30
0.0
 11
13.0
 21
9.0
 31
0.0
  0
LINE
  5
9E
330
A
100
AcDbEntity
  8
LAY-1
  6
Continuous
 62
     3
100
AcDbLine
 10
13.0
 20
9.0
 30
0.0
 11
406.0
 21
9.0
 31
0.0
  0
POINT
  5
AA
330
A
100
AcDbEntity
  8
LAY-1
  6
Continuous
 62
     5
100
AcDbPoint
 10
406.0
 20
9.000011
 30
0.0
  0
POINT
  5
AB
330
A
100
AcDbEntity
  8
LAY-1
  6
Continuous
 62
     5
100
AcDbPoint
 10
406.0
 20
19.00001099999998
 30
0.0
  0
POINT
  5
AC
330
A
100
AcDbEntity
  8
LAY-1
  6
Continuous
 62
     5
100
AcDbPoint
 10
406.0
 20
9.000011
 30
0.0
  0
POINT
  5
AD
330
A
100
AcDbEntity
  8
LAY-1
  6
Continuous
 62
     5
100
AcDbPoint
 10
406.0
 20
29.00001099999998
 30
0.0
  0
POINT
  5
AE
330
A
100
AcDbEntity
  8
LAY-1
  6
Continuous
 62
     5
100
AcDbPoint
 10
406.0
 20
9.000011
 30
0.0
  0
POINT
  5
AF
330
A
100
AcDbEntity
  8
LAY-1
  6
Continuous
 62
     5
100
AcDbPoint
 10
406.0
 20
39.000011
 30
0.0
  0
POINT
  5
B0
330
A
100
AcDbEntity
  8
LAY-1
  6
Continuous
 62
     5
100
AcDbPoint
 10
406.0
 20
9.000011
 30
0.0
  0
POINT
  5
B1
330
A
100
AcDbEntity
  8
LAY-1
  6
Continuous
 62
     5
100
AcDbPoint
 10
246.0
 20
9.000018999999998
 30
0.0
  0
POINT
  5
BA
330
A
100
AcDbEntity
  8
LAY-1
  6
Continuous
 62
     5
100
AcDbPoint
 10
406.0
 20
9.000011
 30
0.0
  0
POINT
  5
BB
330
A
100
AcDbEntity
  8
LAY-1
  6
Continuous
 62
     5
100
AcDbPoint
 10
346.0
 20
9.000011
 30
0.0
  0
POINT
  5
D1
330
A
100
AcDbEntity
  8
LAY-1
  6
Continuous
 62
     5
100
AcDbPoint
 10
236.6304319999999
 20
8.999988
 30
0.0
  0
DIMENSION
  5
DD
330
A
100
AcDbEntity
  8
LAY-1
  6
Continuous
 62
     1
100
AcDbDimension
  2
*D9
 10
383.88333
 20
170.7357439999999
 30
0.0
 11
381.88333
 21
153.7357439999999
 31
0.0
 70
    32
 71
     5
 42
-1.0
  3
STANDARD
100
AcDbAlignedDimension
 13
359.38333
 23
136.7357439999999
 33
0.0
 14
346.88333
 24
170.7357439999999
 34
0.0
 50
90.0
100
AcDbRotatedDimension
1001
ACAD
1000
DSTYLE
1002
{
1070
     6
1000
_EX_NORM
1070
     7
1000
_EX_NORM
1070
    41
1040
3.0
1070
    42
1040
1.5
1070
    44
1040
1.5
1070
    73
1070
     0
1070
    74
1070
     0
1070
    75
1070
     0
1070
    76
1070
     0
1070
    77
1070
     1
1070
    78
1070
     8
1070
   140
1040
3.0
1070
   147
1040
0.5
1070
   173
1070
     1
1070
   176
1070
     1
1070
   177
1070
     1
1070
   178
1070
     1
1070
   271
1070
     3
1070
   280
1070
     0
1070
   287
1070
     3
1002
}
  0
DIMENSION
  5
E8
330
A
100
AcDbEntity
  8
LAY-1
  6
Continuous
 62
     1
100
AcDbDimension
  2
*D10
 10
383.88333
 20
204.7357439999999
 30
0.0
 11
381.88333
 21
187.7357439999999
 31
0.0
 70
    32
 71
     5
 42
-1.0
  3
STANDARD
100
AcDbAlignedDimension
 13
346.88333
 23
170.7357439999999
 33
0.0
 14
359.38333
 24
204.7357439999999
 34
0.0
 50
90.0
100
AcDbRotatedDimension
1001
ACAD
1000
DSTYLE
1002
{
1070
     6
1000
_EX_NORM
1070
     7
1000
_EX_NORM
1070
    41
1040
3.0
1070
    42
1040
1.5
1070
    44
1040
1.5
1070
    73
1070
     0
1070
    74
1070
     0
1070
    75
1070
     1
1070
    76
1070
     0
1070
    77
1070
     1
1070
    78
1070
     8
1070
   140
1040
3.0
1070
   147
1040
0.5
1070
   173
1070
     1
1070
   176
1070
     1
1070
   177
1070
     1
1070
   178
1070
     1
1070
   271
1070
     3
1070
   280
1070
     0
1070
   287
1070
     3
1002
}
  0
TEXT
  5
E9
330
A
100
AcDbEntity
  8
LAY-1
  6
Continuous
 62
     1
100
AcDbText
 10
330.3586
 20
121.587573
 30
0.0
 40
3.0
  1
2 - φ6.2
 41
0.8490566037735847
  7
EXCADSTD
 72
     5
 11
348.3586
 21
121.587573
 31
0.0
100
AcDbText
  0
LEADER
  5
EA
330
A
100
AcDbEntity
  8
LAY-1
  6
Continuous
 62
     1
100
AcDbLeader
  3
STANDARD
 76
     3
 10
297.782353
 20
167.768969
 30
0.0
 10
324.73387
 20
121.0875729999999
 30
0.0
 10
353.9833299999998
 20
121.0875729999999
 30
0.0
1001
ACAD
1000
DSTYLE
1002
{
1070
    41
1040
3.0
1070
     5
1000
_EX_NORM
1070
     6
1000
_EX_NORM
1070
     7
1000
_EX_NORM
1002
}
  0
POINT
  5
F0
330
A
100
AcDbEntity
  8
LAY-1
  6
Continuous
 62
     3
100
AcDbPoint
 10
321.88333
 20
170.7357439999999
 30
0.0
  0
POINT
  5
F1
330
A
100
AcDbEntity
  8
LAY-1
  6
Continuous
 62
     3
100
AcDbPoint
 10
346.88333
 20
170.7357439999999
 30
0.0
  0
POINT
  5
F2
330
A
100
AcDbEntity
  8
LAY-1
  6
Continuous
 62
     3
100
AcDbPoint
 10
296.88333
 20
170.7357439999999
 30
0.0
  0
CIRCLE
  5
F3
330
A
100
AcDbEntity
  8
LAY-1
  6
Continuous
 62
     1
100
AcDbCircle
 10
296.88333
 20
170.7357439999999
 30
0.0
 40
3.1
  0
CIRCLE
  5
F4
330
A
100
AcDbEntity
  8
LAY-1
  6
Continuous
 62
     1
100
AcDbCircle
 10
346.88333
 20
170.7357439999999
 30
0.0
 40
3.1
  0
POINT
  5
F5
330
A
100
AcDbEntity
  8
LAY-1
  6
Continuous
 62
     3
100
AcDbPoint
 10
179.38333
 20
185.7357439999999
 30
0.0
  0
POINT
  5
F6
330
A
100
AcDbEntity
  8
LAY-1
  6
Continuous
 62
     3
100
AcDbPoint
 10
179.38333
 20
155.7357439999998
 30
0.0
  0
LWPOLYLINE
  5
F7
330
A
100
AcDbEntity
  8
LAY-1
  6
Continuous
 62
     3
100
AcDbPolyline
 90
        5
 70
   128
 43
0.0
 10
92.09999999999999
 20
136.7357439999999
 10
102.0999999999999
 20
136.7357439999999
 10
102.0999999999999
 20
204.7357439999999
 10
92.09999999999999
 20
204.7357439999999
 10
92.09999999999999
 20
136.7357439999999
  0
POINT
  5
FE
330
A
100
AcDbEntity
  8
LAY-1
  6
Continuous
 62
     3
100
AcDbPoint
 10
179.38333
 20
92.73574399999999
 30
0.0
  0
POINT
  5
FF
330
A
100
AcDbEntity
  8
LAY-1
  6
Continuous
 62
     3
100
AcDbPoint
 10
179.38333
 20
94.23574399999999
 30
0.0
  0
LINE
  5
100
330
A
100
AcDbEntity
  8
LAY-1
  6
Continuous
 62
     3
100
AcDbLine
 10
97.59999999999999
 20
185.7357439999999
 30
0.0
 11
92.09999999999999
 21
185.7357439999999
 31
0.0
  0
LINE
  5
101
330
A
100
AcDbEntity
  8
LAY-1
  6
Continuous
 62
     3
100
AcDbLine
 10
97.59999999999999
 20
155.7357439999998
 30
0.0
 11
92.09999999999999
 21
155.7357439999998
 31
0.0
  0
LINE
  5
102
330
A
100
AcDbEntity
  8
LAY-1
  6
Continuous
 62
     3
100
AcDbLine
 10
102.0999999999999
 20
185.7357439999999
 30
0.0
 11
97.59999999999999
 21
185.7357439999999
 31
0.0
  0
LINE
  5
103
330
A
100
AcDbEntity
  8
LAY-1
  6
Continuous
 62
     3
100
AcDbLine
 10
97.59999999999999
 20
155.7357439999998
 30
0.0
 11
102.0999999999999
 21
155.7357439999998
 31
0.0
  0
POINT
  5
104
330
A
100
AcDbEntity
  8
LAY-1
  6
Continuous
 62
     3
100
AcDbPoint
 10
206.88333
 20
136.7357439999999
 30
0.0
  0
LINE
  5
105
330
A
100
AcDbEntity
  8
LAY-1
  6
Continuous
 62
     3
100
AcDbLine
 10
206.88333
 20
136.7357439999999
 30
0.0
 11
206.88333
 21
155.7357439999998
 31
0.0
  0
LINE
  5
106
330
A
100
AcDbEntity
  8
LAY-1
  6
Continuous
 62
     3
100
AcDbLine
 10
206.88333
 20
204.7357439999999
 30
0.0
 11
206.88333
 21
185.7357439999999
 31
0.0
  0
LINE
  5
107
330
A
100
AcDbEntity
  8
LAY-1
  6
Continuous
 62
     3
100
AcDbLine
 10
206.88333
 20
155.7357439999998
 30
0.0
 11
179.38333
 21
155.7357439999998
 31
0.0
  0
LINE
  5
108
330
A
100
AcDbEntity
  8
LAY-1
  6
Continuous
 62
     3
100
AcDbLine
 10
179.38333
 20
185.7357439999999
 30
0.0
 11
206.88333
 21
185.7357439999999
 31
0.0
  0
POINT
  5
109
330
A
100
AcDbEntity
  8
LAY-1
  6
Continuous
 62
     3
100
AcDbPoint
 10
146.88333
 20
204.7357439999999
 30
0.0
  0
LINE
  5
10A
330
A
100
AcDbEntity
  8
LAY-1
  6
Continuous
 62
     3
100
AcDbLine
 10
179.38333
 20
185.7357439999999
 30
0.0
 11
146.88333
 21
185.7357439999999
 31
0.0
  0
LINE
  5
10B
330
A
100
AcDbEntity
  8
LAY-1
  6
Continuous
 62
     3
100
AcDbLine
 10
179.38333
 20
155.7357439999998
 30
0.0
 11
146.88333
 21
155.7357439999998
 31
0.0
  0
LINE
  5
10C
330
A
100
AcDbEntity
  8
LAY-1
  6
Continuous
 62
     3
100
AcDbLine
 10
146.88333
 20
185.7357439999999
 30
0.0
 11
146.88333
 21
155.7357439999998
 31
0.0
  0
LWPOLYLINE
  5
10D
330
A
100
AcDbEntity
  8
LAY-1
  6
Continuous
 62
     3
100
AcDbPolyline
 90
        4
 70
   128
 43
0.0
 10
206.88333
 20
136.7357439999999
 10
359.38333
 20
136.7357439999999
 10
359.38333
 20
204.7357439999999
 10
206.88333
 20
204.7357439999999
  0
LWPOLYLINE
  5
113
330
A
100
AcDbEntity
  8
LAY-1
  6
Continuous
 62
     3
100
AcDbPolyline
 90
        4
 70
   128
 43
0.0
 10
179.38333
 20
88.735744
 10
146.88333
 20
88.735744
 10
146.88333
 20
98.735744
 10
179.38333
 20
98.735744
  0
LWPOLYLINE
  5
119
330
A
100
AcDbEntity
  8
LAY-1
  6
Continuous
 62
     3
100
AcDbPolyline
 90
        4
 70
   128
 43
0.0
 10
179.38333
 20
88.735744
 10
359.38333
 20
88.735744
 10
359.38333
 20
98.735744
 10
179.38333
 20
98.735744
  0
LINE
  5
11F
330
A
100
AcDbEntity
  8
LAY-1
  6
Continuous
 62
     3
100
AcDbLine
 10
206.88333
 20
98.735744
 30
0.0
 11
206.88333
 21
88.735744
 31
0.0
  0
POINT
  5
120
330
A
100
AcDbEntity
  8
LAY-1
  6
Continuous
 62
     3
100
AcDbPoint
 10
97.1
 20
160.7357439999999
 30
0.0
  0
POINT
  5
121
330
A
100
AcDbEntity
  8
LAY-1
  6
Continuous
 62
     3
100
AcDbPoint
 10
97.1
 20
180.7357439999999
 30
0.0
  0
POINT
  5
122
330
A
100
AcDbEntity
  8
LAY-1
  6
Continuous
 62
     3
100
AcDbPoint
 10
97.1
 20
199.7357439999999
 30
0.0
  0
POINT
  5
123
330
A
100
AcDbEntity
  8
LAY-1
  6
Continuous
 62
     3
100
AcDbPoint
 10
97.1
 20
141.7357439999999
 30
0.0
  0
CIRCLE
  5
124
330
A
100
AcDbEntity
  8
LAY-1
  6
Continuous
 62
     1
100
AcDbCircle
 10
97.1
 20
199.7357439999999
 30
0.0
 40
2.5
  0
CIRCLE
  5
125
330
A
100
AcDbEntity
  8
LAY-1
  6
Continuous
 62
     1
100
AcDbCircle
 10
97.1
 20
141.7357439999999
 30
0.0
 40
2.5
  0
CIRCLE
  5
126
330
A
100
AcDbEntity
  8
LAY-1
  6
Continuous
 62
     1
100
AcDbCircle
 10
97.1
 20
180.7357439999999
 30
0.0
 40
2.0
  0
CIRCLE
  5
127
330
A
100
AcDbEntity
  8
LAY-1
  6
Continuous
 62
     1
100
AcDbCircle
 10
97.1
 20
160.7357439999999
 30
0.0
 40
2.0
  0
CIRCLE
  5
128
330
A
100
AcDbEntity
  8
LAY-1
  6
Continuous
 62
     1
100
AcDbCircle
 10
97.1
 20
180.7357439999999
 30
0.0
 40
1.5
  0
CIRCLE
  5
129
330
A
100
AcDbEntity
  8
LAY-1
  6
Continuous
 62
     1
100
AcDbCircle
 10
97.1
 20
160.7357439999999
 30
0.0
 40
1.5
  0
POINT
  5
12A
330
A
100
AcDbEntity
  8
LAY-1
  6
Continuous
 62
     1
100
AcDbPoint
 10
354.38333
 20
146.7357439999998
 30
0.0
  0
POINT
  5
12B
330
A
100
AcDbEntity
  8
LAY-1
  6
Continuous
 62
     1
100
AcDbPoint
 10
354.38333
 20
194.7357439999999
 30
0.0
  0
CIRCLE
  5
12C
330
A
100
AcDbEntity
  8
LAY-1
  6
Continuous
 62
     1
100
AcDbCircle
 10
354.38333
 20
146.7357439999998
 30
0.0
 40
2.0
  0
CIRCLE
  5
12D
330
A
100
AcDbEntity
  8
LAY-1
  6
Continuous
 62
     1
100
AcDbCircle
 10
354.38333
 20
194.7357439999999
 30
0.0
 40
2.0
  0
CIRCLE
  5
12E
330
A
100
AcDbEntity
  8
LAY-1
  6
Continuous
 62
     1
100
AcDbCircle
 10
354.38333
 20
146.7357439999998
 30
0.0
 40
1.5
  0
CIRCLE
  5
12F
330
A
100
AcDbEntity
  8
LAY-1
  6
Continuous
 62
     1
100
AcDbCircle
 10
354.38333
 20
194.7357439999999
 30
0.0
 40
1.5
  0
POINT
  5
130
330
A
100
AcDbEntity
  8
LAY-1
  6
Continuous
 62
     1
100
AcDbPoint
 10
339.38333
 20
146.7357439999998
 30
0.0
  0
POINT
  5
131
330
A
100
AcDbEntity
  8
LAY-1
  6
Continuous
 62
     1
100
AcDbPoint
 10
339.38333
 20
194.7357439999999
 30
0.0
  0
CIRCLE
  5
132
330
A
100
AcDbEntity
  8
LAY-1
  6
Continuous
 62
     1
100
AcDbCircle
 10
339.38333
 20
146.7357439999998
 30
0.0
 40
2.0
  0
CIRCLE
  5
133
330
A
100
AcDbEntity
  8
LAY-1
  6
Continuous
 62
     1
100
AcDbCircle
 10
339.38333
 20
194.7357439999999
 30
0.0
 40
2.0
  0
CIRCLE
  5
134
330
A
100
AcDbEntity
  8
LAY-1
  6
Continuous
 62
     1
100
AcDbCircle
 10
339.38333
 20
146.7357439999998
 30
0.0
 40
1.5
  0
CIRCLE
  5
135
330
A
100
AcDbEntity
  8
LAY-1
  6
Continuous
 62
     1
100
AcDbCircle
 10
339.38333
 20
194.7357439999999
 30
0.0
 40
1.5
  0
POINT
  5
136
330
A
100
AcDbEntity
  8
LAY-1
  6
Continuous
 62
     1
100
AcDbPoint
 10
324.3833299999999
 20
146.7357439999998
 30
0.0
  0
POINT
  5
137
330
A
100
AcDbEntity
  8
LAY-1
  6
Continuous
 62
     1
100
AcDbPoint
 10
324.3833299999999
 20
194.7357439999999
 30
0.0
  0
CIRCLE
  5
138
330
A
100
AcDbEntity
  8
LAY-1
  6
Continuous
 62
     1
100
AcDbCircle
 10
324.3833299999999
 20
146.7357439999998
 30
0.0
 40
2.0
  0
CIRCLE
  5
139
330
A
100
AcDbEntity
  8
LAY-1
  6
Continuous
 62
     1
100
AcDbCircle
 10
324.3833299999999
 20
194.7357439999999
 30
0.0
 40
2.0
  0
CIRCLE
  5
13A
330
A
100
AcDbEntity
  8
LAY-1
  6
Continuous
 62
     1
100
AcDbCircle
 10
324.3833299999999
 20
146.7357439999998
 30
0.0
 40
1.5
  0
CIRCLE
  5
13B
330
A
100
AcDbEntity
  8
LAY-1
  6
Continuous
 62
     1
100
AcDbCircle
 10
324.3833299999999
 20
194.7357439999999
 30
0.0
 40
1.5
  0
POINT
  5
13C
330
A
100
AcDbEntity
  8
LAY-1
  6
Continuous
 62
     1
100
AcDbPoint
 10
146.88333
 20
93.735744
 30
0.0
  0
INSERT
  5
13D
330
A
100
AcDbEntity
  8
LAY-1
  6
Continuous
 62
     0
100
AcDbBlockReference
  2
SYM-1
 10
146.88333
 20
93.735744
 30
0.0
 50
-90.0
  0
INSERT
  5
13E
330
A
100
AcDbEntity
  8
LAY-1
  6
Continuous
 62
     0
100
AcDbBlockReference
  2
SYM-1
 10
146.88333
 20
160.8999999999998
 30
0.0
 50
-90.0
  0
INSERT
  5
13F
330
A
100
AcDbEntity
  8
LAY-1
  6
Continuous
 62
     0
100
AcDbBlockReference
  2
SYM-1
 10
146.88333
 20
180.8
 30
0.0
 50
-90.0
  0
POINT
  5
140
330
A
100
AcDbEntity
  8
LAY-1
  6
Continuous
 62
     1
100
AcDbPoint
 10
206.88333
 20
199.7357439999999
 30
0.0
  0
POINT
  5
141
330
A
100
AcDbEntity
  8
LAY-1
  6
Continuous
 62
     1
100
AcDbPoint
 10
206.88333
 20
141.7357439999999
 30
0.0
  0
POINT
  5
142
330
A
100
AcDbEntity
  8
LAY-1
  6
Continuous
 62
     1
100
AcDbPoint
 10
206.88333
 20
144.2357439999998
 30
0.0
  0
POINT
  5
143
330
A
100
AcDbEntity
  8
LAY-1
  6
Continuous
 62
     1
100
AcDbPoint
 10
206.88333
 20
139.2357439999997
 30
0.0
  0
LWPOLYLINE
  5
144
330
A
100
AcDbEntity
  8
LAY-1
  6
DOT
 62
     1
100
AcDbPolyline
 90
        3
 70
   128
 43
0.0
 10
206.88333
 20
144.2357439999998
 10
214.8833299999999
 20
144.2357439999998
 10
216.3594339999999
 20
141.6790579999999
  0
LWPOLYLINE
  5
149
330
A
100
AcDbEntity
  8
LAY-1
  6
DOT
 62
     1
100
AcDbPolyline
 90
        3
 70
   128
 43
0.0
 10
206.88333
 20
139.2357439999997
 10
214.8833299999999
 20
139.2357439999997
 10
216.3267059999999
 20
141.7357439999999
  0
POINT
  5
14E
330
A
100
AcDbEntity
  8
LAY-1
  6
Continuous
 62
     1
100
AcDbPoint
 10
206.88333
 20
199.7357439999999
 30
0.0
  0
POINT
  5
14F
330
A
100
AcDbEntity
  8
LAY-1
  6
Continuous
 62
     1
100
AcDbPoint
 10
206.88333
 20
202.2357439999999
 30
0.0
  0
POINT
  5
150
330
A
100
AcDbEntity
  8
LAY-1
  6
Continuous
 62
     1
100
AcDbPoint
 10
206.88333
 20
197.2357439999999
 30
0.0
  0
LWPOLYLINE
  5
151
330
A
100
AcDbEntity
  8
LAY-1
  6
DOT
 62
     1
100
AcDbPolyline
 90
        3
 70
   128
 43
0.0
 10
206.88333
 20
202.2357439999999
 10
214.8833299999999
 20
202.2357439999999
 10
216.3594339999999
 20
199.679058
  0
LWPOLYLINE
  5
156
330
A
100
AcDbEntity
  8
LAY-1
  6
DOT
 62
     1
100
AcDbPolyline
 90
        3
 70
   128
 43
0.0
 10
206.88333
 20
197.2357439999999
 10
214.8833299999999
 20
197.2357439999999
 10
216.3267059999999
 20
199.7357439999999
  0
POINT
  5
15B
330
A
100
AcDbEntity
  8
LAY-1
  6
Continuous
 62
     1
100
AcDbPoint
 10
206.88333
 20
93.735744
 30
0.0
  0
POINT
  5
15C
330
A
100
AcDbEntity
  8
LAY-1
  6
Continuous
 62
     1
100
AcDbPoint
 10
206.88333
 20
93.735744
 30
0.0
  0
POINT
  5
15D
330
A
100
AcDbEntity
  8
LAY-1
  6
Continuous
 62
     1
100
AcDbPoint
 10
206.88333
 20
96.235744
 30
0.0
  0
POINT
  5
15E
330
A
100
AcDbEntity
  8
LAY-1
  6
Continuous
 62
     1
100
AcDbPoint
 10
206.88333
 20
91.235744
 30
0.0
  0
LWPOLYLINE
  5
15F
330
A
100
AcDbEntity
  8
LAY-1
  6
DOT
 62
     1
100
AcDbPolyline
 90
        3
 70
   128
 43
0.0
 10
206.88333
 20
96.235744
 10
214.8833299999999
 20
96.235744
 10
216.3594339999999
 20
93.679058
  0
LWPOLYLINE
  5
164
330
A
100
AcDbEntity
  8
LAY-1
  6
DOT
 62
     1
100
AcDbPolyline
 90
        3
 70
   128
 43
0.0
 10
206.88333
 20
91.235744
 10
214.8833299999999
 20
91.235744
 10
216.3267059999999
 20
93.735744
  0
DIMENSION
  5
174
330
A
100
AcDbEntity
  8
LAY-1
  6
Continuous
 62
     1
100
AcDbDimension
  2
*D11
 10
359.38333
 20
257.0
 30
0.0
 11
253.1333299999999
 21
259.0
 31
0.0
 70
    32
 71
     5
 42
-1.0
  3
STANDARD
100
AcDbAlignedDimension
 13
146.88333
 23
185.7357439999999
 33
0.0
 14
359.38333
 24
204.7357439999999
 34
0.0
100
AcDbRotatedDimension
1001
ACAD
1000
DSTYLE
1002
{
1070
     6
1000
_EX_NORM
1070
     7
1000
_EX_NORM
1070
    41
1040
3.0
1070
    42
1040
1.5
1070
    44
1040
1.5
1070
    73
1070
     0
1070
    74
1070
     0
1070
    75
1070
     0
1070
    76
1070
     0
1070
    77
1070
     1
1070
    78
1070
     8
1070
   140
1040
3.0
1070
   147
1040
0.5
1070
   173
1070
     1
1070
   176
1070
     1
1070
   177
1070
     1
1070
   178
1070
     1
1070
   271
1070
     3
1070
   280
1070
     0
1070
   287
1070
     3
1002
}
  0
DIMENSION
  5
180
330
A
100
AcDbEntity
  8
LAY-1
  6
Continuous
 62
     1
100
AcDbDimension
  2
*D12
 10
206.88333
 20
246.0
 30
0.0
 11
176.88333
 21
248.0
 31
0.0
 70
    32
 71
     5
 42
-1.0
  3
STANDARD
100
AcDbAlignedDimension
 13
146.88333
 23
185.7357439999999
 33
0.0
 14
206.88333
 24
204.7357439999999
 34
0.0
100
AcDbRotatedDimension
1001
ACAD
1000
DSTYLE
1002
{
1070
     6
1000
_EX_NORM
1070
     7
1000
_EX_NORM
1070
    41
1040
3.0
1070
    42
1040
1.5
1070
    44
1040
1.5
1070
    73
1070
     0
1070
    74
1070
     0
1070
    75
1070
     0
1070
    76
1070
     0
1070
    77
1070
     1
1070
    78
1070
     8
1070
   140
1040
3.0
1070
   147
1040
0.5
1070
   173
1070
     1
1070
   176
1070
     1
1070
   177
1070
     1
1070
   178
1070
     1
1070
   271
1070
     3
1070
   280
1070
     0
1070
   287
1070
     3
1002
}
  0
DIMENSION
  5
18B
330
A
100
AcDbEntity
  8
LAY-1
  6
Continuous
 62
     1
100
AcDbDimension
  2
*D13
 10
296.88333
 20
246.0
 30
0.0
 11
251.8833299999999
 21
248.0
 31
0.0
 70
    32
 71
     5
 42
-1.0
  3
STANDARD
100
AcDbAlignedDimension
 13
206.88333
 23
204.7357439999999
 33
0.0
 14
296.88333
 24
170.7357439999999
 34
0.0
100
AcDbRotatedDimension
1001
ACAD
1000
DSTYLE
1002
{
1070
     6
1000
_EX_NORM
1070
     7
1000
_EX_NORM
1070
    41
1040
3.0
1070
    42
1040
1.5
1070
    44
1040
1.5
1070
    73
1070
     0
1070
    74
1070
     0
1070
    75
1070
     1
1070
    76
1070
     0
1070
    77
1070
     1
1070
    78
1070
     8
1070
   140
1040
3.0
1070
   147
1040
0.5
1070
   173
1070
     1
1070
   176
1070
     1
1070
   177
1070
     1
1070
   178
1070
     1
1070
   271
1070
     3
1070
   280
1070
     0
1070
   287
1070
     3
1002
}
  0
DIMENSION
  5
196
330
A
100
AcDbEntity
  8
LAY-1
  6
Continuous
 62
     1
100
AcDbDimension
  2
*D14
 10
346.88333
 20
246.0
 30
0.0
 11
321.88333
 21
248.0
 31
0.0
 70
    32
 71
     5
 42
-1.0
  3
STANDARD
100
AcDbAlignedDimension
 13
296.88333
 23
170.7357439999999
 33
0.0
 14
346.88333
 24
170.7357439999999
 34
0.0
100
AcDbRotatedDimension
1001
ACAD
1000
DSTYLE
1002
{
1070
     6
1000
_EX_NORM
1070
     7
1000
_EX_NORM
1070
    41
1040
3.0
1070
    42
1040
1.5
1070
    44
1040
1.5
1070
    73
1070
     0
1070
    74
1070
     0
1070
    75
1070
     1
1070
    76
1070
     0
1070
    77
1070
     1
1070
    78
1070
     8
1070
   140
1040
3.0
1070
   147
1040
0.5
1070
   173
1070
     1
1070
   176
1070
     1
1070
   177
1070
     1
1070
   178
1070
     1
1070
   271
1070
     3
1070
   280
1070
     0
1070
   287
1070
     3
1002
}
  0
DIMENSION
  5
1A1
330
A
100
AcDbEntity
  8
LAY-1
  6
Continuous
 62
     1
100
AcDbDimension
  2
*D15
 10
359.38333
 20
246.0
 30
0.0
 11
353.13333
 21
248.0
 31
0.0
 70
    32
 71
     5
 42
-1.0
  3
STANDARD
100
AcDbAlignedDimension
 13
346.88333
 23
170.7357439999999
 33
0.0
 14
359.38333
 24
204.7357439999999
 34
0.0
100
AcDbRotatedDimension
1001
ACAD
1000
DSTYLE
1002
{
1070
     6
1000
_EX_NORM
1070
     7
1000
_EX_NORM
1070
    41
1040
3.0
1070
    42
1040
1.5
1070
    44
1040
1.5
1070
    73
1070
     0
1070
    74
1070
     0
1070
    75
1070
     1
1070
    76
1070
     0
1070
    77
1070
     1
1070
    78
1070
     8
1070
   140
1040
3.0
1070
   147
1040
0.5
1070
   173
1070
     1
1070
   176
1070
     1
1070
   177
1070
     1
1070
   178
1070
     1
1070
   271
1070
     3
1070
   280
1070
     0
1070
   287
1070
     3
1002
}
  0
DIMENSION
  5
1AD
330
A
100
AcDbEntity
  8
LAY-1
  6
Continuous
 62
     1
100
AcDbDimension
  2
*D16
 10
324.3833299999999
 20
233.4999999999999
 30
0.0
 11
235.6333299999999
 21
235.4999999999999
 31
0.0
 70
    32
 71
     5
 42
-1.0
  3
STANDARD
100
AcDbAlignedDimension
 13
146.88333
 23
185.7357439999999
 33
0.0
 14
324.3833299999999
 24
194.7357439999999
 34
0.0
100
AcDbRotatedDimension
1001
ACAD
1000
DSTYLE
1002
{
1070
     6
1000
_EX_NORM
1070
     7
1000
_EX_NORM
1070
    41
1040
3.0
1070
    42
1040
1.5
1070
    44
1040
1.5
1070
    73
1070
     0
1070
    74
1070
     0
1070
    75
1070
     0
1070
    76
1070
     0
1070
    77
1070
     1
1070
    78
1070
     8
1070
   140
1040
3.0
1070
   147
1040
0.5
1070
   173
1070
     1
1070
   176
1070
     1
1070
   177
1070
     1
1070
   178
1070
     1
1070
   271
1070
     3
1070
   280
1070
     0
1070
   287
1070
     3
1002
}
  0
DIMENSION
  5
1B8
330
A
100
AcDbEntity
  8
LAY-1
  6
Continuous
 62
     1
100
AcDbDimension
  2
*D17
 10
339.38333
 20
233.4999999999999
 30
0.0
 11
331.88333
 21
235.4999999999999
 31
0.0
 70
    32
 71
     5
 42
-1.0
  3
STANDARD
100
AcDbAlignedDimension
 13
324.3833299999999
 23
194.7357439999999
 33
0.0
 14
339.38333
 24
194.7357439999999
 34
0.0
100
AcDbRotatedDimension
1001
ACAD
1000
DSTYLE
1002
{
1070
     6
1000
_EX_NORM
1070
     7
1000
_EX_NORM
1070
    41
1040
3.0
1070
    42
1040
1.5
1070
    44
1040
1.5
1070
    73
1070
     0
1070
    74
1070
     0
1070
    75
1070
     1
1070
    76
1070
     0
1070
    77
1070
     1
1070
    78
1070
     8
1070
   140
1040
3.0
1070
   147
1040
0.5
1070
   173
1070
     1
1070
   176
1070
     1
1070
   177
1070
     1
1070
   178
1070
     1
1070
   271
1070
     3
1070
   280
1070
     0
1070
   287
1070
     3
1002
}
  0
DIMENSION
  5
1C3
330
A
100
AcDbEntity
  8
LAY-1
  6
Continuous
 62
     1
100
AcDbDimension
  2
*D18
 10
354.38333
 20
233.4999999999999
 30
0.0
 11
346.88333
 21
235.4999999999999
 31
0.0
 70
    32
 71
     5
 42
-1.0
  3
STANDARD
100
AcDbAlignedDimension
 13
339.38333
 23
194.7357439999999
 33
0.0
 14
354.38333
 24
194.7357439999999
 34
0.0
100
AcDbRotatedDimension
1001
ACAD
1000
DSTYLE
1002
{
1070
     6
1000
_EX_NORM
1070
     7
1000
_EX_NORM
1070
    41
1040
3.0
1070
    42
1040
1.5
1070
    44
1040
1.5
1070
    73
1070
     0
1070
    74
1070
     0
1070
    75
1070
     1
1070
    76
1070
     0
1070
    77
1070
     1
1070
    78
1070
     8
1070
   140
1040
3.0
1070
   147
1040
0.5
1070
   173
1070
     1
1070
   176
1070
     1
1070
   177
1070
     1
1070
   178
1070
     1
1070
   271
1070
     3
1070
   280
1070
     0
1070
   287
1070
     3
1002
}
  0
DIMENSION
  5
1CC
330
A
100
AcDbEntity
  8
LAY-1
  6
Continuous
 62
     1
100
AcDbDimension
  2
*D19
 10
359.38333
 20
233.4999999999999
 30
0.0
 11
356.88333
 21
235.4999999999999
 31
0.0
 70
    32
 71
     5
 42
-1.0
  3
STANDARD
100
AcDbAlignedDimension
 13
354.38333
 23
194.7357439999999
 33
0.0
 14
359.38333
 24
204.7357439999999
 34
0.0
100
AcDbRotatedDimension
1001
ACAD
1000
DSTYLE
1002
{
1070
     6
1000
_EX_NONE
1070
     7
1000
_EX_NORM
1070
    41
1040
0.0
1070
    42
1040
1.5
1070
    44
1040
1.5
1070
    73
1070
     0
1070
    74
1070
     0
1070
    75
1070
     1
1070
    76
1070
     0
1070
    77
1070
     1
1070
    78
1070
     8
1070
   140
1040
3.0
1070
   147
1040
0.5
1070
   173
1070
     1
1070
   176
1070
     1
1070
   177
1070
     1
1070
   178
1070
     1
1070
   271
1070
     3
1070
   280
1070
     0
1070
   287
1070
     3
1002
}
  0
DIMENSION
  5
1D8
330
A
100
AcDbEntity
  8
LAY-1
  6
Continuous
 62
     1
100
AcDbDimension
  2
*D20
 10
52.5
 20
136.7357439999999
 30
0.0
 11
50.5
 21
170.7357439999999
 31
0.0
 70
    32
 71
     5
 42
-1.0
  3
STANDARD
100
AcDbAlignedDimension
 13
92.09999999999999
 23
204.7357439999999
 33
0.0
 14
92.09999999999999
 24
136.7357439999999
 34
0.0
 50
90.0
100
AcDbRotatedDimension
1001
ACAD
1000
DSTYLE
1002
{
1070
     6
1000
_EX_NORM
1070
     7
1000
_EX_NORM
1070
    41
1040
3.0
1070
    42
1040
1.5
1070
    44
1040
1.5
1070
    73
1070
     0
1070
    74
1070
     0
1070
    75
1070
     0
1070
    76
1070
     0
1070
    77
1070
     1
1070
    78
1070
     8
1070
   140
1040
3.0
1070
   147
1040
0.5
1070
   173
1070
     1
1070
   176
1070
     1
1070
   177
1070
     1
1070
   178
1070
     1
1070
   271
1070
     3
1070
   280
1070
     0
1070
   287
1070
     3
1002
}
  0
DIMENSION
  5
1E2
330
A
100
AcDbEntity
  8
LAY-1
  6
Continuous
 62
     1
100
AcDbDimension
  2
*D21
 10
70.09999999999999
 20
141.7357439999999
 30
0.0
 11
68.09999999999999
 21
139.2357439999997
 31
0.0
 70
    32
 71
     5
 42
-1.0
  3
STANDARD
100
AcDbAlignedDimension
 13
92.09999999999999
 23
136.7357439999999
 33
0.0
 14
97.1
 24
141.7357439999999
 34
0.0
 50
90.0
100
AcDbRotatedDimension
1001
ACAD
1000
DSTYLE
1002
{
1070
     6
1000
_EX_NORM
1070
     7
1000
_EX_NONE
1070
    41
1040
3.0
1070
    42
1040
1.5
1070
    44
1040
1.5
1070
    73
1070
     0
1070
    74
1070
     0
1070
    75
1070
     0
1070
    76
1070
     0
1070
    77
1070
     1
1070
    78
1070
     8
1070
   140
1040
3.0
1070
   147
1040
0.5
1070
   173
1070
     1
1070
   176
1070
     1
1070
   177
1070
     1
1070
   178
1070
     1
1070
   271
1070
     3
1070
   280
1070
     0
1070
   287
1070
     3
1002
}
  0
DIMENSION
  5
1ED
330
A
100
AcDbEntity
  8
LAY-1
  6
Continuous
 62
     1
100
AcDbDimension
  2
*D22
 10
70.09999999999999
 20
160.7357439999999
 30
0.0
 11
68.09999999999999
 21
151.2357439999999
 31
0.0
 70
    32
 71
     5
 42
-1.0
  3
STANDARD
100
AcDbAlignedDimension
 13
97.1
 23
141.7357439999999
 33
0.0
 14
97.1
 24
160.7357439999999
 34
0.0
 50
90.0
100
AcDbRotatedDimension
1001
ACAD
1000
DSTYLE
1002
{
1070
     6
1000
_EX_NORM
1070
     7
1000
_EX_NORM
1070
    41
1040
3.0
1070
    42
1040
1.5
1070
    44
1040
1.5
1070
    73
1070
     0
1070
    74
1070
     0
1070
    75
1070
     1
1070
    76
1070
     0
1070
    77
1070
     1
1070
    78
1070
     8
1070
   140
1040
3.0
1070
   147
1040
0.5
1070
   173
1070
     1
1070
   176
1070
     1
1070
   177
1070
     1
1070
   178
1070
     1
1070
   271
1070
     3
1070
   280
1070
     0
1070
   287
1070
     3
1002
}
  0
DIMENSION
  5
1F8
330
A
100
AcDbEntity
  8
LAY-1
  6
Continuous
 62
     1
100
AcDbDimension
  2
*D23
 10
70.09999999999999
 20
180.7357439999999
 30
0.0
 11
68.09999999999999
 21
170.7357439999999
 31
0.0
 70
    32
 71
     5
 42
-1.0
  3
STANDARD
100
AcDbAlignedDimension
 13
97.1
 23
160.7357439999999
 33
0.0
 14
97.1
 24
180.7357439999999
 34
0.0
 50
90.0
100
AcDbRotatedDimension
1001
ACAD
1000
DSTYLE
1002
{
1070
     6
1000
_EX_NORM
1070
     7
1000
_EX_NORM
1070
    41
1040
3.0
1070
    42
1040
1.5
1070
    44
1040
1.5
1070
    73
1070
     0
1070
    74
1070
     0
1070
    75
1070
     1
1070
    76
1070
     0
1070
    77
1070
     1
1070
    78
1070
     8
1070
   140
1040
3.0
1070
   147
1040
0.5
1070
   173
1070
     1
1070
   176
1070
     1
1070
   177
1070
     1
1070
   178
1070
     1
1070
   271
1070
     3
1070
   280
1070
     0
1070
   287
1070
     3
1002
}
  0
DIMENSION
  5
203
330
A
100
AcDbEntity
  8
LAY-1
  6
Continuous
 62
     1
100
AcDbDimension
  2
*D24
 10
70.09999999999999
 20
199.7357439999999
 30
0.0
 11
68.09999999999999
 21
190.2357439999999
 31
0.0
 70
    32
 71
     5
 42
-1.0
  3
STANDARD
100
AcDbAlignedDimension
 13
97.1
 23
180.7357439999999
 33
0.0
 14
97.1
 24
199.7357439999999
 34
0.0
 50
90.0
100
AcDbRotatedDimension
1001
ACAD
1000
DSTYLE
1002
{
1070
     6
1000
_EX_NORM
1070
     7
1000
_EX_NORM
1070
    41
1040
3.0
1070
    42
1040
1.5
1070
    44
1040
1.5
1070
    73
1070
     0
1070
    74
1070
     0
1070
    75
1070
     1
1070
    76
1070
     0
1070
    77
1070
     1
1070
    78
1070
     8
1070
   140
1040
3.0
1070
   147
1040
0.5
1070
   173
1070
     1
1070
   176
1070
     1
1070
   177
1070
     1
1070
   178
1070
     1
1070
   271
1070
     3
1070
   280
1070
     0
1070
   287
1070
     3
1002
}
  0
DIMENSION
  5
20C
330
A
100
AcDbEntity
  8
LAY-1
  6
Continuous
 62
     1
100
AcDbDimension
  2
*D25
 10
70.09999999999999
 20
204.7357439999999
 30
0.0
 11
68.09999999999999
 21
202.2357439999999
 31
0.0
 70
    32
 71
     5
 42
-1.0
  3
STANDARD
100
AcDbAlignedDimension
 13
97.1
 23
199.7357439999999
 33
0.0
 14
92.09999999999999
 24
204.7357439999999
 34
0.0
 50
90.0
100
AcDbRotatedDimension
1001
ACAD
1000
DSTYLE
1002
{
1070
     6
1000
_EX_NONE
1070
     7
1000
_EX_NORM
1070
    41
1040
0.0
1070
    42
1040
1.5
1070
    44
1040
1.5
1070
    73
1070
     0
1070
    74
1070
     0
1070
    75
1070
     1
1070
    76
1070
     0
1070
    77
1070
     1
1070
    78
1070
     8
1070
   140
1040
3.0
1070
   147
1040
0.5
1070
   173
1070
     1
1070
   176
1070
     1
1070
   177
1070
     1
1070
   178
1070
     1
1070
   271
1070
     3
1070
   280
1070
     0
1070
   287
1070
     3
1002
}
  0
DIMENSION
  5
218
330
A
100
AcDbEntity
  8
LAY-1
  6
Continuous
 62
     1
100
AcDbDimension
  2
*D26
 10
129.6
 20
155.7357439999998
 30
0.0
 11
127.6
 21
146.2357439999999
 31
0.0
 70
    32
 71
     5
 42
-1.0
  3
STANDARD
100
AcDbAlignedDimension
 13
206.88333
 23
136.7357439999999
 33
0.0
 14
146.88333
 24
155.7357439999998
 34
0.0
 50
90.0
100
AcDbRotatedDimension
1001
ACAD
1000
DSTYLE
1002
{
1070
     6
1000
_EX_NORM
1070
     7
1000
_EX_NORM
1070
    41
1040
3.0
1070
    42
1040
1.5
1070
    44
1040
1.5
1070
    73
1070
     0
1070
    74
1070
     0
1070
    75
1070
     0
1070
    76
1070
     0
1070
    77
1070
     1
1070
    78
1070
     8
1070
   140
1040
3.0
1070
   147
1040
0.5
1070
   173
1070
     1
1070
   176
1070
     1
1070
   177
1070
     1
1070
   178
1070
     1
1070
   271
1070
     3
1070
   280
1070
     0
1070
   287
1070
     3
1002
}
  0
DIMENSION
  5
223
330
A
100
AcDbEntity
  8
LAY-1
  6
Continuous
 62
     1
100
AcDbDimension
  2
*D27
 10
129.6
 20
185.7357439999999
 30
0.0
 11
127.6
 21
170.7357439999999
 31
0.0
 70
    32
 71
     5
 42
-1.0
  3
STANDARD
100
AcDbAlignedDimension
 13
146.88333
 23
155.7357439999998
 33
0.0
 14
146.88333
 24
185.7357439999999
 34
0.0
 50
90.0
100
AcDbRotatedDimension
1001
ACAD
1000
DSTYLE
1002
{
1070
     6
1000
_EX_NORM
1070
     7
1000
_EX_NORM
1070
    41
1040
3.0
1070
    42
1040
1.5
1070
    44
1040
1.5
1070
    73
1070
     0
1070
    74
1070
     0
1070
    75
1070
     1
1070
    76
1070
     0
1070
    77
1070
     1
1070
    78
1070
     8
1070
   140
1040
3.0
1070
   147
1040
0.5
1070
   173
1070
     1
1070
   176
1070
     1
1070
   177
1070
     1
1070
   178
1070
     1
1070
   271
1070
     3
1070
   280
1070
     0
1070
   287
1070
     3
1002
}
  0
DIMENSION
  5
22E
330
A
100
AcDbEntity
  8
LAY-1
  6
Continuous
 62
     1
100
AcDbDimension
  2
*D28
 10
129.6
 20
204.7357439999999
 30
0.0
 11
127.6
 21
195.2357439999999
 31
0.0
 70
    32
 71
     5
 42
-1.0
  3
STANDARD
100
AcDbAlignedDimension
 13
146.88333
 23
185.7357439999999
 33
0.0
 14
206.88333
 24
204.7357439999999
 34
0.0
 50
90.0
100
AcDbRotatedDimension
1001
ACAD
1000
DSTYLE
1002
{
1070
     6
1000
_EX_NORM
1070
     7
1000
_EX_NORM
1070
    41
1040
3.0
1070
    42
1040
1.5
1070
    44
1040
1.5
1070
    73
1070
     0
1070
    74
1070
     0
1070
    75
1070
     1
1070
    76
1070
     0
1070
    77
1070
     1
1070
    78
1070
     8
1070
   140
1040
3.0
1070
   147
1040
0.5
1070
   173
1070
     1
1070
   176
1070
     1
1070
   177
1070
     1
1070
   178
1070
     1
1070
   271
1070
     3
1070
   280
1070
     0
1070
   287
1070
     3
1002
}
  0
DIMENSION
  5
23A
330
A
100
AcDbEntity
  8
LAY-1
  6
Continuous
 62
     1
100
AcDbDimension
  2
*D29
 10
374.3999999999998
 20
146.7357439999998
 30
0.0
 11
372.3999999999998
 21
141.7357439999999
 31
0.0
 70
    32
 71
     5
 42
-1.0
  3
STANDARD
100
AcDbAlignedDimension
 13
359.38333
 23
136.7357439999999
 33
0.0
 14
354.38333
 24
146.7357439999998
 34
0.0
 50
90.0
100
AcDbRotatedDimension
1001
ACAD
1000
DSTYLE
1002
{
1070
     6
1000
_EX_NORM
1070
     7
1000
_EX_NORM
1070
    41
1040
3.0
1070
    42
1040
1.5
1070
    44
1040
1.5
1070
    73
1070
     0
1070
    74
1070
     0
1070
    75
1070
     0
1070
    76
1070
     0
1070
    77
1070
     1
1070
    78
1070
     8
1070
   140
1040
3.0
1070
   147
1040
0.5
1070
   173
1070
     1
1070
   176
1070
     1
1070
   177
1070
     1
1070
   178
1070
     1
1070
   271
1070
     3
1070
   280
1070
     0
1070
   287
1070
     3
1002
}
  0
DIMENSION
  5
245
330
A
100
AcDbEntity
  8
LAY-1
  6
Continuous
 62
     1
100
AcDbDimension
  2
*D30
 10
374.3999999999998
 20
194.7357439999999
 30
0.0
 11
372.3999999999998
 21
170.7357439999999
 31
0.0
 70
    32
 71
     5
 42
-1.0
  3
STANDARD
100
AcDbAlignedDimension
 13
354.38333
 23
146.7357439999998
 33
0.0
 14
354.38333
 24
194.7357439999999
 34
0.0
 50
90.0
100
AcDbRotatedDimension
1001
ACAD
1000
DSTYLE
1002
{
1070
     6
1000
_EX_NORM
1070
     7
1000
_EX_NORM
1070
    41
1040
3.0
1070
    42
1040
1.5
1070
    44
1040
1.5
1070
    73
1070
     0
1070
    74
1070
     0
1070
    75
1070
     1
1070
    76
1070
     0
1070
    77
1070
     1
1070
    78
1070
     8
1070
   140
1040
3.0
1070
   147
1040
0.5
1070
   173
1070
     1
1070
   176
1070
     1
1070
   177
1070
     1
1070
   178
1070
     1
1070
   271
1070
     3
1070
   280
1070
     0
1070
   287
1070
     3
1002
}
  0
DIMENSION
  5
250
330
A
100
AcDbEntity
  8
LAY-1
  6
Continuous
 62
     1
100
AcDbDimension
  2
*D31
 10
374.3999999999998
 20
204.7357439999999
 30
0.0
 11
372.3999999999998
 21
199.7357439999999
 31
0.0
 70
    32
 71
     5
 42
-1.0
  3
STANDARD
100
AcDbAlignedDimension
 13
354.38333
 23
194.7357439999999
 33
0.0
 14
359.38333
 24
204.7357439999999
 34
0.0
 50
90.0
100
AcDbRotatedDimension
1001
ACAD
1000
DSTYLE
1002
{
1070
     6
1000
_EX_NORM
1070
     7
1000
_EX_NORM
1070
    41
1040
3.0
1070
    42
1040
1.5
1070
    44
1040
1.5
1070
    73
1070
     0
1070
    74
1070
     0
1070
    75
1070
     1
1070
    76
1070
     0
1070
    77
1070
     1
1070
    78
1070
     8
1070
   140
1040
3.0
1070
   147
1040
0.5
1070
   173
1070
     1
1070
   176
1070
     1
1070
   177
1070
     1
1070
   178
1070
     1
1070
   271
1070
     3
1070
   280
1070
     0
1070
   287
1070
     3
1002
}
  0
DIMENSION
  5
25C
330
A
100
AcDbEntity
  8
LAY-1
  6
Continuous
 62
     1
100
AcDbDimension
  2
*D32
 10
92.09999999999999
 20
246.0999999999999
 30
0.0
 11
108.0999999999999
 21
248.0999999999999
 31
0.0
 70
    32
 71
     5
 42
-1.0
  3
STANDARD
100
AcDbAlignedDimension
 13
102.0999999999999
 23
204.7357439999999
 33
0.0
 14
92.09999999999999
 24
204.7357439999999
 34
0.0
100
AcDbRotatedDimension
1001
ACAD
1000
DSTYLE
1002
{
1070
     6
1000
_EX_NORM
1070
     7
1000
_EX_NORM
1070
    41
1040
3.0
1070
    42
1040
1.5
1070
    44
1040
1.5
1070
    73
1070
     0
1070
    74
1070
     0
1070
    75
1070
     0
1070
    76
1070
     0
1070
    77
1070
     1
1070
    78
1070
     8
1070
   140
1040
3.0
1070
   147
1040
0.5
1070
   173
1070
     1
1070
   176
1070
     1
1070
   177
1070
     1
1070
   178
1070
     1
1070
   271
1070
     3
1070
   280
1070
     1
1070
   287
1070
     3
1002
}
  0
DIMENSION
  5
266
330
A
100
AcDbEntity
  8
LAY-1
  6
Continuous
 62
     1
100
AcDbDimension
  2
*D33
 10
97.1
 20
233.5999999999999
 30
0.0
 11
94.59999999999999
 21
235.5999999999999
 31
0.0
 70
    32
 71
     5
 42
-1.0
  3
STANDARD
100
AcDbAlignedDimension
 13
92.09999999999999
 23
204.7357439999999
 33
0.0
 14
97.1
 24
199.7357439999999
 34
0.0
100
AcDbRotatedDimension
1001
ACAD
1000
DSTYLE
1002
{
1070
     6
1000
_EX_NORM
1070
     7
1000
_EX_NONE
1070
    41
1040
3.0
1070
    42
1040
1.5
1070
    44
1040
1.5
1070
    73
1070
     0
1070
    74
1070
     0
1070
    75
1070
     0
1070
    76
1070
     0
1070
    77
1070
     1
1070
    78
1070
     8
1070
   140
1040
3.0
1070
   147
1040
0.5
1070
   173
1070
     1
1070
   176
1070
     1
1070
   177
1070
     1
1070
   178
1070
     1
1070
   271
1070
     3
1070
   280
1070
     0
1070
   287
1070
     3
1002
}
  0
DIMENSION
  5
271
330
A
100
AcDbEntity
  8
LAY-1
  6
Continuous
 62
     1
100
AcDbDimension
  2
*D34
 10
102.0999999999999
 20
233.5999999999999
 30
0.0
 11
99.6
 21
235.5999999999999
 31
0.0
 70
    32
 71
     5
 42
-1.0
  3
STANDARD
100
AcDbAlignedDimension
 13
97.1
 23
199.7357439999999
 33
0.0
 14
102.0999999999999
 24
204.7357439999999
 34
0.0
100
AcDbRotatedDimension
1001
ACAD
1000
DSTYLE
1002
{
1070
     6
1000
_EX_BCIR
1070
     7
1000
_EX_NORM
1070
    41
1040
1.0
1070
    42
1040
1.5
1070
    44
1040
1.5
1070
    73
1070
     0
1070
    74
1070
     0
1070
    75
1070
     1
1070
    76
1070
     0
1070
    77
1070
     1
1070
    78
1070
     8
1070
   140
1040
3.0
1070
   147
1040
0.5
1070
   173
1070
     1
1070
   176
1070
     1
1070
   177
1070
     1
1070
   178
1070
     1
1070
   271
1070
     3
1070
   280
1070
     0
1070
   287
1070
     3
1002
}
  0
DIMENSION
  5
27D
330
A
100
AcDbEntity
  8
LAY-1
  6
Continuous
 62
     1
100
AcDbDimension
  2
*D35
 10
119.7
 20
98.735744
 30
0.0
 11
117.7
 21
93.735744
 31
0.0
 70
    32
 71
     5
 42
-1.0
  3
STANDARD
100
AcDbAlignedDimension
 13
146.88333
 23
88.735744
 33
0.0
 14
146.88333
 24
98.735744
 34
0.0
 50
90.0
100
AcDbRotatedDimension
1001
ACAD
1000
DSTYLE
1002
{
1070
     6
1000
_EX_NORM
1070
     7
1000
_EX_NORM
1070
    41
1040
3.0
1070
    42
1040
1.5
1070
    44
1040
1.5
1070
    73
1070
     0
1070
    74
1070
     0
1070
    75
1070
     0
1070
    76
1070
     0
1070
    77
1070
     1
1070
    78
1070
     8
1070
   140
1040
3.0
1070
   147
1040
0.5
1070
   173
1070
     1
1070
   176
1070
     1
1070
   177
1070
     1
1070
   178
1070
     1
1070
   271
1070
     3
1070
   280
1070
     0
1070
   287
1070
     3
1002
}
  0
DIMENSION
  5
287
330
A
100
AcDbEntity
  8
LAY-1
  6
Continuous
 62
     1
100
AcDbDimension
  2
*D36
 10
129.6
 20
93.735744
 30
0.0
 11
127.6
 21
91.235744
 31
0.0
 70
    32
 71
     5
 42
-1.0
  3
STANDARD
100
AcDbAlignedDimension
 13
146.88333
 23
88.735744
 33
0.0
 14
146.88333
 24
93.735744
 34
0.0
 50
90.0
100
AcDbRotatedDimension
1001
ACAD
1000
DSTYLE
1002
{
1070
     6
1000
_EX_NORM
1070
     7
1000
_EX_NONE
1070
    41
1040
3.0
1070
    42
1040
1.5
1070
    44
1040
1.5
1070
    73
1070
     0
1070
    74
1070
     0
1070
    75
1070
     0
1070
    76
1070
     0
1070
    77
1070
     1
1070
    78
1070
     8
1070
   140
1040
3.0
1070
   147
1040
0.5
1070
   173
1070
     1
1070
   176
1070
     1
1070
   177
1070
     1
1070
   178
1070
     1
1070
   271
1070
     3
1070
   280
1070
     0
1070
   287
1070
     3
1002
}
  0
DIMENSION
  5
292
330
A
100
AcDbEntity
  8
LAY-1
  6
Continuous
 62
     1
100
AcDbDimension
  2
*D37
 10
129.6
 20
98.735744
 30
0.0
 11
127.6
 21
96.235744
 31
0.0
 70
    32
 71
     5
 42
-1.0
  3
STANDARD
100
AcDbAlignedDimension
 13
146.88333
 23
93.735744
 33
0.0
 14
146.88333
 24
98.735744
 34
0.0
 50
90.0
100
AcDbRotatedDimension
1001
ACAD
1000
DSTYLE
1002
{
1070
     6
1000
_EX_BCIR
1070
     7
1000
_EX_NORM
1070
    41
1040
1.0
1070
    42
1040
1.5
1070
    44
1040
1.5
1070
    73
1070
     0
1070
    74
1070
     0
1070
    75
1070
     1
1070
    76
1070
     0
1070
    77
1070
     1
1070
    78
1070
     8
1070
   140
1040
3.0
1070
   147
1040
0.5
1070
   173
1070
     1
1070
   176
1070
     1
1070
   177
1070
     1
1070
   178
1070
     1
1070
   271
1070
     3
1070
   280
1070
     0
1070
   287
1070
     3
1002
}
  0
TEXT
  5
293
330
A
100
AcDbEntity
  8
LAY-1
  6
Continuous
 62
     1
100
AcDbText
 10
374.152355
 20
218.5746319999999
 30
0.0
 40
3.0
  1
6 - M4
 41
0.8219178082191781
  7
EXCADSTD
 72
     5
 11
386.152355
 21
218.5746319999999
 31
0.0
100
AcDbText
  0
LEADER
  5
294
330
A
100
AcDbEntity
  8
LAY-1
  6
Continuous
 62
     1
100
AcDbLeader
  3
STANDARD
 76
     3
 10
355.699447
 20
196.241678
 30
0.0
 10
368.304709
 20
218.0746319999999
 30
0.0
 10
392.0
 20
218.0746319999999
 30
0.0
1001
ACAD
1000
DSTYLE
1002
{
1070
    41
1040
3.0
1070
     5
1000
_EX_NORM
1070
     6
1000
_EX_NORM
1070
     7
1000
_EX_NORM
1002
}
  0
TEXT
  5
295
330
A
100
AcDbEntity
  8
LAY-1
  6
Continuous
 62
     1
100
AcDbText
 10
42.31975199999999
 20
220.565072
 30
0.0
 40
3.0
  1
2 - M4　12DP
 41
0.8940397350993384
  7
EXCADSTD
 72
     5
 11
69.31975200000001
 21
220.565072
 31
0.0
100
AcDbText
  0
LEADER
  5
296
330
A
100
AcDbEntity
  8
LAY-1
  6
Continuous
 62
     1
100
AcDbLeader
  3
STANDARD
 76
     3
 10
95.71389299999999
 20
182.177517
 30
0.0
 10
73.83950300000002
 20
220.065072
 30
0.0
 10
37.79999999999999
 20
220.065072
 30
0.0
1001
ACAD
1000
DSTYLE
1002
{
1070
    41
1040
3.0
1070
     5
1000
_EX_NORM
1070
     6
1000
_EX_NORM
1070
     7
1000
_EX_NORM
1002
}
  0
TEXT
  5
297
330
A
100
AcDbEntity
  8
LAY-1
  6
Continuous
 62
     1
100
AcDbText
 10
116.9441139999999
 20
117.5241439999999
 30
0.0
 40
3.0
  1
2 - φ5　 8DP
 41
0.8108108108108137
  7
EXCADSTD
 72
     5
 11
140.944114
 21
117.5241439999999
 31
0.0
100
AcDbText
  0
LEADER
  5
298
330
A
100
AcDbEntity
  8
LAY-1
  6
Continuous
 62
     1
100
AcDbLeader
  3
STANDARD
 76
     3
 10
98.58298300000001
 20
139.723094
 30
0.0
 10
111.688229
 20
117.0241439999999
 30
0.0
 10
146.1999999999999
 20
117.0241439999999
 30
0.0
1001
ACAD
1000
DSTYLE
1002
{
1070
    41
1040
3.0
1070
     5
1000
_EX_NORM
1070
     6
1000
_EX_NORM
1070
     7
1000
_EX_NORM
1002
}
  0
MTEXT
  5
2DE
330
A
100
AcDbEntity
  8
LAY-1
  6
Continuous
100
AcDbMText
 10
18.24844106038392
 20
36.87722820785522
 30
0.0
 40
4.0
 41
65.7122
 71
     1
 72
     5
  1
MATERIAL : A5052\P8  REQUIRED
 73
     1
 44
1.0
  0
MTEXT
  5
2E9
330
A
100
AcDbEntity
  8
LAY-1
  6
Continuous
100
AcDbMText
 10
307.618662516276
 20
28.19165621943157
 30
0.0
 40
3.000000000000001
 41
33.33333333333335
 71
     1
 72
     5
  1
PHENIX\PDRAWUNG NO.
 73
     1
 44
1.0
  0
MTEXT
  5
2EA
330
A
100
AcDbEntity
  8
LAY-1
  6
Continuous
100
AcDbMText
 10
307.5476989746093
 20
15.20569486167907
 30
0.0
 40
3.000000000000001
 41
31.89735
 71
     1
 72
     5
  1
DRAWING NO.
 73
     1
 44
1.0
  0
LINE
  5
2EB
330
A
100
AcDbEntity
  8
LAY-1
  6
Continuous
370
   100
100
AcDbLine
 10
405.9999996047682
 20
19.34321724906846
 30
0.0
 11
239.3333329381017
 21
19.34321066187762
 31
0.0
210
0.0
220
0.0
230
-1.0
  0
LINE
  5
2EC
330
A
100
AcDbEntity
  8
LAY-1
  6
Continuous
370
   100
100
AcDbLine
 10
405.9999992095368
 20
29.34321724906846
 30
0.0
 11
239.3333325428704
 21
29.34321066187761
 31
0.0
210
0.0
220
0.0
230
-1.0
  0
LINE
  5
2ED
330
A
100
AcDbEntity
  8
LAY-1
  6
Continuous
370
   100
100
AcDbLine
 10
405.9999988143056
 20
39.34321724906846
 30
0.0
 11
239.3333321476388
 21
39.3432106618776
 31
0.0
210
0.0
220
0.0
230
-1.0
  0
MTEXT
  5
2EE
330
A
100
AcDbEntity
  8
LAY-1
  6
Continuous
100
AcDbMText
 10
260.032251993815
 20
37.90106537686664
 30
0.0
 40
3.333333333333333
 41
13.28988333333334
 71
     1
 72
     5
  1
{\fArial|b1|i1|c0|p34;mm}
 73
     1
 44
1.0
  0
MTEXT
  5
2EF
330
A
100
AcDbEntity
  8
LAY-1
  6
Continuous
100
AcDbMText
 10
256.9995218912759
 20
32.05639404800415
 30
0.0
 40
1.666666666666666
 41
13.28988333333334
 71
     1
 72
     5
  1
{\fArial|b0|i0|c0|p34;MILLIMETERS}
 73
     1
 44
1.0
  0
MTEXT
  5
2F0
330
A
100
AcDbEntity
  8
LAY-1
  6
Continuous
100
AcDbMText
 10
246.0919062296546
 20
28.81076108164469
 30
0.0
 40
3.000000000000001
 41
55.91528214553289
 71
     1
 72
     5
  1
{\fArial|b1|i0|c0|p34;PHENIX TOC IN TSUKUBA\P\fArial|b0|i0|c0|p34;\H0.6667x;Dept. of Physics , Tsukuba Univ.  Japan}
 73
     1
 44
1.0
  0
MTEXT
  5
2F1
330
A
100
AcDbEntity
  8
LAY-1
  6
Continuous
100
AcDbMText
 10
241.6541849772134
 20
17.87218040969849
 30
0.0
 40
2.5
 41
64.49488333333336
 71
     1
 72
     5
  1
{\fArial|b0|i0|c0|p34;JUL 31 2001\P\fArial|b1|i0|c0|p34;\H1.2x;CI \fMS UI Gothic|b1|i0|c0|p17; \fArial|b1|i0|c0|p34;INDUSTRIES, LTD. (JAPAN)}
 73
     1
 44
1.0
  0
LINE
  5
2F2
330
A
100
AcDbEntity
  8
LAY-1
  6
Continuous
370
   100
100
AcDbLine
 10
255.9999988143056
 20
39.34321132059666
 30
0.0
 11
255.999999209537
 21
29.3432113205967
 31
0.0
210
0.0
220
0.0
230
-1.0
  0
LINE
  5
2F3
330
A
100
AcDbEntity
  8
LAY-1
  6
Continuous
370
   100
100
AcDbLine
 10
239.3333321476388
 20
39.34321066187759
 30
0.0
 11
239.3333333333332
 21
9.343210661877613
 31
0.0
210
0.0
220
0.0
230
-1.0
  0
MTEXT
  5
2F4
330
A
100
AcDbEntity
  8
LAY-1
  6
Continuous
100
AcDbMText
 10
241.193758646647
 20
35.87228765832264
 30
0.0
 40
3.333333333333333
 41
13.28987733741945
 71
     1
 72
     5
  1
UNIT
 73
     1
 44
1.0
  0
MTEXT
  5
2F5
330
A
100
AcDbEntity
  8
LAY-1
  6
Continuous
100
AcDbMText
 10
293.9405212402343
 20
35.73448950794221
 30
0.0
 40
3.333333333333333
 41
13.2899
 71
     1
 72
     5
  1
{\fArial|b1|i0|c0|p34;1:1}
 73
     1
 44
1.0
  0
LINE
  5
2F6
330
A
100
AcDbEntity
  8
LAY-1
  6
Continuous
370
   100
100
AcDbLine
 10
272.6666654809722
 20
39.34321197931572
 30
0.0
 11
272.6666658762037
 21
29.34321197931578
 31
0.0
210
0.0
220
0.0
230
-1.0
  0
LINE
  5
2F7
330
A
100
AcDbEntity
  8
LAY-1
  6
Continuous
370
   100
100
AcDbLine
 10
289.3333321476388
 20
39.34321263803481
 30
0.0
 11
289.3333325428703
 21
29.34321263803487
 31
0.0
210
0.0
220
0.0
230
-1.0
  0
MTEXT
  5
2F8
330
A
100
AcDbEntity
  8
LAY-1
  6
Continuous
100
AcDbMText
 10
273.9664103190103
 20
36.16126071161907
 30
0.0
 40
3.333333333333333
 41
16.66666666222933
 71
     1
 72
     5
  1
{\fMS UI Gothic|b0|i0|c0|p17;SCALE}
 73
     1
 44
1.0
  0
LINE
  5
2F9
330
A
100
AcDbEntity
  8
LAY-1
  6
Continuous
370
   100
100
AcDbLine
 10
305.9999988143056
 20
39.34321329675393
 30
0.0
 11
305.9999988143056
 21
9.343206249068483
 31
0.0
210
0.0
220
0.0
230
-1.0
  0
MTEXT
  5
2FA
330
A
100
AcDbEntity
  8
LAY-1
  6
Continuous
100
AcDbMText
 10
312.0488560994465
 20
35.92876870182038
 30
0.0
 40
3.333333333333333
 41
33.33333333333335
 71
     1
 72
     5
  1
TITLE
 73
     1
 44
1.0
  0
MTEXT
  5
2FB
330
A
100
AcDbEntity
  8
LAY-1
  6
Continuous
100
AcDbMText
 10
345.1124215167656
 20
37.33257443541551
 30
0.0
 40
5.000000000000001
 41
56.9572
 71
     1
 72
     5
  1
{\fArial|b1|i0|c0|p34;Base ( free side )}
 73
     1
 44
1.0
  0
MTEXT
  5
2FC
330
A
100
AcDbEntity
  8
LAY-1
  6
Continuous
100
AcDbMText
 10
351.4463577270507
 20
27.28090610848745
 30
0.0
 40
5.000000000000001
 41
46.5857
 71
     1
 72
     5
  1
{\fArial|b1|i0|c0|p34;105-219-004}
 73
     1
 44
1.0
  0
LINE
  5
2FD
330
A
100
AcDbEntity
  8
LAY-1
  6
Continuous
100
AcDbLine
 10
339.333332147639
 20
39.34321329675393
 30
0.0
 11
339.333332147639
 21
9.343206249068483
 31
0.0
210
0.0
220
0.0
230
-1.0
  0
MTEXT
  5
2FE
330
A
100
AcDbEntity
  8
LAY-1
  6
Continuous
100
AcDbMText
 10
361.7699762980143
 20
15.87078430997213
 30
0.0
 40
3.333333333333333
 41
17.9787
 71
     1
 72
     5
  1
017-1
 73
     1
 44
1.0
  0
ENDSEC
  0
SECTION
  2
OBJECTS
  0
DICTIONARY
  5
19
330
0
100
AcDbDictionary
281
     1
  3
ACAD_GROUP
350
1A
  3
ACAD_LAYOUT
350
2A3
  3
ACAD_MLINESTYLE
350
1B
  3
ACAD_PLOTSETTINGS
350
2A4
  3
ACAD_PLOTSTYLENAME
350
2A1
  3
ASE_INDEX_DICTIONARY
350
300
  0
DICTIONARY
  5
1A
102
{ACAD_REACTORS
330
19
102
}
330
19
100
AcDbDictionary
281
     1
  0
DICTIONARY
  5
2A3
102
{ACAD_REACTORS
330
19
102
}
330
19
100
AcDbDictionary
281
     1
  3
Model
350
2A5
  3
ﾚｲｱｳﾄ1
350
2A6
  0
DICTIONARY
  5
1B
102
{ACAD_REACTORS
330
19
102
}
330
19
100
AcDbDictionary
281
     1
  3
STANDARD
350
1C
  0
DICTIONARY
  5
2A4
102
{ACAD_REACTORS
330
19
102
}
330
19
100
AcDbDictionary
281
     1
  0
ACDBDICTIONARYWDFLT
  5
2A1
102
{ACAD_REACTORS
330
19
102
}
330
19
100
AcDbDictionary
281
     1
  3
Normal
350
2A2
100
AcDbDictionaryWithDefault
340
2A2
  0
DICTIONARY
  5
300
102
{ACAD_REACTORS
330
19
102
}
330
19
100
AcDbDictionary
281
     1
  3
ASEBlockHierarchyIndexRecord
350
302
1001
DCO15
1040
1412965112.765
  0
LAYOUT
  5
2A5
102
{ACAD_REACTORS
330
2A3
102
}
330
2A3
100
AcDbPlotSettings
  1

  2
Tektronix Phaser 850DP
  4

  6

 40
0.0
 41
0.0
 42
0.0
 43
0.0
 44
0.0
 45
0.0
 46
0.0
 47
0.0
 48
0.0
 49
0.0
140
0.0
141
0.0
142
1.0
143
1.0
 70
  1712
 72
     0
 73
     0
 74
     0
  7

 75
     0
147
1.0
148
0.0
149
0.0
100
AcDbLayout
  1
Model
 70
     1
 71
     0
 10
0.0
 20
0.0
 11
12.0
 21
9.0
 12
0.0
 22
0.0
 32
0.0
 14
0.0
 24
0.0
 34
0.0
 15
0.0
 25
0.0
 35
0.0
146
0.0
 13
0.0
 23
0.0
 33
0.0
 16
1.0
 26
0.0
 36
0.0
 17
0.0
 27
1.0
 37
0.0
 76
     0
330
A
  0
LAYOUT
  5
2A6
102
{ACAD_REACTORS
330
2A3
102
}
330
2A3
100
AcDbPlotSettings
  1

  2
Tektronix Phaser 850DP
  4

  6

 40
0.0
 41
0.0
 42
0.0
 43
0.0
 44
0.0
 45
0.0
 46
0.0
 47
0.0
 48
0.0
 49
0.0
140
0.0
141
0.0
142
1.0
143
1.0
 70
   688
 72
     0
 73
     0
 74
     5
  7

 75
    16
147
1.0
148
0.0
149
0.0
100
AcDbLayout
  1
ﾚｲｱｳﾄ1
 70
     0
 71
     1
 10
0.0
 20
0.0
 11
12.0
 21
9.0
 12
0.0
 22
0.0
 32
0.0
 14
1.000000000000000E+20
 24
1.000000000000000E+20
 34
1.000000000000000E+20
 15
-1.000000000000000E+20
 25
-1.000000000000000E+20
 35
-1.000000000000000E+20
146
0.0
 13
0.0
 23
0.0
 33
0.0
 16
1.0
 26
0.0
 36
0.0
 17
0.0
 27
1.0
 37
0.0
 76
     0
330
B
  0
MLINESTYLE
  5
1C
102
{ACAD_REACTORS
330
1B
102
}
330
1B
100
AcDbMlineStyle
  2
STANDARD
 70
     0
  3

 62
     0
 51
90.0
 52
90.0
 71
     2
 49
0.5
 62
   256
  6
BYLAYER
 49
-0.5
 62
   256
  6
BYLAYER
  0
ACDBPLACEHOLDER
  5
2A2
102
{ACAD_REACTORS
330
2A1
102
}
330
2A1
  0
XRECORD
  5
302
102
{ACAD_REACTORS
330
300
102
}
330
300
100
AcDbXrecord
280
     1
330
13D
330
13E
330
13F
  0
ENDSEC
  0
EOF
