  0
SECTION
  2
HEADER
  9
$ACADVER
  1
AC1015
  9
$ACADMAINTVER
 70
    10
  9
$DWGCODEPAGE
  3
ANSI_932
  9
$INSBASE
 10
0.0
 20
0.0
 30
0.0
  9
$EXTMIN
 10
8.986679779117366
 20
7.98843433613473
 30
-0.0015258207003583
  9
$EXTMAX
 10
287.2655646450183
 20
201.0021977440946
 30
0.0000000349246037
  9
$LIMMIN
 10
0.0
 20
0.0
  9
$LIMMAX
 10
297.0
 20
210.0
  9
$ORTHOMODE
 70
     0
  9
$REGENMODE
 70
     1
  9
$FILLMODE
 70
     1
  9
$QTEXTMODE
 70
     0
  9
$MIRRTEXT
 70
     1
  9
$LTSCALE
 40
1.0
  9
$ATTMODE
 70
     1
  9
$TEXTSIZE
 40
0.0
  9
$TRACEWID
 40
0.05
  9
$TEXTSTYLE
  7
STANDARD
  9
$CLAYER
  8
LAY-1
  9
$CELTYPE
  6
CONTINUOUS
  9
$CECOLOR
 62
     1
  9
$CELTSCALE
 40
1.0
  9
$DISPSILH
 70
     0
  9
$DIMSCALE
 40
1.0
  9
$DIMASZ
 40
3.0
  9
$DIMEXO
 40
0.0625
  9
$DIMDLI
 40
0.38
  9
$DIMRND
 40
0.0
  9
$DIMDLE
 40
0.0
  9
$DIMEXE
 40
2.0
  9
$DIMTP
 40
0.0
  9
$DIMTM
 40
0.0
  9
$DIMTXT
 40
3.0
  9
$DIMCEN
 40
0.09
  9
$DIMTSZ
 40
0.0
  9
$DIMTOL
 70
     0
  9
$DIMLIM
 70
     0
  9
$DIMTIH
 70
     1
  9
$DIMTOH
 70
     1
  9
$DIMSE1
 70
     0
  9
$DIMSE2
 70
     0
  9
$DIMTAD
 70
     2
  9
$DIMZIN
 70
     0
  9
$DIMBLK
  1
Open30
  9
$DIMASO
 70
     1
  9
$DIMSHO
 70
     1
  9
$DIMPOST
  1

  9
$DIMAPOST
  1

  9
$DIMALT
 70
     0
  9
$DIMALTD
 70
     2
  9
$DIMALTF
 40
25.4
  9
$DIMLFAC
 40
1.0
  9
$DIMTOFL
 70
     0
  9
$DIMTVP
 40
0.0
  9
$DIMTIX
 70
     0
  9
$DIMSOXD
 70
     0
  9
$DIMSAH
 70
     0
  9
$DIMBLK1
  1

  9
$DIMBLK2
  1

  9
$DIMSTYLE
  2
STANDARD
  9
$DIMCLRD
 70
     0
  9
$DIMCLRE
 70
     0
  9
$DIMCLRT
 70
     0
  9
$DIMTFAC
 40
1.0
  9
$DIMGAP
 40
0.09
  9
$DIMJUST
 70
     0
  9
$DIMSD1
 70
     0
  9
$DIMSD2
 70
     0
  9
$DIMTOLJ
 70
     1
  9
$DIMTZIN
 70
     0
  9
$DIMALTZ
 70
     0
  9
$DIMALTTZ
 70
     0
  9
$DIMUPT
 70
     0
  9
$DIMDEC
 70
     1
  9
$DIMTDEC
 70
     1
  9
$DIMALTU
 70
     2
  9
$DIMALTTD
 70
     2
  9
$DIMTXSTY
  7
STANDARD
  9
$DIMAUNIT
 70
     0
  9
$DIMADEC
 70
     0
  9
$DIMALTRND
 40
0.0
  9
$DIMAZIN
 70
     0
  9
$DIMDSEP
 70
    46
  9
$DIMATFIT
 70
     3
  9
$DIMFRAC
 70
     0
  9
$DIMLDRBLK
  1

  9
$DIMLUNIT
 70
     2
  9
$DIMLWD
 70
    -2
  9
$DIMLWE
 70
    -2
  9
$DIMTMOVE
 70
     0
  9
$LUNITS
 70
     2
  9
$LUPREC
 70
     4
  9
$SKETCHINC
 40
0.1
  9
$FILLETRAD
 40
3.0
  9
$AUNITS
 70
     0
  9
$AUPREC
 70
     0
  9
$MENU
  1
acad
  9
$ELEVATION
 40
0.0
  9
$PELEVATION
 40
0.0
  9
$THICKNESS
 40
0.0
  9
$LIMCHECK
 70
     0
  9
$CHAMFERA
 40
0.0
  9
$CHAMFERB
 40
0.0
  9
$CHAMFERC
 40
0.0
  9
$CHAMFERD
 40
0.0
  9
$SKPOLY
 70
     0
  9
$TDCREATE
 40
2452142.420880358
  9
$TDUCREATE
 40
2452142.045880358
  9
$TDUPDATE
 40
2452157.908844213
  9
$TDUUPDATE
 40
2452157.533844212
  9
$TDINDWG
 40
0.0337619329
  9
$TDUSRTIMER
 40
0.0337617593
  9
$USRTIMER
 70
     1
  9
$ANGBASE
 50
0.0
  9
$ANGDIR
 70
     0
  9
$PDMODE
 70
     0
  9
$PDSIZE
 40
0.0
  9
$PLINEWID
 40
0.0
  9
$SPLFRAME
 70
     0
  9
$SPLINETYPE
 70
     6
  9
$SPLINESEGS
 70
     8
  9
$HANDSEED
  5
A65
  9
$SURFTAB1
 70
     6
  9
$SURFTAB2
 70
     6
  9
$SURFTYPE
 70
     6
  9
$SURFU
 70
     6
  9
$SURFV
 70
     6
  9
$UCSBASE
  2

  9
$UCSNAME
  2

  9
$UCSORG
 10
0.0
 20
0.0
 30
0.0
  9
$UCSXDIR
 10
1.0
 20
0.0
 30
0.0
  9
$UCSYDIR
 10
0.0
 20
1.0
 30
0.0
  9
$UCSORTHOREF
  2

  9
$UCSORTHOVIEW
 70
     0
  9
$UCSORGTOP
 10
0.0
 20
0.0
 30
0.0
  9
$UCSORGBOTTOM
 10
0.0
 20
0.0
 30
0.0
  9
$UCSORGLEFT
 10
0.0
 20
0.0
 30
0.0
  9
$UCSORGRIGHT
 10
0.0
 20
0.0
 30
0.0
  9
$UCSORGFRONT
 10
0.0
 20
0.0
 30
0.0
  9
$UCSORGBACK
 10
0.0
 20
0.0
 30
0.0
  9
$PUCSBASE
  2

  9
$PUCSNAME
  2

  9
$PUCSORG
 10
0.0
 20
0.0
 30
0.0
  9
$PUCSXDIR
 10
1.0
 20
0.0
 30
0.0
  9
$PUCSYDIR
 10
0.0
 20
1.0
 30
0.0
  9
$PUCSORTHOREF
  2

  9
$PUCSORTHOVIEW
 70
     0
  9
$PUCSORGTOP
 10
0.0
 20
0.0
 30
0.0
  9
$PUCSORGBOTTOM
 10
0.0
 20
0.0
 30
0.0
  9
$PUCSORGLEFT
 10
0.0
 20
0.0
 30
0.0
  9
$PUCSORGRIGHT
 10
0.0
 20
0.0
 30
0.0
  9
$PUCSORGFRONT
 10
0.0
 20
0.0
 30
0.0
  9
$PUCSORGBACK
 10
0.0
 20
0.0
 30
0.0
  9
$USERI1
 70
     0
  9
$USERI2
 70
     0
  9
$USERI3
 70
     0
  9
$USERI4
 70
     0
  9
$USERI5
 70
     0
  9
$USERR1
 40
0.0
  9
$USERR2
 40
0.0
  9
$USERR3
 40
0.0
  9
$USERR4
 40
0.0
  9
$USERR5
 40
0.0
  9
$WORLDVIEW
 70
     1
  9
$SHADEDGE
 70
     3
  9
$SHADEDIF
 70
    70
  9
$TILEMODE
 70
     1
  9
$MAXACTVP
 70
    16
  9
$PINSBASE
 10
0.0
 20
0.0
 30
0.0
  9
$PLIMCHECK
 70
     0
  9
$PEXTMIN
 10
1.000000000000000E+20
 20
1.000000000000000E+20
 30
1.000000000000000E+20
  9
$PEXTMAX
 10
-1.000000000000000E+20
 20
-1.000000000000000E+20
 30
-1.000000000000000E+20
  9
$PLIMMIN
 10
0.0
 20
0.0
  9
$PLIMMAX
 10
12.0
 20
9.0
  9
$UNITMODE
 70
     0
  9
$VISRETAIN
 70
     0
  9
$PLINEGEN
 70
     1
  9
$PSLTSCALE
 70
     0
  9
$TREEDEPTH
 70
  3020
  9
$CMLSTYLE
  2
STANDARD
  9
$CMLJUST
 70
     0
  9
$CMLSCALE
 40
1.0
  9
$PROXYGRAPHICS
 70
     1
  9
$MEASUREMENT
 70
     0
  9
$CELWEIGHT
370
    -1
  9
$ENDCAPS
280
     0
  9
$JOINSTYLE
280
     0
  9
$LWDISPLAY
290
     0
  9
$INSUNITS
 70
     0
  9
$HYPERLINKBASE
  1

  9
$STYLESHEET
  1

  9
$XEDIT
290
     1
  9
$CEPSNTYPE
380
     0
  9
$PSTYLEMODE
290
     1
  9
$FINGERPRINTGUID
  2
{21AAD2D7-E350-4133-A153-32601436EE8D}
  9
$VERSIONGUID
  2
{98D0A96E-3830-4DC3-898E-00E4091D902F}
  9
$EXTNAMES
290
     1
  9
$PSVPSCALE
 40
0.0
  9
$OLESTARTUP
290
     0
  0
ENDSEC
  0
SECTION
  2
CLASSES
  0
CLASS
  1
LWPOLYLINE
  2
AcDbPolyline
  3
AutoCAD 2000
 90
    32768
280
     0
281
     1
  0
CLASS
  1
IMAGE
  2
AcDbRasterImage
  3
ISM
 90
    32895
280
     0
281
     1
  0
CLASS
  1
OLE2FRAME
  2
AcDbOle2Frame
  3
AutoCAD 2000
 90
    32768
280
     0
281
     1
  0
CLASS
  1
HATCH
  2
AcDbHatch
  3
AutoCAD 2000
 90
    32768
280
     0
281
     1
  0
CLASS
  1
DICTIONARYVAR
  2
AcDbDictionaryVar
  3
AutoCAD 2000
 90
    32768
280
     0
281
     0
  0
CLASS
  1
RASTERVARIABLES
  2
AcDbRasterVariables
  3
ISM
 90
    32768
280
     0
281
     0
  0
CLASS
  1
IMAGEDEF
  2
AcDbRasterImageDef
  3
ISM
 90
    32768
280
     0
281
     0
  0
CLASS
  1
IMAGEDEF_REACTOR
  2
AcDbRasterImageDefReactor
  3
ISM
 90
    32769
280
     0
281
     0
  0
CLASS
  1
IDBUFFER
  2
AcDbIdBuffer
  3
AutoCAD 2000
 90
    32768
280
     0
281
     0
  0
CLASS
  1
SPATIAL_FILTER
  2
AcDbSpatialFilter
  3
AutoCAD 2000
 90
    32768
280
     0
281
     0
  0
CLASS
  1
XRECORD
  2
AcDbXrecord
  3
AutoCAD 2000
 90
    32768
280
     0
281
     0
  0
CLASS
  1
SORTENTSTABLE
  2
AcDbSortentsTable
  3
AutoCAD 2000
 90
    32768
280
     0
281
     0
  0
CLASS
  1
LAYER_INDEX
  2
AcDbLayerIndex
  3
AutoCAD 2000
 90
    32768
280
     0
281
     0
  0
CLASS
  1
SPATIAL_INDEX
  2
AcDbSpatialIndex
  3
AutoCAD 2000
 90
    32768
280
     0
281
     0
  0
CLASS
  1
OBJECT_PTR
  2
CAseDLPNTableRecord
  3
ASE-LPNTableRecord
 90
    32769
280
     0
281
     0
  0
CLASS
  1
LAYOUT
  2
AcDbLayout
  3
AutoCAD 2000
 90
        0
280
     0
281
     0
  0
CLASS
  1
PLOTSETTINGS
  2
AcDbPlotSettings
  3
AutoCAD 2000
 90
    32768
280
     0
281
     0
  0
CLASS
  1
ACDBDICTIONARYWDFLT
  2
AcDbDictionaryWithDefault
  3
AutoCAD 2000
 90
        0
280
     0
281
     0
  0
CLASS
  1
ACDBPLACEHOLDER
  2
AcDbPlaceHolder
  3
AutoCAD 2000
 90
        0
280
     0
281
     0
  0
CLASS
  1
VBA_PROJECT
  2
AcDbVbaProject
  3
acadvba
 90
    32768
280
     0
281
     0
  0
CLASS
  1
WIPEOUT
  2
AcDbWipeout
  3
WipeOut|AutoCAD Express Tool|expresstools@autodesk.com
 90
    32768
280
     0
281
     1
  0
CLASS
  1
WIPEOUTVARIABLES
  2
AcDbWipeoutVariables
  3
WipeOut|AutoCAD Express Tool|expresstools@autodesk.com
 90
    32768
280
     0
281
     0
  0
CLASS
  1
RTEXT
  2
RText
  3
RText|AutoCAD Express Tool|expresstools@autodesk.com
 90
    32768
280
     0
281
     1
  0
CLASS
  1
ARCALIGNEDTEXT
  2
AcDbArcAlignedText
  3
ATEXT|AutoCAD Express Tool|expresstools@autodesk.com
 90
    32768
280
     0
281
     1
  0
ENDSEC
  0
SECTION
  2
TABLES
  0
TABLE
  2
VPORT
  5
7
330
0
100
AcDbSymbolTable
 70
     4
  0
VPORT
  5
A64
330
7
100
AcDbSymbolTableRecord
100
AcDbViewportTableRecord
  2
*Active
 70
     0
 10
0.0
 20
0.0
 11
1.0
 21
1.0
 12
148.1261222120678
 22
104.4953160401146
 13
0.0
 23
0.0
 14
1.0
 24
1.0
 15
0.0
 25
0.0
 16
0.0
 26
0.0
 36
1.0
 17
0.0
 27
0.0
 37
0.0
 40
194.9122594414807
 41
1.768472906403941
 42
50.0
 43
0.0
 44
0.0
 50
0.0
 51
0.0
 71
     0
 72
   100
 73
     1
 74
     1
 75
     0
 76
     0
 77
     0
 78
     0
281
     0
 65
     1
110
0.0
120
0.0
130
0.0
111
1.0
121
0.0
131
0.0
112
0.0
122
1.0
132
0.0
 79
     0
146
0.0
  0
ENDTAB
  0
TABLE
  2
LTYPE
  5
4
330
0
100
AcDbSymbolTable
 70
     5
  0
LTYPE
  5
11
330
4
100
AcDbSymbolTableRecord
100
AcDbLinetypeTableRecord
  2
BYBLOCK
 70
     0
  3

 72
    65
 73
     0
 40
0.0
  0
LTYPE
  5
12
330
4
100
AcDbSymbolTableRecord
100
AcDbLinetypeTableRecord
  2
BYLAYER
 70
     0
  3

 72
    65
 73
     0
 40
0.0
  0
LTYPE
  5
13
330
4
100
AcDbSymbolTableRecord
100
AcDbLinetypeTableRecord
  2
CONTINUOUS
 70
     0
  3
実線
 72
    65
 73
     0
 40
0.0
  0
LTYPE
  5
1D
330
4
100
AcDbSymbolTableRecord
100
AcDbLinetypeTableRecord
  2
DASHED
 70
     0
  3
破線
 72
    65
 73
     2
 40
3.799999999999999
 49
3.0
 74
     0
 49
-0.8
 74
     0
  0
LTYPE
  5
1E
330
4
100
AcDbSymbolTableRecord
100
AcDbLinetypeTableRecord
  2
DOT
 70
     0
  3
点線
 72
    65
 73
     2
 40
2.0
 49
1.0
 74
     0
 49
-1.0
 74
     0
  0
LTYPE
  5
1F
330
4
100
AcDbSymbolTableRecord
100
AcDbLinetypeTableRecord
  2
DASHDOT
 70
     0
  3
一点鎖線
 72
    65
 73
     4
 40
25.6
 49
20.0
 74
     0
 49
-2.0
 74
     0
 49
1.6
 74
     0
 49
-2.0
 74
     0
  0
LTYPE
  5
20
330
4
100
AcDbSymbolTableRecord
100
AcDbLinetypeTableRecord
  2
DIVIDE
 70
     0
  3
二点鎖線
 72
    65
 73
     6
 40
31.2
 49
20.0
 74
     0
 49
-2.399999999999999
 74
     0
 49
2.0
 74
     0
 49
-2.399999999999999
 74
     0
 49
2.0
 74
     0
 49
-2.399999999999999
 74
     0
  0
ENDTAB
  0
TABLE
  2
LAYER
  5
2
330
0
100
AcDbSymbolTable
 70
     3
  0
LAYER
  5
14
330
2
100
AcDbSymbolTableRecord
100
AcDbLayerTableRecord
  2
0
 70
     0
 62
     7
  6
CONTINUOUS
370
    -3
390
1ED
  0
LAYER
  5
25
330
2
100
AcDbSymbolTableRecord
100
AcDbLayerTableRecord
  2
LAY-1
 70
     0
 62
     7
  6
CONTINUOUS
370
    -3
390
1ED
  0
LAYER
  5
22F
330
2
100
AcDbSymbolTableRecord
100
AcDbLayerTableRecord
  2
Defpoints
 70
     0
 62
     7
  6
CONTINUOUS
290
     0
370
    -3
390
1ED
  0
ENDTAB
  0
TABLE
  2
STYLE
  5
3
330
0
100
AcDbSymbolTable
 70
     5
  0
STYLE
  5
17
330
3
100
AcDbSymbolTableRecord
100
AcDbTextStyleTableRecord
  2
STANDARD
 70
     0
 40
0.0
 41
1.0
 50
0.0
 71
     0
 42
0.0
  3
monotxt
  4

  0
STYLE
  5
21
330
3
100
AcDbSymbolTableRecord
100
AcDbTextStyleTableRecord
  2
EXCADSTD
 70
     0
 40
0.0
 41
1.0
 50
0.0
 71
     0
 42
0.2
  3
monotxt
  4
extfont
  0
STYLE
  5
22
330
3
100
AcDbSymbolTableRecord
100
AcDbTextStyleTableRecord
  2
EXCADVERT
 70
     4
 40
0.0
 41
1.0
 50
0.0
 71
     0
 42
0.286885
  3
monotxt
  4
extfont
  0
STYLE
  5
23
330
3
100
AcDbSymbolTableRecord
100
AcDbTextStyleTableRecord
  2
EXCADSTD2
 70
     0
 40
0.0
 41
1.0
 50
0.0
 71
     0
 42
0.2
  3
monotxt
  4
extfont
  0
STYLE
  5
24
330
3
100
AcDbSymbolTableRecord
100
AcDbTextStyleTableRecord
  2
EXCADVERT2
 70
     4
 40
0.0
 41
1.0
 50
0.0
 71
     0
 42
0.286885
  3
monotxt
  4
extfont
  0
ENDTAB
  0
TABLE
  2
VIEW
  5
5
330
0
100
AcDbSymbolTable
 70
     0
  0
ENDTAB
  0
TABLE
  2
UCS
  5
6
330
0
100
AcDbSymbolTable
 70
     0
  0
ENDTAB
  0
TABLE
  2
APPID
  5
8
330
0
100
AcDbSymbolTable
 70
     2
  0
APPID
  5
16
330
8
100
AcDbSymbolTableRecord
100
AcDbRegAppTableRecord
  2
ACAD
 70
     0
  0
APPID
  5
22C
330
8
100
AcDbSymbolTableRecord
100
AcDbRegAppTableRecord
  2
DCO15
 70
     0
  0
ENDTAB
  0
TABLE
  2
DIMSTYLE
  5
9
330
0
100
AcDbSymbolTable
 70
     1
100
AcDbDimStyleTable
 71
     1
340
18
  0
DIMSTYLE
105
18
102
{ACAD_REACTORS
330
E6
330
F2
330
FE
330
10A
330
12C
330
137
330
140
330
14C
330
157
330
162
330
16C
330
177
330
180
330
18C
330
195
330
1A1
330
1AC
330
1B8
330
1C3
330
3F7
330
6C3
330
6D1
330
6DF
330
6ED
330
6FB
330
709
330
717
330
10C
330
10D
330
A47
330
A55
102
}
330
9
100
AcDbSymbolTableRecord
100
AcDbDimStyleTableRecord
  2
STANDARD
 70
     0
 41
3.0
 44
2.0
 77
     2
140
3.0
271
     1
272
     1
340
17
342
4B3
  0
ENDTAB
  0
TABLE
  2
BLOCK_RECORD
  5
1
330
0
100
AcDbSymbolTable
 70
    42
  0
BLOCK_RECORD
  5
A
330
1
100
AcDbSymbolTableRecord
100
AcDbBlockTableRecord
  2
*MODEL_SPACE
340
1F0
  0
BLOCK_RECORD
  5
B
330
1
100
AcDbSymbolTableRecord
100
AcDbBlockTableRecord
  2
*PAPER_SPACE
340
1F1
  0
BLOCK_RECORD
  5
26
330
1
100
AcDbSymbolTableRecord
100
AcDbBlockTableRecord
  2
_EX_NORM
340
0
102
{BLKREFS
331
233
331
234
331
23C
331
23D
331
245
331
246
331
285
331
286
331
28E
331
28F
331
297
331
298
331
2A0
331
2A1
331
2AA
331
2B2
331
2B3
331
2C3
331
2C4
331
2CB
331
2CC
331
2D4
331
2D5
331
2DE
331
2E6
331
2E7
331
2F6
331
2F7
331
307
331
308
331
30F
331
310
331
318
331
319
331
321
331
322
331
333
331
334
331
33C
331
33D
331
345
331
346
331
34D
331
34E
331
356
331
357
331
35F
331
360
331
368
331
369
331
371
331
372
331
37B
331
383
331
384
331
393
331
394
331
39B
331
39C
331
3A4
331
3A5
331
3AE
331
3B6
331
3B7
331
3C6
331
3C7
331
3D7
331
3D8
331
3DF
331
3E0
331
3E8
331
3E9
331
3F1
331
3F2
331
408
331
409
331
411
331
412
331
41A
331
41B
331
423
331
424
331
42D
331
435
331
436
331
445
331
446
331
44D
331
44E
331
456
331
457
331
460
331
468
331
469
331
478
331
479
331
489
331
48A
331
491
331
492
331
49A
331
49B
331
4A3
331
4A4
331
4BC
331
4BD
331
4C5
331
4C6
331
4CE
331
4CF
331
4D7
331
4D8
331
4E1
331
4E9
331
4EA
331
4F9
331
4FA
331
501
331
502
331
50A
331
50B
331
514
331
51C
331
51D
331
52C
331
52D
331
53D
331
53E
331
545
331
546
331
54E
331
54F
331
557
331
558
331
56A
331
56B
331
573
331
574
331
57C
331
57D
331
585
331
586
331
58F
331
597
331
598
331
5A7
331
5A8
331
5AF
331
5B0
331
5B8
331
5B9
331
5C2
331
5CA
331
5CB
331
5DA
331
5DB
331
5EB
331
5EC
331
5F3
331
5F4
331
5FC
331
5FD
331
605
331
606
331
618
331
619
331
621
331
622
331
62A
331
62B
331
633
331
634
331
63D
331
645
331
646
331
655
331
656
331
65D
331
65E
331
666
331
667
331
670
331
678
331
679
331
688
331
689
331
699
331
69A
331
6A1
331
6A2
331
6AA
331
6AB
331
6B3
331
6B4
331
839
331
83A
331
86C
331
86D
331
875
331
876
331
87E
331
87F
331
887
331
888
331
891
331
899
331
89A
331
8A9
331
8AA
331
8B1
331
8B2
331
8BA
331
8BB
331
8C4
331
8CC
331
8CD
331
8DC
331
8DD
331
8EC
331
8ED
331
8F4
331
8F5
331
8FD
331
8FE
331
906
331
907
331
95F
331
960
331
968
331
969
331
971
331
972
331
97A
331
97B
331
984
331
98C
331
98D
331
99C
331
99D
331
9A4
331
9A5
331
9AD
331
9AE
331
9B7
331
9BF
331
9C0
331
9CF
331
9D0
331
9DF
331
9E0
331
9E7
331
9E8
331
9F0
331
9F1
331
9F9
331
9FA
102
}
  0
BLOCK_RECORD
  5
27
330
1
100
AcDbSymbolTableRecord
100
AcDbBlockTableRecord
  2
_EX_BNORM
340
0
  0
BLOCK_RECORD
  5
28
330
1
100
AcDbSymbolTableRecord
100
AcDbBlockTableRecord
  2
_EX_BCIR
340
0
  0
BLOCK_RECORD
  5
29
330
1
100
AcDbSymbolTableRecord
100
AcDbBlockTableRecord
  2
_EX_RCIVIL
340
0
  0
BLOCK_RECORD
  5
2A
330
1
100
AcDbSymbolTableRecord
100
AcDbBlockTableRecord
  2
_EX_SLANT
340
0
  0
BLOCK_RECORD
  5
2B
330
1
100
AcDbSymbolTableRecord
100
AcDbBlockTableRecord
  2
_EX_NONE
340
0
102
{BLKREFS
331
2AB
331
2DF
331
37C
331
3AF
331
42E
331
461
331
4E2
331
515
331
590
331
5C3
331
63E
331
671
331
892
331
8C5
331
985
331
9B8
102
}
  0
BLOCK_RECORD
  5
2C
330
1
100
AcDbSymbolTableRecord
100
AcDbBlockTableRecord
  2
_EX_CIVIL
340
0
  0
BLOCK_RECORD
  5
2D
330
1
100
AcDbSymbolTableRecord
100
AcDbBlockTableRecord
  2
_EX_WCIR
340
0
  0
BLOCK_RECORD
  5
DB
330
1
100
AcDbSymbolTableRecord
100
AcDbBlockTableRecord
  2
*D8
340
0
  0
BLOCK_RECORD
  5
E7
330
1
100
AcDbSymbolTableRecord
100
AcDbBlockTableRecord
  2
*D9
340
0
  0
BLOCK_RECORD
  5
F3
330
1
100
AcDbSymbolTableRecord
100
AcDbBlockTableRecord
  2
*D10
340
0
  0
BLOCK_RECORD
  5
FF
330
1
100
AcDbSymbolTableRecord
100
AcDbBlockTableRecord
  2
*D11
340
0
  0
BLOCK_RECORD
  5
123
330
1
100
AcDbSymbolTableRecord
100
AcDbBlockTableRecord
  2
*D12
340
0
  0
BLOCK_RECORD
  5
12D
330
1
100
AcDbSymbolTableRecord
100
AcDbBlockTableRecord
  2
*D13
340
0
  0
BLOCK_RECORD
  5
138
330
1
100
AcDbSymbolTableRecord
100
AcDbBlockTableRecord
  2
*D14
340
0
  0
BLOCK_RECORD
  5
141
330
1
100
AcDbSymbolTableRecord
100
AcDbBlockTableRecord
  2
*D15
340
0
  0
BLOCK_RECORD
  5
14D
330
1
100
AcDbSymbolTableRecord
100
AcDbBlockTableRecord
  2
*D16
340
0
  0
BLOCK_RECORD
  5
158
330
1
100
AcDbSymbolTableRecord
100
AcDbBlockTableRecord
  2
*D17
340
0
  0
BLOCK_RECORD
  5
163
330
1
100
AcDbSymbolTableRecord
100
AcDbBlockTableRecord
  2
*D18
340
0
  0
BLOCK_RECORD
  5
16D
330
1
100
AcDbSymbolTableRecord
100
AcDbBlockTableRecord
  2
*D19
340
0
  0
BLOCK_RECORD
  5
178
330
1
100
AcDbSymbolTableRecord
100
AcDbBlockTableRecord
  2
*D20
340
0
  0
BLOCK_RECORD
  5
181
330
1
100
AcDbSymbolTableRecord
100
AcDbBlockTableRecord
  2
*D21
340
0
  0
BLOCK_RECORD
  5
18D
330
1
100
AcDbSymbolTableRecord
100
AcDbBlockTableRecord
  2
*D22
340
0
  0
BLOCK_RECORD
  5
196
330
1
100
AcDbSymbolTableRecord
100
AcDbBlockTableRecord
  2
*D23
340
0
  0
BLOCK_RECORD
  5
1A2
330
1
100
AcDbSymbolTableRecord
100
AcDbBlockTableRecord
  2
*D24
340
0
  0
BLOCK_RECORD
  5
1AD
330
1
100
AcDbSymbolTableRecord
100
AcDbBlockTableRecord
  2
*D25
340
0
  0
BLOCK_RECORD
  5
1B9
330
1
100
AcDbSymbolTableRecord
100
AcDbBlockTableRecord
  2
*D26
340
0
  0
BLOCK_RECORD
  5
275
330
1
100
AcDbSymbolTableRecord
100
AcDbBlockTableRecord
  2
*D28
340
0
  0
BLOCK_RECORD
  5
3F8
330
1
100
AcDbSymbolTableRecord
100
AcDbBlockTableRecord
  2
*D29
340
0
  0
BLOCK_RECORD
  5
4B3
330
1
100
AcDbSymbolTableRecord
100
AcDbBlockTableRecord
  2
_Open30
340
0
102
{BLKREFS
331
561
331
562
331
60F
331
610
331
6BD
331
6BE
331
6C9
331
6CA
331
6D7
331
6D8
331
6E5
331
6E6
331
6F3
331
6F4
331
701
331
702
331
70F
331
710
331
71D
331
71E
331
845
331
846
331
853
331
854
331
910
331
911
331
91A
331
91B
331
924
331
925
331
92E
331
92F
331
938
331
939
331
942
331
943
331
94C
331
94D
331
956
331
957
331
A02
331
A03
331
A0B
331
A0C
331
A14
331
A15
331
A1D
331
A1E
331
A26
331
A27
331
A2F
331
A30
331
A38
331
A39
331
A41
331
A42
331
A4D
331
A4E
331
A5B
331
A5C
102
}
  0
BLOCK_RECORD
  5
6C4
330
1
100
AcDbSymbolTableRecord
100
AcDbBlockTableRecord
  2
*D31
340
0
  0
BLOCK_RECORD
  5
6D2
330
1
100
AcDbSymbolTableRecord
100
AcDbBlockTableRecord
  2
*D32
340
0
  0
BLOCK_RECORD
  5
6E0
330
1
100
AcDbSymbolTableRecord
100
AcDbBlockTableRecord
  2
*D33
340
0
  0
BLOCK_RECORD
  5
6EE
330
1
100
AcDbSymbolTableRecord
100
AcDbBlockTableRecord
  2
*D34
340
0
  0
BLOCK_RECORD
  5
6FC
330
1
100
AcDbSymbolTableRecord
100
AcDbBlockTableRecord
  2
*D35
340
0
  0
BLOCK_RECORD
  5
70A
330
1
100
AcDbSymbolTableRecord
100
AcDbBlockTableRecord
  2
*D36
340
0
  0
BLOCK_RECORD
  5
718
330
1
100
AcDbSymbolTableRecord
100
AcDbBlockTableRecord
  2
*D37
340
0
  0
BLOCK_RECORD
  5
840
330
1
100
AcDbSymbolTableRecord
100
AcDbBlockTableRecord
  2
*D38
340
0
  0
BLOCK_RECORD
  5
84E
330
1
100
AcDbSymbolTableRecord
100
AcDbBlockTableRecord
  2
*D39
340
0
  0
BLOCK_RECORD
  5
A48
330
1
100
AcDbSymbolTableRecord
100
AcDbBlockTableRecord
  2
*D40
340
0
  0
BLOCK_RECORD
  5
A56
330
1
100
AcDbSymbolTableRecord
100
AcDbBlockTableRecord
  2
*D41
340
0
  0
ENDTAB
  0
ENDSEC
  0
SECTION
  2
BLOCKS
  0
BLOCK
  5
D
330
A
100
AcDbEntity
  8
0
100
AcDbBlockBegin
  2
*MODEL_SPACE
 70
     0
 10
0.0
 20
0.0
 30
0.0
  3
*MODEL_SPACE
  1

  0
ENDBLK
  5
E
330
A
100
AcDbEntity
  8
0
100
AcDbBlockEnd
  0
BLOCK
  5
F
330
B
100
AcDbEntity
 67
     1
  8
0
100
AcDbBlockBegin
  2
*PAPER_SPACE
 70
     0
 10
0.0
 20
0.0
 30
0.0
  3
*PAPER_SPACE
  1

  0
ENDBLK
  5
10
330
B
100
AcDbEntity
 67
     1
  8
0
100
AcDbBlockEnd
  0
BLOCK
  5
2E
330
26
100
AcDbEntity
  8
0
100
AcDbBlockBegin
  2
_EX_NORM
 70
     0
 10
0.0
 20
0.0
 30
0.0
  3
_EX_NORM
  1

  0
LINE
  5
2F
330
26
100
AcDbEntity
  8
0
  6
Continuous
 62
     0
100
AcDbLine
 10
0.0
 20
0.0
 30
0.0
 11
-1.0
 21
0.0
 31
0.0
  0
LINE
  5
30
330
26
100
AcDbEntity
  8
0
  6
Continuous
 62
     0
100
AcDbLine
 10
0.0
 20
0.0
 30
0.0
 11
-0.9607690000000001
 21
0.27735
 31
0.0
  0
LINE
  5
31
330
26
100
AcDbEntity
  8
0
  6
Continuous
 62
     0
100
AcDbLine
 10
0.0
 20
0.0
 30
0.0
 11
-0.9607690000000001
 21
-0.27735
 31
0.0
  0
ENDBLK
  5
32
330
26
100
AcDbEntity
  8
0
100
AcDbBlockEnd
  0
BLOCK
  5
33
330
27
100
AcDbEntity
  8
0
100
AcDbBlockBegin
  2
_EX_BNORM
 70
     0
 10
0.0
 20
0.0
 30
0.0
  3
_EX_BNORM
  1

  0
LINE
  5
34
330
27
100
AcDbEntity
  8
0
  6
Continuous
 62
     0
100
AcDbLine
 10
0.0
 20
0.0
 30
0.0
 11
-1.0
 21
0.0
 31
0.0
  0
LINE
  5
35
330
27
100
AcDbEntity
  8
0
  6
Continuous
 62
     0
100
AcDbLine
 10
0.0
 20
0.0
 30
0.0
 11
-0.9607690000000001
 21
0.27735
 31
0.0
  0
LINE
  5
36
330
27
100
AcDbEntity
  8
0
  6
Continuous
 62
     0
100
AcDbLine
 10
0.0
 20
0.0
 30
0.0
 11
-0.9607690000000001
 21
-0.27735
 31
0.0
  0
LINE
  5
37
330
27
100
AcDbEntity
  8
0
  6
Continuous
 62
     0
100
AcDbLine
 10
0.0
 20
0.0
 30
0.0
 11
-0.9607690000000001
 21
0.138768
 31
0.0
  0
LINE
  5
38
330
27
100
AcDbEntity
  8
0
  6
Continuous
 62
     0
100
AcDbLine
 10
0.0
 20
0.0
 30
0.0
 11
-0.9607690000000001
 21
-0.138768
 31
0.0
  0
LINE
  5
39
330
27
100
AcDbEntity
  8
0
  6
Continuous
 62
     0
100
AcDbLine
 10
-0.9607690000000001
 20
0.27735
 30
0.0
 11
-0.9607690000000001
 21
-0.27735
 31
0.0
  0
ENDBLK
  5
3A
330
27
100
AcDbEntity
  8
0
100
AcDbBlockEnd
  0
BLOCK
  5
3B
330
28
100
AcDbEntity
  8
0
100
AcDbBlockBegin
  2
_EX_BCIR
 70
     0
 10
0.0
 20
0.0
 30
0.0
  3
_EX_BCIR
  1

  0
LINE
  5
3C
330
28
100
AcDbEntity
  8
0
  6
Continuous
 62
     0
100
AcDbLine
 10
0.0
 20
0.0
 30
0.0
 11
-1.0
 21
0.0
 31
0.0
  0
CIRCLE
  5
3D
330
28
100
AcDbEntity
  8
0
  6
Continuous
 62
     0
100
AcDbCircle
 10
0.0
 20
0.0
 30
0.0
 40
0.5
  0
CIRCLE
  5
3E
330
28
100
AcDbEntity
  8
0
  6
Continuous
 62
     0
100
AcDbCircle
 10
0.0
 20
0.0
 30
0.0
 40
0.25
  0
ENDBLK
  5
3F
330
28
100
AcDbEntity
  8
0
100
AcDbBlockEnd
  0
BLOCK
  5
40
330
29
100
AcDbEntity
  8
0
100
AcDbBlockBegin
  2
_EX_RCIVIL
 70
     0
 10
0.0
 20
0.0
 30
0.0
  3
_EX_RCIVIL
  1

  0
LINE
  5
41
330
29
100
AcDbEntity
  8
0
  6
Continuous
 62
     0
100
AcDbLine
 10
0.0
 20
0.0
 30
0.0
 11
-1.0
 21
0.0
 31
0.0
  0
LINE
  5
42
330
29
100
AcDbEntity
  8
0
  6
Continuous
 62
     0
100
AcDbLine
 10
-1.0
 20
-0.25
 30
0.0
 11
0.0
 21
-0.25
 31
0.0
  0
LINE
  5
43
330
29
100
AcDbEntity
  8
0
  6
Continuous
 62
     0
100
AcDbLine
 10
-1.0
 20
-0.125
 30
0.0
 11
0.0
 21
-0.125
 31
0.0
  0
ENDBLK
  5
44
330
29
100
AcDbEntity
  8
0
100
AcDbBlockEnd
  0
BLOCK
  5
45
330
2A
100
AcDbEntity
  8
0
100
AcDbBlockBegin
  2
_EX_SLANT
 70
     0
 10
0.0
 20
0.0
 30
0.0
  3
_EX_SLANT
  1

  0
LINE
  5
46
330
2A
100
AcDbEntity
  8
0
  6
Continuous
 62
     0
100
AcDbLine
 10
0.0
 20
0.0
 30
0.0
 11
-1.0
 21
0.0
 31
0.0
  0
LINE
  5
47
330
2A
100
AcDbEntity
  8
0
  6
Continuous
 62
     0
100
AcDbLine
 10
0.7071069999999999
 20
0.7071069999999999
 30
0.0
 11
-0.7071069999999999
 21
-0.7071069999999999
 31
0.0
  0
ENDBLK
  5
48
330
2A
100
AcDbEntity
  8
0
100
AcDbBlockEnd
  0
BLOCK
  5
49
330
2B
100
AcDbEntity
  8
0
100
AcDbBlockBegin
  2
_EX_NONE
 70
     0
 10
0.0
 20
0.0
 30
0.0
  3
_EX_NONE
  1

  0
LINE
  5
4A
330
2B
100
AcDbEntity
  8
0
  6
Continuous
 62
     0
100
AcDbLine
 10
0.0
 20
0.0
 30
0.0
 11
-1.0
 21
0.0
 31
0.0
  0
ENDBLK
  5
4B
330
2B
100
AcDbEntity
  8
0
100
AcDbBlockEnd
  0
BLOCK
  5
4C
330
2C
100
AcDbEntity
  8
0
100
AcDbBlockBegin
  2
_EX_CIVIL
 70
     0
 10
0.0
 20
0.0
 30
0.0
  3
_EX_CIVIL
  1

  0
LINE
  5
4D
330
2C
100
AcDbEntity
  8
0
  6
Continuous
 62
     0
100
AcDbLine
 10
0.0
 20
0.0
 30
0.0
 11
-1.0
 21
0.0
 31
0.0
  0
LINE
  5
4E
330
2C
100
AcDbEntity
  8
0
  6
Continuous
 62
     0
100
AcDbLine
 10
-1.0
 20
0.25
 30
0.0
 11
0.0
 21
0.25
 31
0.0
  0
LINE
  5
4F
330
2C
100
AcDbEntity
  8
0
  6
Continuous
 62
     0
100
AcDbLine
 10
-1.0
 20
0.125
 30
0.0
 11
0.0
 21
0.125
 31
0.0
  0
ENDBLK
  5
50
330
2C
100
AcDbEntity
  8
0
100
AcDbBlockEnd
  0
BLOCK
  5
51
330
2D
100
AcDbEntity
  8
0
100
AcDbBlockBegin
  2
_EX_WCIR
 70
     0
 10
0.0
 20
0.0
 30
0.0
  3
_EX_WCIR
  1

  0
LINE
  5
52
330
2D
100
AcDbEntity
  8
0
  6
Continuous
 62
     0
100
AcDbLine
 10
0.0
 20
0.0
 30
0.0
 11
-1.0
 21
0.0
 31
0.0
  0
CIRCLE
  5
53
330
2D
100
AcDbEntity
  8
0
  6
Continuous
 62
     0
100
AcDbCircle
 10
0.0
 20
0.0
 30
0.0
 40
0.5
  0
ENDBLK
  5
54
330
2D
100
AcDbEntity
  8
0
100
AcDbBlockEnd
  0
BLOCK
  5
DC
330
DB
100
AcDbEntity
  8
0
100
AcDbBlockBegin
  2
*D8
 70
     1
 10
0.0
 20
0.0
 30
0.0
  3
*D8
  1

  0
LINE
  5
95C
330
DB
100
AcDbEntity
  8
LAY-1
  6
Continuous
 62
     1
370
    -2
100
AcDbLine
 10
216.1999999999999
 20
171.4
 30
0.0
 11
216.1999999999999
 21
194.1999999999999
 31
0.0
  0
LINE
  5
95D
330
DB
100
AcDbEntity
  8
LAY-1
  6
Continuous
 62
     1
370
    -2
100
AcDbLine
 10
187.9499999999999
 20
171.4
 30
0.0
 11
187.9499999999999
 21
194.1999999999999
 31
0.0
  0
LINE
  5
95E
330
DB
100
AcDbEntity
  8
LAY-1
  6
Continuous
 62
     1
370
    -2
100
AcDbLine
 10
213.2
 20
192.6999999999999
 30
0.0
 11
190.9499999999999
 21
192.6999999999999
 31
0.0
  0
INSERT
  5
95F
330
DB
100
AcDbEntity
  8
LAY-1
  6
Continuous
 62
     1
370
    -2
100
AcDbBlockReference
  2
_EX_NORM
 10
216.1999999999999
 20
192.6999999999999
 30
0.0
 41
3.0
 42
3.0
 43
3.0
  0
INSERT
  5
960
330
DB
100
AcDbEntity
  8
LAY-1
  6
Continuous
 62
     1
370
    -2
100
AcDbBlockReference
  2
_EX_NORM
 10
187.9499999999999
 20
192.6999999999999
 30
0.0
 41
3.0
 42
3.0
 43
3.0
 50
180.0
  0
MTEXT
  5
961
330
DB
100
AcDbEntity
  8
LAY-1
  6
Continuous
 62
     1
100
AcDbMText
 10
202.075
 20
194.6999999999999
 30
0.0
 40
3.0
 41
0.0
 71
     5
 72
     1
  1
\A1;28.25
 73
     1
 44
1.0
  0
POINT
  5
962
330
DB
100
AcDbEntity
  8
Defpoints
  6
Continuous
 62
     0
100
AcDbPoint
 10
216.1999999999999
 20
169.9
 30
0.0
  0
POINT
  5
963
330
DB
100
AcDbEntity
  8
Defpoints
  6
Continuous
 62
     0
100
AcDbPoint
 10
187.9499999999999
 20
169.9
 30
0.0
  0
POINT
  5
964
330
DB
100
AcDbEntity
  8
Defpoints
  6
Continuous
 62
     0
100
AcDbPoint
 10
187.9499999999999
 20
192.6999999999999
 30
0.0
  0
ENDBLK
  5
E5
330
DB
100
AcDbEntity
  8
0
100
AcDbBlockEnd
  0
BLOCK
  5
E8
330
E7
100
AcDbEntity
  8
0
100
AcDbBlockBegin
  2
*D9
 70
     1
 10
0.0
 20
0.0
 30
0.0
  3
*D9
  1

  0
LINE
  5
965
330
E7
100
AcDbEntity
  8
LAY-1
  6
Continuous
 62
     1
370
    -2
100
AcDbLine
 10
142.0
 20
171.4
 30
0.0
 11
142.0
 21
194.1999999999999
 31
0.0
  0
LINE
  5
966
330
E7
100
AcDbEntity
  8
LAY-1
  6
Continuous
 62
     1
370
    -2
100
AcDbLine
 10
72.0
 20
171.4
 30
0.0
 11
72.0
 21
194.1999999999999
 31
0.0
  0
LINE
  5
967
330
E7
100
AcDbEntity
  8
LAY-1
  6
Continuous
 62
     1
370
    -2
100
AcDbLine
 10
139.0
 20
192.6999999999999
 30
0.0
 11
75.0
 21
192.6999999999999
 31
0.0
  0
INSERT
  5
968
330
E7
100
AcDbEntity
  8
LAY-1
  6
Continuous
 62
     1
370
    -2
100
AcDbBlockReference
  2
_EX_NORM
 10
142.0
 20
192.6999999999999
 30
0.0
 41
3.0
 42
3.0
 43
3.0
  0
INSERT
  5
969
330
E7
100
AcDbEntity
  8
LAY-1
  6
Continuous
 62
     1
370
    -2
100
AcDbBlockReference
  2
_EX_NORM
 10
72.0
 20
192.6999999999999
 30
0.0
 41
3.0
 42
3.0
 43
3.0
 50
180.0
  0
MTEXT
  5
96A
330
E7
100
AcDbEntity
  8
LAY-1
  6
Continuous
 62
     1
100
AcDbMText
 10
107.0
 20
194.6999999999999
 30
0.0
 40
3.0
 41
0.0
 71
     5
 72
     1
  1
\A1;70
 73
     1
 44
1.0
  0
POINT
  5
96B
330
E7
100
AcDbEntity
  8
Defpoints
  6
Continuous
 62
     0
100
AcDbPoint
 10
142.0
 20
169.9
 30
0.0
  0
POINT
  5
96C
330
E7
100
AcDbEntity
  8
Defpoints
  6
Continuous
 62
     0
100
AcDbPoint
 10
72.0
 20
169.9
 30
0.0
  0
POINT
  5
96D
330
E7
100
AcDbEntity
  8
Defpoints
  6
Continuous
 62
     0
100
AcDbPoint
 10
72.0
 20
192.6999999999999
 30
0.0
  0
ENDBLK
  5
F1
330
E7
100
AcDbEntity
  8
0
100
AcDbBlockEnd
  0
BLOCK
  5
F4
330
F3
100
AcDbEntity
  8
0
100
AcDbBlockBegin
  2
*D10
 70
     1
 10
0.0
 20
0.0
 30
0.0
  3
*D10
  1

  0
LINE
  5
96E
330
F3
100
AcDbEntity
  8
LAY-1
  6
Continuous
 62
     1
370
    -2
100
AcDbLine
 10
70.5
 20
169.9
 30
0.0
 11
42.1
 21
169.9
 31
0.0
  0
LINE
  5
96F
330
F3
100
AcDbEntity
  8
LAY-1
  6
Continuous
 62
     1
370
    -2
100
AcDbLine
 10
70.5
 20
119.9
 30
0.0
 11
42.09999999999999
 21
119.9
 31
0.0
  0
LINE
  5
970
330
F3
100
AcDbEntity
  8
LAY-1
  6
Continuous
 62
     1
370
    -2
100
AcDbLine
 10
43.60000000000001
 20
166.9
 30
0.0
 11
43.6
 21
122.9
 31
0.0
  0
INSERT
  5
971
330
F3
100
AcDbEntity
  8
LAY-1
  6
Continuous
 62
     1
370
    -2
100
AcDbBlockReference
  2
_EX_NORM
 10
43.60000000000001
 20
169.9
 30
0.0
 41
3.0
 42
3.0
 43
3.0
 50
90.0
  0
INSERT
  5
972
330
F3
100
AcDbEntity
  8
LAY-1
  6
Continuous
 62
     1
370
    -2
100
AcDbBlockReference
  2
_EX_NORM
 10
43.6
 20
119.9
 30
0.0
 41
3.0
 42
3.0
 43
3.0
 50
270.0
  0
MTEXT
  5
973
330
F3
100
AcDbEntity
  8
LAY-1
  6
Continuous
 62
     1
100
AcDbMText
 10
41.59999999999998
 20
144.9
 30
0.0
 40
3.0
 41
0.0
 71
     5
 72
     1
  1
\A1;50
 11
0.0000000000000001
 21
1.0
 31
0.0
 73
     1
 44
1.0
  0
POINT
  5
974
330
F3
100
AcDbEntity
  8
Defpoints
  6
Continuous
 62
     0
100
AcDbPoint
 10
72.0
 20
169.9
 30
0.0
  0
POINT
  5
975
330
F3
100
AcDbEntity
  8
Defpoints
  6
Continuous
 62
     0
100
AcDbPoint
 10
72.0
 20
119.9
 30
0.0
  0
POINT
  5
976
330
F3
100
AcDbEntity
  8
Defpoints
  6
Continuous
 62
     0
100
AcDbPoint
 10
43.6
 20
119.9
 30
0.0
  0
ENDBLK
  5
FD
330
F3
100
AcDbEntity
  8
0
100
AcDbBlockEnd
  0
BLOCK
  5
100
330
FF
100
AcDbEntity
  8
0
100
AcDbBlockBegin
  2
*D11
 70
     1
 10
0.0
 20
0.0
 30
0.0
  3
*D11
  1

  0
LINE
  5
977
330
FF
100
AcDbEntity
  8
LAY-1
  6
Continuous
 62
     1
370
    -2
100
AcDbLine
 10
70.5
 20
73.97358529233947
 30
0.0
 11
41.7
 21
73.97358529233947
 31
0.0
  0
LINE
  5
978
330
FF
100
AcDbEntity
  8
LAY-1
  6
Continuous
 62
     1
370
    -2
100
AcDbLine
 10
70.5
 20
45.72358529233947
 30
0.0
 11
41.7
 21
45.72358529233948
 31
0.0
  0
LINE
  5
979
330
FF
100
AcDbEntity
  8
LAY-1
  6
Continuous
 62
     1
370
    -2
100
AcDbLine
 10
43.20000000000001
 20
70.97358529233948
 30
0.0
 11
43.20000000000001
 21
48.72358529233949
 31
0.0
  0
INSERT
  5
97A
330
FF
100
AcDbEntity
  8
LAY-1
  6
Continuous
 62
     1
370
    -2
100
AcDbBlockReference
  2
_EX_NORM
 10
43.20000000000001
 20
73.97358529233947
 30
0.0
 41
3.0
 42
3.0
 43
3.0
 50
90.0
  0
INSERT
  5
97B
330
FF
100
AcDbEntity
  8
LAY-1
  6
Continuous
 62
     1
370
    -2
100
AcDbBlockReference
  2
_EX_NORM
 10
43.2
 20
45.72358529233948
 30
0.0
 41
3.0
 42
3.0
 43
3.0
 50
270.0
  0
MTEXT
  5
97C
330
FF
100
AcDbEntity
  8
LAY-1
  6
Continuous
 62
     1
100
AcDbMText
 10
41.2
 20
59.8485852923395
 30
0.0
 40
3.0
 41
0.0
 71
     5
 72
     1
  1
\A1;28.25
 11
0.0000000000000001
 21
1.0
 31
0.0
 73
     1
 44
1.0
  0
POINT
  5
97D
330
FF
100
AcDbEntity
  8
Defpoints
  6
Continuous
 62
     0
100
AcDbPoint
 10
72.0
 20
73.97358529233947
 30
0.0
  0
POINT
  5
97E
330
FF
100
AcDbEntity
  8
Defpoints
  6
Continuous
 62
     0
100
AcDbPoint
 10
72.0
 20
45.72358529233947
 30
0.0
  0
POINT
  5
97F
330
FF
100
AcDbEntity
  8
Defpoints
  6
Continuous
 62
     0
100
AcDbPoint
 10
43.2
 20
45.72358529233948
 30
0.0
  0
ENDBLK
  5
109
330
FF
100
AcDbEntity
  8
0
100
AcDbBlockEnd
  0
BLOCK
  5
124
330
123
100
AcDbEntity
  8
0
100
AcDbBlockBegin
  2
*D12
 70
     1
 10
0.0
 20
0.0
 30
0.0
  3
*D12
  1

  0
LINE
  5
980
330
123
100
AcDbEntity
  8
LAY-1
  6
Continuous
 62
     1
370
    -2
100
AcDbLine
 10
72.0
 20
171.4
 30
0.0
 11
72.0
 21
187.1999999999999
 31
0.0
  0
LINE
  5
981
330
123
100
AcDbEntity
  8
LAY-1
  6
Continuous
 62
     1
370
    -2
100
AcDbLine
 10
77.5
 20
164.4
 30
0.0
 11
77.5
 21
187.1999999999999
 31
0.0
  0
LINE
  5
982
330
123
100
AcDbEntity
  8
LAY-1
  6
Continuous
 62
     1
370
    -2
100
AcDbLine
 10
69.0
 20
185.7
 30
0.0
 11
66.0
 21
185.7
 31
0.0
  0
LINE
  5
983
330
123
100
AcDbEntity
  8
LAY-1
  6
Continuous
 62
     1
370
    -2
100
AcDbLine
 10
80.5
 20
185.7
 30
0.0
 11
92.5
 21
185.7
 31
0.0
  0
INSERT
  5
984
330
123
100
AcDbEntity
  8
LAY-1
  6
Continuous
 62
     1
370
    -2
100
AcDbBlockReference
  2
_EX_NORM
 10
72.0
 20
185.7
 30
0.0
 41
3.0
 42
3.0
 43
3.0
  0
INSERT
  5
985
330
123
100
AcDbEntity
  8
LAY-1
  6
Continuous
 62
     1
370
    -2
100
AcDbBlockReference
  2
_EX_NONE
 10
77.5
 20
185.7
 30
0.0
 41
3.0
 42
3.0
 43
3.0
 50
180.0
  0
MTEXT
  5
986
330
123
100
AcDbEntity
  8
LAY-1
  6
Continuous
 62
     1
100
AcDbMText
 10
88.0
 20
187.6999999999999
 30
0.0
 40
3.0
 41
0.0
 71
     5
 72
     1
  1
\A1;5.5
 73
     1
 44
1.0
  0
POINT
  5
987
330
123
100
AcDbEntity
  8
Defpoints
  6
Continuous
 62
     0
100
AcDbPoint
 10
72.0
 20
169.9
 30
0.0
  0
POINT
  5
988
330
123
100
AcDbEntity
  8
Defpoints
  6
Continuous
 62
     0
100
AcDbPoint
 10
77.5
 20
162.9
 30
0.0
  0
POINT
  5
989
330
123
100
AcDbEntity
  8
Defpoints
  6
Continuous
 62
     0
100
AcDbPoint
 10
77.5
 20
185.7
 30
0.0
  0
ENDBLK
  5
12B
330
123
100
AcDbEntity
  8
0
100
AcDbBlockEnd
  0
BLOCK
  5
12E
330
12D
100
AcDbEntity
  8
0
100
AcDbBlockBegin
  2
*D13
 70
     1
 10
0.0
 20
0.0
 30
0.0
  3
*D13
  1

  0
LINE
  5
98A
330
12D
100
AcDbEntity
  8
LAY-1
  6
Continuous
 62
     1
370
    -2
100
AcDbLine
 10
136.4999999999999
 20
164.4
 30
0.0
 11
136.4999999999999
 21
187.1999999999999
 31
0.0
  0
LINE
  5
98B
330
12D
100
AcDbEntity
  8
LAY-1
  6
Continuous
 62
     1
370
    -2
100
AcDbLine
 10
80.5
 20
185.7
 30
0.0
 11
133.4999999999999
 21
185.7
 31
0.0
  0
INSERT
  5
98C
330
12D
100
AcDbEntity
  8
LAY-1
  6
Continuous
 62
     1
370
    -2
100
AcDbBlockReference
  2
_EX_NORM
 10
77.5
 20
185.7
 30
0.0
 41
3.0
 42
3.0
 43
3.0
 50
180.0
  0
INSERT
  5
98D
330
12D
100
AcDbEntity
  8
LAY-1
  6
Continuous
 62
     1
370
    -2
100
AcDbBlockReference
  2
_EX_NORM
 10
136.4999999999999
 20
185.7
 30
0.0
 41
3.0
 42
3.0
 43
3.0
  0
MTEXT
  5
98E
330
12D
100
AcDbEntity
  8
LAY-1
  6
Continuous
 62
     1
100
AcDbMText
 10
107.0
 20
187.6999999999999
 30
0.0
 40
3.0
 41
0.0
 71
     5
 72
     1
  1
\A1;59
 73
     1
 44
1.0
  0
POINT
  5
98F
330
12D
100
AcDbEntity
  8
Defpoints
  6
Continuous
 62
     0
100
AcDbPoint
 10
77.5
 20
162.9
 30
0.0
  0
POINT
  5
990
330
12D
100
AcDbEntity
  8
Defpoints
  6
Continuous
 62
     0
100
AcDbPoint
 10
136.4999999999999
 20
162.9
 30
0.0
  0
POINT
  5
991
330
12D
100
AcDbEntity
  8
Defpoints
  6
Continuous
 62
     0
100
AcDbPoint
 10
136.4999999999999
 20
185.7
 30
0.0
  0
ENDBLK
  5
136
330
12D
100
AcDbEntity
  8
0
100
AcDbBlockEnd
  0
BLOCK
  5
139
330
138
100
AcDbEntity
  8
0
100
AcDbBlockBegin
  2
*D14
 70
     1
 10
0.0
 20
0.0
 30
0.0
  3
*D14
  1

  0
LINE
  5
992
330
138
100
AcDbEntity
  8
LAY-1
  6
Continuous
 62
     1
370
    -2
100
AcDbLine
 10
142.0
 20
171.4
 30
0.0
 11
142.0
 21
187.1999999999999
 31
0.0
  0
LINE
  5
993
330
138
100
AcDbEntity
  8
LAY-1
  6
Continuous
 62
     1
370
    -2
100
AcDbLine
 10
136.4999999999999
 20
185.7
 30
0.0
 11
142.0
 21
185.7
 31
0.0
  0
LINE
  5
994
330
138
100
AcDbEntity
  8
LAY-1
  6
Continuous
 62
     1
370
    -2
100
AcDbLine
 10
142.0
 20
185.7
 30
0.0
 11
151.0
 21
185.7
 31
0.0
  0
MTEXT
  5
995
330
138
100
AcDbEntity
  8
LAY-1
  6
Continuous
 62
     1
100
AcDbMText
 10
146.5
 20
187.6999999999999
 30
0.0
 40
3.0
 41
0.0
 71
     5
 72
     1
  1
\A1;5.5
 73
     1
 44
1.0
  0
POINT
  5
996
330
138
100
AcDbEntity
  8
Defpoints
  6
Continuous
 62
     0
100
AcDbPoint
 10
136.4999999999999
 20
162.9
 30
0.0
  0
POINT
  5
997
330
138
100
AcDbEntity
  8
Defpoints
  6
Continuous
 62
     0
100
AcDbPoint
 10
142.0
 20
169.9
 30
0.0
  0
POINT
  5
998
330
138
100
AcDbEntity
  8
Defpoints
  6
Continuous
 62
     0
100
AcDbPoint
 10
142.0
 20
185.7
 30
0.0
  0
ENDBLK
  5
13F
330
138
100
AcDbEntity
  8
0
100
AcDbBlockEnd
  0
BLOCK
  5
142
330
141
100
AcDbEntity
  8
0
100
AcDbBlockBegin
  2
*D15
 70
     1
 10
0.0
 20
0.0
 30
0.0
  3
*D15
  1

  0
LINE
  5
999
330
141
100
AcDbEntity
  8
LAY-1
  6
Continuous
 62
     1
370
    -2
100
AcDbLine
 10
72.0
 20
171.4
 30
0.0
 11
72.0
 21
179.3270596414247
 31
0.0
  0
LINE
  5
99A
330
141
100
AcDbEntity
  8
LAY-1
  6
Continuous
 62
     1
370
    -2
100
AcDbLine
 10
83.003938
 20
171.4
 30
0.0
 11
83.003938
 21
179.3270596414247
 31
0.0
  0
LINE
  5
99B
330
141
100
AcDbEntity
  8
LAY-1
  6
Continuous
 62
     1
370
    -2
100
AcDbLine
 10
75.0
 20
177.8270596414247
 30
0.0
 11
80.00393800000001
 21
177.8270596414247
 31
0.0
  0
INSERT
  5
99C
330
141
100
AcDbEntity
  8
LAY-1
  6
Continuous
 62
     1
370
    -2
100
AcDbBlockReference
  2
_EX_NORM
 10
72.0
 20
177.8270596414247
 30
0.0
 41
3.0
 42
3.0
 43
3.0
 50
180.0
  0
INSERT
  5
99D
330
141
100
AcDbEntity
  8
LAY-1
  6
Continuous
 62
     1
370
    -2
100
AcDbBlockReference
  2
_EX_NORM
 10
83.003938
 20
177.8270596414247
 30
0.0
 41
3.0
 42
3.0
 43
3.0
  0
MTEXT
  5
99E
330
141
100
AcDbEntity
  8
LAY-1
  6
Continuous
 62
     1
100
AcDbMText
 10
77.501969
 20
179.8270596414247
 30
0.0
 40
3.0
 41
0.0
 71
     5
 72
     1
  1
\A1;11.004
 73
     1
 44
1.0
  0
POINT
  5
99F
330
141
100
AcDbEntity
  8
Defpoints
  6
Continuous
 62
     0
100
AcDbPoint
 10
72.0
 20
169.9
 30
0.0
  0
POINT
  5
9A0
330
141
100
AcDbEntity
  8
Defpoints
  6
Continuous
 62
     0
100
AcDbPoint
 10
83.003938
 20
169.9
 30
0.0
  0
POINT
  5
9A1
330
141
100
AcDbEntity
  8
Defpoints
  6
Continuous
 62
     0
100
AcDbPoint
 10
83.003938
 20
177.8270596414247
 30
0.0
  0
ENDBLK
  5
14B
330
141
100
AcDbEntity
  8
0
100
AcDbBlockEnd
  0
BLOCK
  5
14E
330
14D
100
AcDbEntity
  8
0
100
AcDbBlockBegin
  2
*D16
 70
     1
 10
0.0
 20
0.0
 30
0.0
  3
*D16
  1

  0
LINE
  5
9A2
330
14D
100
AcDbEntity
  8
LAY-1
  6
Continuous
 62
     1
370
    -2
100
AcDbLine
 10
130.996062
 20
171.4
 30
0.0
 11
130.996062
 21
179.3270596414247
 31
0.0
  0
LINE
  5
9A3
330
14D
100
AcDbEntity
  8
LAY-1
  6
Continuous
 62
     1
370
    -2
100
AcDbLine
 10
86.003938
 20
177.8270596414247
 30
0.0
 11
127.996062
 21
177.8270596414247
 31
0.0
  0
INSERT
  5
9A4
330
14D
100
AcDbEntity
  8
LAY-1
  6
Continuous
 62
     1
370
    -2
100
AcDbBlockReference
  2
_EX_NORM
 10
83.003938
 20
177.8270596414247
 30
0.0
 41
3.0
 42
3.0
 43
3.0
 50
180.0
  0
INSERT
  5
9A5
330
14D
100
AcDbEntity
  8
LAY-1
  6
Continuous
 62
     1
370
    -2
100
AcDbBlockReference
  2
_EX_NORM
 10
130.996062
 20
177.8270596414247
 30
0.0
 41
3.0
 42
3.0
 43
3.0
  0
MTEXT
  5
9A6
330
14D
100
AcDbEntity
  8
LAY-1
  6
Continuous
 62
     1
100
AcDbMText
 10
106.7177102699027
 20
179.8270596414247
 30
0.0
 40
3.0
 41
0.0
 71
     5
 72
     1
  1
\A1;47.992
 73
     1
 44
1.0
  0
POINT
  5
9A7
330
14D
100
AcDbEntity
  8
Defpoints
  6
Continuous
 62
     0
100
AcDbPoint
 10
83.003938
 20
169.9
 30
0.0
  0
POINT
  5
9A8
330
14D
100
AcDbEntity
  8
Defpoints
  6
Continuous
 62
     0
100
AcDbPoint
 10
130.996062
 20
169.9
 30
0.0
  0
POINT
  5
9A9
330
14D
100
AcDbEntity
  8
Defpoints
  6
Continuous
 62
     0
100
AcDbPoint
 10
130.996062
 20
177.8270596414247
 30
0.0
  0
ENDBLK
  5
156
330
14D
100
AcDbEntity
  8
0
100
AcDbBlockEnd
  0
BLOCK
  5
159
330
158
100
AcDbEntity
  8
0
100
AcDbBlockBegin
  2
*D17
 70
     1
 10
0.0
 20
0.0
 30
0.0
  3
*D17
  1

  0
LINE
  5
9AA
330
158
100
AcDbEntity
  8
LAY-1
  6
Continuous
 62
     1
370
    -2
100
AcDbLine
 10
142.0
 20
171.4
 30
0.0
 11
142.0
 21
179.4999999999999
 31
0.0
  0
LINE
  5
9AB
330
158
100
AcDbEntity
  8
LAY-1
  6
Continuous
 62
     1
370
    -2
100
AcDbLine
 10
133.996062
 20
178.0
 30
0.0
 11
139.0
 21
178.0
 31
0.0
  0
LINE
  5
9AC
330
158
100
AcDbEntity
  8
LAY-1
  6
Continuous
 62
     1
370
    -2
100
AcDbLine
 10
142.0
 20
178.0
 30
0.0
 11
163.0
 21
178.0
 31
0.0
  0
INSERT
  5
9AD
330
158
100
AcDbEntity
  8
LAY-1
  6
Continuous
 62
     1
370
    -2
100
AcDbBlockReference
  2
_EX_NORM
 10
130.996062
 20
178.0
 30
0.0
 41
3.0
 42
3.0
 43
3.0
 50
180.0
  0
INSERT
  5
9AE
330
158
100
AcDbEntity
  8
LAY-1
  6
Continuous
 62
     1
370
    -2
100
AcDbBlockReference
  2
_EX_NORM
 10
142.0
 20
178.0
 30
0.0
 41
3.0
 42
3.0
 43
3.0
  0
MTEXT
  5
9AF
330
158
100
AcDbEntity
  8
LAY-1
  6
Continuous
 62
     1
100
AcDbMText
 10
154.0
 20
180.0
 30
0.0
 40
3.0
 41
0.0
 71
     5
 72
     1
  1
\A1;11.004
 73
     1
 44
1.0
  0
POINT
  5
9B0
330
158
100
AcDbEntity
  8
Defpoints
  6
Continuous
 62
     0
100
AcDbPoint
 10
130.996062
 20
169.9
 30
0.0
  0
POINT
  5
9B1
330
158
100
AcDbEntity
  8
Defpoints
  6
Continuous
 62
     0
100
AcDbPoint
 10
142.0
 20
169.9
 30
0.0
  0
POINT
  5
9B2
330
158
100
AcDbEntity
  8
Defpoints
  6
Continuous
 62
     0
100
AcDbPoint
 10
142.0
 20
178.0
 30
0.0
  0
ENDBLK
  5
161
330
158
100
AcDbEntity
  8
0
100
AcDbBlockEnd
  0
BLOCK
  5
164
330
163
100
AcDbEntity
  8
0
100
AcDbBlockBegin
  2
*D18
 70
     1
 10
0.0
 20
0.0
 30
0.0
  3
*D18
  1

  0
LINE
  5
9B3
330
163
100
AcDbEntity
  8
LAY-1
  6
Continuous
 62
     1
370
    -2
100
AcDbLine
 10
72.0
 20
118.4
 30
0.0
 11
72.0
 21
107.6
 31
0.0
  0
LINE
  5
9B4
330
163
100
AcDbEntity
  8
LAY-1
  6
Continuous
 62
     1
370
    -2
100
AcDbLine
 10
75.0
 20
148.3999999999999
 30
0.0
 11
75.0
 21
107.6
 31
0.0
  0
LINE
  5
9B5
330
163
100
AcDbEntity
  8
LAY-1
  6
Continuous
 62
     1
370
    -2
100
AcDbLine
 10
75.0
 20
109.0999999999999
 30
0.0
 11
72.0
 21
109.0999999999999
 31
0.0
  0
LINE
  5
9B6
330
163
100
AcDbEntity
  8
LAY-1
  6
Continuous
 62
     1
370
    -2
100
AcDbLine
 10
75.0
 20
109.0999999999999
 30
0.0
 11
81.0
 21
109.0999999999999
 31
0.0
  0
INSERT
  5
9B7
330
163
100
AcDbEntity
  8
LAY-1
  6
Continuous
 62
     1
370
    -2
100
AcDbBlockReference
  2
_EX_NORM
 10
72.0
 20
109.0999999999999
 30
0.0
 41
3.0
 42
3.0
 43
3.0
 50
180.0
  0
INSERT
  5
9B8
330
163
100
AcDbEntity
  8
LAY-1
  6
Continuous
 62
     1
370
    -2
100
AcDbBlockReference
  2
_EX_NONE
 10
75.0
 20
109.0999999999999
 30
0.0
 41
3.0
 42
3.0
 43
3.0
  0
MTEXT
  5
9B9
330
163
100
AcDbEntity
  8
LAY-1
  6
Continuous
 62
     1
100
AcDbMText
 10
79.5
 20
111.0999999999999
 30
0.0
 40
3.0
 41
0.0
 71
     5
 72
     1
  1
\A1;3
 73
     1
 44
1.0
  0
POINT
  5
9BA
330
163
100
AcDbEntity
  8
Defpoints
  6
Continuous
 62
     0
100
AcDbPoint
 10
72.0
 20
119.9
 30
0.0
  0
POINT
  5
9BB
330
163
100
AcDbEntity
  8
Defpoints
  6
Continuous
 62
     0
100
AcDbPoint
 10
75.0
 20
149.9
 30
0.0
  0
POINT
  5
9BC
330
163
100
AcDbEntity
  8
Defpoints
  6
Continuous
 62
     0
100
AcDbPoint
 10
75.0
 20
109.0999999999999
 30
0.0
  0
ENDBLK
  5
16B
330
163
100
AcDbEntity
  8
0
100
AcDbBlockEnd
  0
BLOCK
  5
16E
330
16D
100
AcDbEntity
  8
0
100
AcDbBlockBegin
  2
*D19
 70
     1
 10
0.0
 20
0.0
 30
0.0
  3
*D19
  1

  0
LINE
  5
9BD
330
16D
100
AcDbEntity
  8
LAY-1
  6
Continuous
 62
     1
370
    -2
100
AcDbLine
 10
139.0
 20
148.3999999999999
 30
0.0
 11
139.0
 21
107.6
 31
0.0
  0
LINE
  5
9BE
330
16D
100
AcDbEntity
  8
LAY-1
  6
Continuous
 62
     1
370
    -2
100
AcDbLine
 10
78.0
 20
109.0999999999999
 30
0.0
 11
136.0
 21
109.0999999999999
 31
0.0
  0
INSERT
  5
9BF
330
16D
100
AcDbEntity
  8
LAY-1
  6
Continuous
 62
     1
370
    -2
100
AcDbBlockReference
  2
_EX_NORM
 10
75.0
 20
109.0999999999999
 30
0.0
 41
3.0
 42
3.0
 43
3.0
 50
180.0
  0
INSERT
  5
9C0
330
16D
100
AcDbEntity
  8
LAY-1
  6
Continuous
 62
     1
370
    -2
100
AcDbBlockReference
  2
_EX_NORM
 10
139.0
 20
109.0999999999999
 30
0.0
 41
3.0
 42
3.0
 43
3.0
  0
MTEXT
  5
9C1
330
16D
100
AcDbEntity
  8
LAY-1
  6
Continuous
 62
     1
100
AcDbMText
 10
107.0
 20
111.0999999999999
 30
0.0
 40
3.0
 41
0.0
 71
     5
 72
     1
  1
\A1;64
 73
     1
 44
1.0
  0
POINT
  5
9C2
330
16D
100
AcDbEntity
  8
Defpoints
  6
Continuous
 62
     0
100
AcDbPoint
 10
75.0
 20
149.9
 30
0.0
  0
POINT
  5
9C3
330
16D
100
AcDbEntity
  8
Defpoints
  6
Continuous
 62
     0
100
AcDbPoint
 10
139.0
 20
149.9
 30
0.0
  0
POINT
  5
9C4
330
16D
100
AcDbEntity
  8
Defpoints
  6
Continuous
 62
     0
100
AcDbPoint
 10
139.0
 20
109.0999999999999
 30
0.0
  0
ENDBLK
  5
176
330
16D
100
AcDbEntity
  8
0
100
AcDbBlockEnd
  0
BLOCK
  5
179
330
178
100
AcDbEntity
  8
0
100
AcDbBlockBegin
  2
*D20
 70
     1
 10
0.0
 20
0.0
 30
0.0
  3
*D20
  1

  0
LINE
  5
9C5
330
178
100
AcDbEntity
  8
LAY-1
  6
Continuous
 62
     1
370
    -2
100
AcDbLine
 10
142.0
 20
118.4
 30
0.0
 11
142.0
 21
107.6
 31
0.0
  0
LINE
  5
9C6
330
178
100
AcDbEntity
  8
LAY-1
  6
Continuous
 62
     1
370
    -2
100
AcDbLine
 10
139.0
 20
109.0999999999999
 30
0.0
 11
142.0
 21
109.0999999999999
 31
0.0
  0
LINE
  5
9C7
330
178
100
AcDbEntity
  8
LAY-1
  6
Continuous
 62
     1
370
    -2
100
AcDbLine
 10
142.0
 20
109.0999999999999
 30
0.0
 11
145.0
 21
109.0999999999999
 31
0.0
  0
MTEXT
  5
9C8
330
178
100
AcDbEntity
  8
LAY-1
  6
Continuous
 62
     1
100
AcDbMText
 10
143.5
 20
111.0999999999999
 30
0.0
 40
3.0
 41
0.0
 71
     5
 72
     1
  1
\A1;3
 73
     1
 44
1.0
  0
POINT
  5
9C9
330
178
100
AcDbEntity
  8
Defpoints
  6
Continuous
 62
     0
100
AcDbPoint
 10
139.0
 20
149.9
 30
0.0
  0
POINT
  5
9CA
330
178
100
AcDbEntity
  8
Defpoints
  6
Continuous
 62
     0
100
AcDbPoint
 10
142.0
 20
119.9
 30
0.0
  0
POINT
  5
9CB
330
178
100
AcDbEntity
  8
Defpoints
  6
Continuous
 62
     0
100
AcDbPoint
 10
142.0
 20
109.0999999999999
 30
0.0
  0
ENDBLK
  5
17F
330
178
100
AcDbEntity
  8
0
100
AcDbBlockEnd
  0
BLOCK
  5
182
330
181
100
AcDbEntity
  8
0
100
AcDbBlockBegin
  2
*D21
 70
     1
 10
0.0
 20
0.0
 30
0.0
  3
*D21
  1

  0
LINE
  5
9CC
330
181
100
AcDbEntity
  8
LAY-1
  6
Continuous
 62
     1
370
    -2
100
AcDbLine
 10
187.9499999999999
 20
171.4
 30
0.0
 11
187.9499999999999
 21
183.4999999999999
 31
0.0
  0
LINE
  5
9CD
330
181
100
AcDbEntity
  8
LAY-1
  6
Continuous
 62
     1
370
    -2
100
AcDbLine
 10
207.89678
 20
171.4
 30
0.0
 11
207.89678
 21
183.4999999999999
 31
0.0
  0
LINE
  5
9CE
330
181
100
AcDbEntity
  8
LAY-1
  6
Continuous
 62
     1
370
    -2
100
AcDbLine
 10
190.9499999999999
 20
182.0
 30
0.0
 11
204.89678
 21
182.0
 31
0.0
  0
INSERT
  5
9CF
330
181
100
AcDbEntity
  8
LAY-1
  6
Continuous
 62
     1
370
    -2
100
AcDbBlockReference
  2
_EX_NORM
 10
187.9499999999999
 20
182.0
 30
0.0
 41
3.0
 42
3.0
 43
3.0
 50
180.0
  0
INSERT
  5
9D0
330
181
100
AcDbEntity
  8
LAY-1
  6
Continuous
 62
     1
370
    -2
100
AcDbBlockReference
  2
_EX_NORM
 10
207.89678
 20
182.0
 30
0.0
 41
3.0
 42
3.0
 43
3.0
  0
MTEXT
  5
9D1
330
181
100
AcDbEntity
  8
LAY-1
  6
Continuous
 62
     1
100
AcDbMText
 10
197.9233899999999
 20
184.0
 30
0.0
 40
3.0
 41
0.0
 71
     5
 72
     1
  1
\A1;19.947
 73
     1
 44
1.0
  0
POINT
  5
9D2
330
181
100
AcDbEntity
  8
Defpoints
  6
Continuous
 62
     0
100
AcDbPoint
 10
187.9499999999999
 20
169.9
 30
0.0
  0
POINT
  5
9D3
330
181
100
AcDbEntity
  8
Defpoints
  6
Continuous
 62
     0
100
AcDbPoint
 10
207.89678
 20
169.9
 30
0.0
  0
POINT
  5
9D4
330
181
100
AcDbEntity
  8
Defpoints
  6
Continuous
 62
     0
100
AcDbPoint
 10
207.89678
 20
182.0
 30
0.0
  0
ENDBLK
  5
18B
330
181
100
AcDbEntity
  8
0
100
AcDbBlockEnd
  0
BLOCK
  5
18E
330
18D
100
AcDbEntity
  8
0
100
AcDbBlockBegin
  2
*D22
 70
     1
 10
0.0
 20
0.0
 30
0.0
  3
*D22
  1

  0
LINE
  5
9D5
330
18D
100
AcDbEntity
  8
LAY-1
  6
Continuous
 62
     1
370
    -2
100
AcDbLine
 10
216.1999999999999
 20
171.4
 30
0.0
 11
216.1999999999999
 21
183.4999999999999
 31
0.0
  0
LINE
  5
9D6
330
18D
100
AcDbEntity
  8
LAY-1
  6
Continuous
 62
     1
370
    -2
100
AcDbLine
 10
207.89678
 20
182.0
 30
0.0
 11
216.1999999999999
 21
182.0
 31
0.0
  0
LINE
  5
9D7
330
18D
100
AcDbEntity
  8
LAY-1
  6
Continuous
 62
     1
370
    -2
100
AcDbLine
 10
216.1999999999999
 20
182.0
 30
0.0
 11
238.2
 21
182.0
 31
0.0
  0
MTEXT
  5
9D8
330
18D
100
AcDbEntity
  8
LAY-1
  6
Continuous
 62
     1
100
AcDbMText
 10
227.1999999999999
 20
187.5
 30
0.0
 40
3.0
 41
0.0
 71
     5
 72
     1
  1
\A1;8.303
 73
     1
 44
1.0
  0
POINT
  5
9D9
330
18D
100
AcDbEntity
  8
Defpoints
  6
Continuous
 62
     0
100
AcDbPoint
 10
207.89678
 20
169.9
 30
0.0
  0
POINT
  5
9DA
330
18D
100
AcDbEntity
  8
Defpoints
  6
Continuous
 62
     0
100
AcDbPoint
 10
216.1999999999999
 20
169.9
 30
0.0
  0
POINT
  5
9DB
330
18D
100
AcDbEntity
  8
Defpoints
  6
Continuous
 62
     0
100
AcDbPoint
 10
216.1999999999999
 20
182.0
 30
0.0
  0
ENDBLK
  5
194
330
18D
100
AcDbEntity
  8
0
100
AcDbBlockEnd
  0
BLOCK
  5
197
330
196
100
AcDbEntity
  8
0
100
AcDbBlockBegin
  2
*D23
 70
     1
 10
0.0
 20
0.0
 30
0.0
  3
*D23
  1

  0
LINE
  5
9DC
330
196
100
AcDbEntity
  8
LAY-1
  6
Continuous
 62
     1
370
    -2
100
AcDbLine
 10
187.9499999999999
 20
118.4
 30
0.0
 11
187.9499999999999
 21
106.9
 31
0.0
  0
LINE
  5
9DD
330
196
100
AcDbEntity
  8
LAY-1
  6
Continuous
 62
     1
370
    -2
100
AcDbLine
 10
202.1999999999999
 20
118.4
 30
0.0
 11
202.1999999999999
 21
106.9
 31
0.0
  0
LINE
  5
9DE
330
196
100
AcDbEntity
  8
LAY-1
  6
Continuous
 62
     1
370
    -2
100
AcDbLine
 10
190.9499999999999
 20
108.4
 30
0.0
 11
199.1999999999999
 21
108.4
 31
0.0
  0
INSERT
  5
9DF
330
196
100
AcDbEntity
  8
LAY-1
  6
Continuous
 62
     1
370
    -2
100
AcDbBlockReference
  2
_EX_NORM
 10
187.9499999999999
 20
108.4
 30
0.0
 41
3.0
 42
3.0
 43
3.0
 50
180.0
  0
INSERT
  5
9E0
330
196
100
AcDbEntity
  8
LAY-1
  6
Continuous
 62
     1
370
    -2
100
AcDbBlockReference
  2
_EX_NORM
 10
202.1999999999999
 20
108.4
 30
0.0
 41
3.0
 42
3.0
 43
3.0
  0
MTEXT
  5
9E1
330
196
100
AcDbEntity
  8
LAY-1
  6
Continuous
 62
     1
100
AcDbMText
 10
195.075
 20
110.4
 30
0.0
 40
3.0
 41
0.0
 71
     5
 72
     1
  1
\A1;14.25
 73
     1
 44
1.0
  0
POINT
  5
9E2
330
196
100
AcDbEntity
  8
Defpoints
  6
Continuous
 62
     0
100
AcDbPoint
 10
187.9499999999999
 20
119.9
 30
0.0
  0
POINT
  5
9E3
330
196
100
AcDbEntity
  8
Defpoints
  6
Continuous
 62
     0
100
AcDbPoint
 10
202.1999999999999
 20
119.9
 30
0.0
  0
POINT
  5
9E4
330
196
100
AcDbEntity
  8
Defpoints
  6
Continuous
 62
     0
100
AcDbPoint
 10
202.1999999999999
 20
108.4
 30
0.0
  0
ENDBLK
  5
1A0
330
196
100
AcDbEntity
  8
0
100
AcDbBlockEnd
  0
BLOCK
  5
1A3
330
1A2
100
AcDbEntity
  8
0
100
AcDbBlockBegin
  2
*D24
 70
     1
 10
0.0
 20
0.0
 30
0.0
  3
*D24
  1

  0
LINE
  5
9E5
330
1A2
100
AcDbEntity
  8
LAY-1
  6
Continuous
 62
     1
370
    -2
100
AcDbLine
 10
216.1999999999999
 20
118.4
 30
0.0
 11
216.1999999999999
 21
106.9
 31
0.0
  0
LINE
  5
9E6
330
1A2
100
AcDbEntity
  8
LAY-1
  6
Continuous
 62
     1
370
    -2
100
AcDbLine
 10
205.2
 20
108.4
 30
0.0
 11
213.2
 21
108.4
 31
0.0
  0
INSERT
  5
9E7
330
1A2
100
AcDbEntity
  8
LAY-1
  6
Continuous
 62
     1
370
    -2
100
AcDbBlockReference
  2
_EX_NORM
 10
202.1999999999999
 20
108.4
 30
0.0
 41
3.0
 42
3.0
 43
3.0
 50
180.0
  0
INSERT
  5
9E8
330
1A2
100
AcDbEntity
  8
LAY-1
  6
Continuous
 62
     1
370
    -2
100
AcDbBlockReference
  2
_EX_NORM
 10
216.1999999999999
 20
108.4
 30
0.0
 41
3.0
 42
3.0
 43
3.0
  0
MTEXT
  5
9E9
330
1A2
100
AcDbEntity
  8
LAY-1
  6
Continuous
 62
     1
100
AcDbMText
 10
209.2
 20
110.4
 30
0.0
 40
3.0
 41
0.0
 71
     5
 72
     1
  1
\A1;14
 73
     1
 44
1.0
  0
POINT
  5
9EA
330
1A2
100
AcDbEntity
  8
Defpoints
  6
Continuous
 62
     0
100
AcDbPoint
 10
202.1999999999999
 20
119.9
 30
0.0
  0
POINT
  5
9EB
330
1A2
100
AcDbEntity
  8
Defpoints
  6
Continuous
 62
     0
100
AcDbPoint
 10
216.1999999999999
 20
119.9
 30
0.0
  0
POINT
  5
9EC
330
1A2
100
AcDbEntity
  8
Defpoints
  6
Continuous
 62
     0
100
AcDbPoint
 10
216.1999999999999
 20
108.4
 30
0.0
  0
ENDBLK
  5
1AB
330
1A2
100
AcDbEntity
  8
0
100
AcDbBlockEnd
  0
BLOCK
  5
1AE
330
1AD
100
AcDbEntity
  8
0
100
AcDbBlockBegin
  2
*D25
 70
     1
 10
0.0
 20
0.0
 30
0.0
  3
*D25
  1

  0
LINE
  5
9ED
330
1AD
100
AcDbEntity
  8
LAY-1
  6
Continuous
 62
     1
370
    -2
100
AcDbLine
 10
70.5
 20
45.72358529233947
 30
0.0
 11
56.69999999999999
 21
45.72358529233947
 31
0.0
  0
LINE
  5
9EE
330
1AD
100
AcDbEntity
  8
LAY-1
  6
Continuous
 62
     1
370
    -2
100
AcDbLine
 10
70.5
 20
59.72358529233948
 30
0.0
 11
56.7
 21
59.72358529233948
 31
0.0
  0
LINE
  5
9EF
330
1AD
100
AcDbEntity
  8
LAY-1
  6
Continuous
 62
     1
370
    -2
100
AcDbLine
 10
58.2
 20
48.72358529233948
 30
0.0
 11
58.2
 21
56.72358529233948
 31
0.0
  0
INSERT
  5
9F0
330
1AD
100
AcDbEntity
  8
LAY-1
  6
Continuous
 62
     1
370
    -2
100
AcDbBlockReference
  2
_EX_NORM
 10
58.2
 20
45.72358529233947
 30
0.0
 41
3.0
 42
3.0
 43
3.0
 50
270.0
  0
INSERT
  5
9F1
330
1AD
100
AcDbEntity
  8
LAY-1
  6
Continuous
 62
     1
370
    -2
100
AcDbBlockReference
  2
_EX_NORM
 10
58.2
 20
59.72358529233948
 30
0.0
 41
3.0
 42
3.0
 43
3.0
 50
90.0
  0
MTEXT
  5
9F2
330
1AD
100
AcDbEntity
  8
LAY-1
  6
Continuous
 62
     1
100
AcDbMText
 10
56.19999999999999
 20
52.72358529233949
 30
0.0
 40
3.0
 41
0.0
 71
     5
 72
     1
  1
\A1;14
 11
0.0000000000000001
 21
1.0
 31
0.0
 73
     1
 44
1.0
  0
POINT
  5
9F3
330
1AD
100
AcDbEntity
  8
Defpoints
  6
Continuous
 62
     0
100
AcDbPoint
 10
72.0
 20
45.72358529233947
 30
0.0
  0
POINT
  5
9F4
330
1AD
100
AcDbEntity
  8
Defpoints
  6
Continuous
 62
     0
100
AcDbPoint
 10
72.0
 20
59.72358529233948
 30
0.0
  0
POINT
  5
9F5
330
1AD
100
AcDbEntity
  8
Defpoints
  6
Continuous
 62
     0
100
AcDbPoint
 10
58.2
 20
59.72358529233948
 30
0.0
  0
ENDBLK
  5
1B7
330
1AD
100
AcDbEntity
  8
0
100
AcDbBlockEnd
  0
BLOCK
  5
1BA
330
1B9
100
AcDbEntity
  8
0
100
AcDbBlockBegin
  2
*D26
 70
     1
 10
0.0
 20
0.0
 30
0.0
  3
*D26
  1

  0
LINE
  5
9F6
330
1B9
100
AcDbEntity
  8
LAY-1
  6
Continuous
 62
     1
370
    -2
100
AcDbLine
 10
70.5
 20
73.97358529233947
 30
0.0
 11
56.7
 21
73.97358529233947
 31
0.0
  0
LINE
  5
9F7
330
1B9
100
AcDbEntity
  8
LAY-1
  6
Continuous
 62
     1
370
    -2
100
AcDbLine
 10
58.2
 20
62.72358529233947
 30
0.0
 11
58.2
 21
70.97358529233948
 31
0.0
  0
LINE
  5
9F8
330
1B9
100
AcDbEntity
  8
LAY-1
  6
Continuous
 62
     1
370
    -2
100
AcDbLine
 10
58.2
 20
73.97358529233947
 30
0.0
 11
58.20000000000001
 21
91.97358529233948
 31
0.0
  0
INSERT
  5
9F9
330
1B9
100
AcDbEntity
  8
LAY-1
  6
Continuous
 62
     1
370
    -2
100
AcDbBlockReference
  2
_EX_NORM
 10
58.2
 20
59.72358529233948
 30
0.0
 41
3.0
 42
3.0
 43
3.0
 50
270.0
  0
INSERT
  5
9FA
330
1B9
100
AcDbEntity
  8
LAY-1
  6
Continuous
 62
     1
370
    -2
100
AcDbBlockReference
  2
_EX_NORM
 10
58.2
 20
73.97358529233947
 30
0.0
 41
3.0
 42
3.0
 43
3.0
 50
90.0
  0
MTEXT
  5
9FB
330
1B9
100
AcDbEntity
  8
LAY-1
  6
Continuous
 62
     1
100
AcDbMText
 10
56.2
 20
84.4735852923395
 30
0.0
 40
3.0
 41
0.0
 71
     5
 72
     1
  1
\A1;14.25
 11
0.0000000000000001
 21
1.0
 31
0.0
 73
     1
 44
1.0
  0
POINT
  5
9FC
330
1B9
100
AcDbEntity
  8
Defpoints
  6
Continuous
 62
     0
100
AcDbPoint
 10
72.0
 20
59.72358529233948
 30
0.0
  0
POINT
  5
9FD
330
1B9
100
AcDbEntity
  8
Defpoints
  6
Continuous
 62
     0
100
AcDbPoint
 10
72.0
 20
73.97358529233947
 30
0.0
  0
POINT
  5
9FE
330
1B9
100
AcDbEntity
  8
Defpoints
  6
Continuous
 62
     0
100
AcDbPoint
 10
58.2
 20
73.97358529233947
 30
0.0
  0
ENDBLK
  5
1C2
330
1B9
100
AcDbEntity
  8
0
100
AcDbBlockEnd
  0
BLOCK
  5
280
330
275
100
AcDbEntity
  8
0
 62
     1
100
AcDbBlockBegin
  2
*D28
 70
     1
 10
0.0
 20
0.0
 30
0.0
  3
*D28
  1

  0
LINE
  5
327
330
275
100
AcDbEntity
  8
LAY-1
  6
Continuous
 62
     0
370
    -2
100
AcDbLine
 10
216.2624999999999
 20
169.9
 30
0.0
 11
230.0038004402758
 21
169.9
 31
0.0
  0
LINE
  5
328
330
275
100
AcDbEntity
  8
LAY-1
  6
Continuous
 62
     0
370
    -2
100
AcDbLine
 10
212.7625
 20
149.9
 30
0.0
 11
230.0038004402758
 21
149.9
 31
0.0
  0
LINE
  5
329
330
275
100
AcDbEntity
  8
LAY-1
  6
Continuous
 62
     0
370
    -2
100
AcDbLine
 10
229.8238004402758
 20
169.72
 30
0.0
 11
229.8238004402758
 21
161.99
 31
0.0
  0
LINE
  5
32A
330
275
100
AcDbEntity
  8
LAY-1
  6
Continuous
 62
     0
370
    -2
100
AcDbLine
 10
229.8238004402758
 20
150.08
 30
0.0
 11
229.8238004402758
 21
157.81
 31
0.0
  0
SOLID
  5
32B
330
275
100
AcDbEntity
  8
LAY-1
  6
Continuous
 62
     0
100
AcDbTrace
 10
229.7938004402758
 20
169.72
 30
0.0
 11
229.8538004402758
 21
169.72
 31
0.0
 12
229.8238004402758
 22
169.9
 32
0.0
 13
229.8238004402758
 23
169.9
 33
0.0
  0
SOLID
  5
32C
330
275
100
AcDbEntity
  8
LAY-1
  6
Continuous
 62
     0
100
AcDbTrace
 10
229.7938004402758
 20
150.08
 30
0.0
 11
229.8538004402758
 21
150.08
 31
0.0
 12
229.8238004402758
 22
149.9
 32
0.0
 13
229.8238004402758
 23
149.9
 33
0.0
  0
MTEXT
  5
32D
330
275
100
AcDbEntity
  8
LAY-1
  6
Continuous
 62
     0
100
AcDbMText
 10
229.8238004402758
 20
159.9
 30
0.0
 40
4.0
 41
0.0
 71
     5
 72
     1
  1
\A1;20.0000
 73
     1
 44
1.0
  0
POINT
  5
32E
330
275
100
AcDbEntity
  8
Defpoints
  6
Continuous
 62
     0
100
AcDbPoint
 10
216.1999999999999
 20
169.9
 30
0.0
  0
POINT
  5
32F
330
275
100
AcDbEntity
  8
Defpoints
  6
Continuous
 62
     0
100
AcDbPoint
 10
212.7
 20
149.9
 30
0.0
  0
POINT
  5
330
330
275
100
AcDbEntity
  8
Defpoints
  6
Continuous
 62
     0
100
AcDbPoint
 10
229.8238004402758
 20
149.9
 30
0.0
  0
ENDBLK
  5
281
330
275
100
AcDbEntity
  8
0
 62
     1
100
AcDbBlockEnd
  0
BLOCK
  5
403
330
3F8
100
AcDbEntity
  8
0
 62
     1
100
AcDbBlockBegin
  2
*D29
 70
     1
 10
0.0
 20
0.0
 30
0.0
  3
*D29
  1

  0
LINE
  5
9FF
330
3F8
100
AcDbEntity
  8
LAY-1
  6
Continuous
 62
     0
370
    -2
100
AcDbLine
 10
72.0
 20
169.9625
 30
0.0
 11
72.0
 21
175.5376155971683
 31
0.0
  0
LINE
  5
A00
330
3F8
100
AcDbEntity
  8
LAY-1
  6
Continuous
 62
     0
370
    -2
100
AcDbLine
 10
102.0
 20
169.9625
 30
0.0
 11
102.0
 21
175.5376155971683
 31
0.0
  0
LINE
  5
A01
330
3F8
100
AcDbEntity
  8
LAY-1
  6
Continuous
 62
     0
370
    -2
100
AcDbLine
 10
75.0
 20
173.5376155971683
 30
0.0
 11
99.0
 21
173.5376155971683
 31
0.0
  0
INSERT
  5
A02
330
3F8
100
AcDbEntity
  8
LAY-1
  6
Continuous
 62
     0
370
    -2
100
AcDbBlockReference
  2
_Open30
 10
72.0
 20
173.5376155971683
 30
0.0
 41
3.0
 42
3.0
 43
3.0
 50
180.0
  0
INSERT
  5
A03
330
3F8
100
AcDbEntity
  8
LAY-1
  6
Continuous
 62
     0
370
    -2
100
AcDbBlockReference
  2
_Open30
 10
102.0
 20
173.5376155971683
 30
0.0
 41
3.0
 42
3.0
 43
3.0
  0
MTEXT
  5
A04
330
3F8
100
AcDbEntity
  8
LAY-1
  6
Continuous
 62
     0
100
AcDbMText
 10
87.0
 20
175.1276155971683
 30
0.0
 40
3.0
 41
0.0
 71
     5
 72
     1
  1
\A1;30.0
 73
     1
 44
1.0
  0
POINT
  5
A05
330
3F8
100
AcDbEntity
  8
Defpoints
  6
Continuous
 62
     0
100
AcDbPoint
 10
72.0
 20
169.9
 30
0.0
  0
POINT
  5
A06
330
3F8
100
AcDbEntity
  8
Defpoints
  6
Continuous
 62
     0
100
AcDbPoint
 10
102.0
 20
169.9
 30
0.0
  0
POINT
  5
A07
330
3F8
100
AcDbEntity
  8
Defpoints
  6
Continuous
 62
     0
100
AcDbPoint
 10
102.0
 20
173.5376155971683
 30
0.0
  0
ENDBLK
  5
404
330
3F8
100
AcDbEntity
  8
0
 62
     1
100
AcDbBlockEnd
  0
BLOCK
  5
4B7
330
4B3
100
AcDbEntity
  8
0
 62
     1
100
AcDbBlockBegin
  2
_Open30
 70
     0
 10
0.0
 20
0.0
 30
0.0
  3
_Open30
  1

  0
LINE
  5
4B4
330
4B3
100
AcDbEntity
  8
0
  6
ByBlock
 62
     0
370
    -2
100
AcDbLine
 10
-1.0
 20
0.26794919
 30
0.0
 11
0.0
 21
0.0
 31
0.0
  0
LINE
  5
4B5
330
4B3
100
AcDbEntity
  8
0
  6
ByBlock
 62
     0
370
    -2
100
AcDbLine
 10
0.0
 20
0.0
 30
0.0
 11
-1.0
 21
-0.26794919
 31
0.0
  0
LINE
  5
4B6
330
4B3
100
AcDbEntity
  8
0
  6
ByBlock
 62
     0
370
    -2
100
AcDbLine
 10
0.0
 20
0.0
 30
0.0
 11
-1.0
 21
0.0
 31
0.0
  0
ENDBLK
  5
4B8
330
4B3
100
AcDbEntity
  8
0
 62
     1
100
AcDbBlockEnd
  0
BLOCK
  5
6CF
330
6C4
100
AcDbEntity
  8
0
 62
     1
100
AcDbBlockBegin
  2
*D31
 70
     1
 10
0.0
 20
0.0
 30
0.0
  3
*D31
  1

  0
LINE
  5
A08
330
6C4
100
AcDbEntity
  8
LAY-1
  6
Continuous
 62
     0
370
    -2
100
AcDbLine
 10
102.0
 20
169.9625
 30
0.0
 11
102.0
 21
175.5376155971683
 31
0.0
  0
LINE
  5
A09
330
6C4
100
AcDbEntity
  8
LAY-1
  6
Continuous
 62
     0
370
    -2
100
AcDbLine
 10
122.0
 20
169.9625
 30
0.0
 11
122.0
 21
175.5376155971683
 31
0.0
  0
LINE
  5
A0A
330
6C4
100
AcDbEntity
  8
LAY-1
  6
Continuous
 62
     0
370
    -2
100
AcDbLine
 10
105.0
 20
173.5376155971683
 30
0.0
 11
119.0
 21
173.5376155971683
 31
0.0
  0
INSERT
  5
A0B
330
6C4
100
AcDbEntity
  8
LAY-1
  6
Continuous
 62
     0
370
    -2
100
AcDbBlockReference
  2
_Open30
 10
102.0
 20
173.5376155971683
 30
0.0
 41
3.0
 42
3.0
 43
3.0
 50
180.0
  0
INSERT
  5
A0C
330
6C4
100
AcDbEntity
  8
LAY-1
  6
Continuous
 62
     0
370
    -2
100
AcDbBlockReference
  2
_Open30
 10
122.0
 20
173.5376155971683
 30
0.0
 41
3.0
 42
3.0
 43
3.0
  0
MTEXT
  5
A0D
330
6C4
100
AcDbEntity
  8
LAY-1
  6
Continuous
 62
     0
100
AcDbMText
 10
112.0
 20
175.1276155971683
 30
0.0
 40
3.0
 41
0.0
 71
     5
 72
     1
  1
\A1;20.0
 73
     1
 44
1.0
  0
POINT
  5
A0E
330
6C4
100
AcDbEntity
  8
Defpoints
  6
Continuous
 62
     0
100
AcDbPoint
 10
102.0
 20
169.9
 30
0.0
  0
POINT
  5
A0F
330
6C4
100
AcDbEntity
  8
Defpoints
  6
Continuous
 62
     0
100
AcDbPoint
 10
122.0
 20
169.9
 30
0.0
  0
POINT
  5
A10
330
6C4
100
AcDbEntity
  8
Defpoints
  6
Continuous
 62
     0
100
AcDbPoint
 10
122.0
 20
173.5376155971683
 30
0.0
  0
ENDBLK
  5
6D0
330
6C4
100
AcDbEntity
  8
0
 62
     1
100
AcDbBlockEnd
  0
BLOCK
  5
6DD
330
6D2
100
AcDbEntity
  8
0
 62
     1
100
AcDbBlockBegin
  2
*D32
 70
     1
 10
0.0
 20
0.0
 30
0.0
  3
*D32
  1

  0
LINE
  5
A11
330
6D2
100
AcDbEntity
  8
LAY-1
  6
Continuous
 62
     0
370
    -2
100
AcDbLine
 10
122.0
 20
169.9625
 30
0.0
 11
122.0
 21
175.5376155971683
 31
0.0
  0
LINE
  5
A12
330
6D2
100
AcDbEntity
  8
LAY-1
  6
Continuous
 62
     0
370
    -2
100
AcDbLine
 10
142.0
 20
169.9625
 30
0.0
 11
142.0
 21
175.5376155971683
 31
0.0
  0
LINE
  5
A13
330
6D2
100
AcDbEntity
  8
LAY-1
  6
Continuous
 62
     0
370
    -2
100
AcDbLine
 10
125.0
 20
173.5376155971683
 30
0.0
 11
139.0
 21
173.5376155971683
 31
0.0
  0
INSERT
  5
A14
330
6D2
100
AcDbEntity
  8
LAY-1
  6
Continuous
 62
     0
370
    -2
100
AcDbBlockReference
  2
_Open30
 10
122.0
 20
173.5376155971683
 30
0.0
 41
3.0
 42
3.0
 43
3.0
 50
180.0
  0
INSERT
  5
A15
330
6D2
100
AcDbEntity
  8
LAY-1
  6
Continuous
 62
     0
370
    -2
100
AcDbBlockReference
  2
_Open30
 10
142.0
 20
173.5376155971683
 30
0.0
 41
3.0
 42
3.0
 43
3.0
  0
MTEXT
  5
A16
330
6D2
100
AcDbEntity
  8
LAY-1
  6
Continuous
 62
     0
100
AcDbMText
 10
132.0
 20
175.1276155971683
 30
0.0
 40
3.0
 41
0.0
 71
     5
 72
     1
  1
\A1;20.0
 73
     1
 44
1.0
  0
POINT
  5
A17
330
6D2
100
AcDbEntity
  8
Defpoints
  6
Continuous
 62
     0
100
AcDbPoint
 10
122.0
 20
169.9
 30
0.0
  0
POINT
  5
A18
330
6D2
100
AcDbEntity
  8
Defpoints
  6
Continuous
 62
     0
100
AcDbPoint
 10
142.0
 20
169.9
 30
0.0
  0
POINT
  5
A19
330
6D2
100
AcDbEntity
  8
Defpoints
  6
Continuous
 62
     0
100
AcDbPoint
 10
142.0
 20
173.5376155971683
 30
0.0
  0
ENDBLK
  5
6DE
330
6D2
100
AcDbEntity
  8
0
 62
     1
100
AcDbBlockEnd
  0
BLOCK
  5
6EB
330
6E0
100
AcDbEntity
  8
0
 62
     1
100
AcDbBlockBegin
  2
*D33
 70
     1
 10
0.0
 20
0.0
 30
0.0
  3
*D33
  1

  0
LINE
  5
A1A
330
6E0
100
AcDbEntity
  8
LAY-1
  6
Continuous
 62
     0
370
    -2
100
AcDbLine
 10
72.0
 20
119.8375
 30
0.0
 11
72.0
 21
99.22741395987641
 31
0.0
  0
LINE
  5
A1B
330
6E0
100
AcDbEntity
  8
LAY-1
  6
Continuous
 62
     0
370
    -2
100
AcDbLine
 10
103.0
 20
157.8375
 30
0.0
 11
103.0
 21
99.22741395987641
 31
0.0
  0
LINE
  5
A1C
330
6E0
100
AcDbEntity
  8
LAY-1
  6
Continuous
 62
     0
370
    -2
100
AcDbLine
 10
75.0
 20
101.2274139598764
 30
0.0
 11
100.0
 21
101.2274139598764
 31
0.0
  0
INSERT
  5
A1D
330
6E0
100
AcDbEntity
  8
LAY-1
  6
Continuous
 62
     0
370
    -2
100
AcDbBlockReference
  2
_Open30
 10
72.0
 20
101.2274139598764
 30
0.0
 41
3.0
 42
3.0
 43
3.0
 50
180.0
  0
INSERT
  5
A1E
330
6E0
100
AcDbEntity
  8
LAY-1
  6
Continuous
 62
     0
370
    -2
100
AcDbBlockReference
  2
_Open30
 10
103.0
 20
101.2274139598764
 30
0.0
 41
3.0
 42
3.0
 43
3.0
  0
MTEXT
  5
A1F
330
6E0
100
AcDbEntity
  8
LAY-1
  6
Continuous
 62
     0
100
AcDbMText
 10
87.5
 20
99.63741395987639
 30
0.0
 40
3.0
 41
0.0
 71
     5
 72
     1
  1
\A1;31.0
 73
     1
 44
1.0
  0
POINT
  5
A20
330
6E0
100
AcDbEntity
  8
Defpoints
  6
Continuous
 62
     0
100
AcDbPoint
 10
72.0
 20
119.9
 30
0.0
  0
POINT
  5
A21
330
6E0
100
AcDbEntity
  8
Defpoints
  6
Continuous
 62
     0
100
AcDbPoint
 10
103.0
 20
157.9
 30
0.0
  0
POINT
  5
A22
330
6E0
100
AcDbEntity
  8
Defpoints
  6
Continuous
 62
     0
100
AcDbPoint
 10
103.0
 20
101.2274139598764
 30
0.0
  0
ENDBLK
  5
6EC
330
6E0
100
AcDbEntity
  8
0
 62
     1
100
AcDbBlockEnd
  0
BLOCK
  5
6F9
330
6EE
100
AcDbEntity
  8
0
 62
     1
100
AcDbBlockBegin
  2
*D34
 70
     1
 10
0.0
 20
0.0
 30
0.0
  3
*D34
  1

  0
LINE
  5
A23
330
6EE
100
AcDbEntity
  8
LAY-1
  6
Continuous
 62
     0
370
    -2
100
AcDbLine
 10
103.0
 20
157.8375
 30
0.0
 11
103.0
 21
99.22741395987641
 31
0.0
  0
LINE
  5
A24
330
6EE
100
AcDbEntity
  8
LAY-1
  6
Continuous
 62
     0
370
    -2
100
AcDbLine
 10
121.0
 20
157.8375
 30
0.0
 11
121.0
 21
99.22741395987641
 31
0.0
  0
LINE
  5
A25
330
6EE
100
AcDbEntity
  8
LAY-1
  6
Continuous
 62
     0
370
    -2
100
AcDbLine
 10
106.0
 20
101.2274139598764
 30
0.0
 11
118.0
 21
101.2274139598764
 31
0.0
  0
INSERT
  5
A26
330
6EE
100
AcDbEntity
  8
LAY-1
  6
Continuous
 62
     0
370
    -2
100
AcDbBlockReference
  2
_Open30
 10
103.0
 20
101.2274139598764
 30
0.0
 41
3.0
 42
3.0
 43
3.0
 50
180.0
  0
INSERT
  5
A27
330
6EE
100
AcDbEntity
  8
LAY-1
  6
Continuous
 62
     0
370
    -2
100
AcDbBlockReference
  2
_Open30
 10
121.0
 20
101.2274139598764
 30
0.0
 41
3.0
 42
3.0
 43
3.0
  0
MTEXT
  5
A28
330
6EE
100
AcDbEntity
  8
LAY-1
  6
Continuous
 62
     0
100
AcDbMText
 10
112.0
 20
99.63741395987639
 30
0.0
 40
3.0
 41
0.0
 71
     5
 72
     1
  1
\A1;18.0
 73
     1
 44
1.0
  0
POINT
  5
A29
330
6EE
100
AcDbEntity
  8
Defpoints
  6
Continuous
 62
     0
100
AcDbPoint
 10
103.0
 20
157.9
 30
0.0
  0
POINT
  5
A2A
330
6EE
100
AcDbEntity
  8
Defpoints
  6
Continuous
 62
     0
100
AcDbPoint
 10
121.0
 20
157.9
 30
0.0
  0
POINT
  5
A2B
330
6EE
100
AcDbEntity
  8
Defpoints
  6
Continuous
 62
     0
100
AcDbPoint
 10
121.0
 20
101.2274139598764
 30
0.0
  0
ENDBLK
  5
6FA
330
6EE
100
AcDbEntity
  8
0
 62
     1
100
AcDbBlockEnd
  0
BLOCK
  5
707
330
6FC
100
AcDbEntity
  8
0
 62
     1
100
AcDbBlockBegin
  2
*D35
 70
     1
 10
0.0
 20
0.0
 30
0.0
  3
*D35
  1

  0
LINE
  5
A2C
330
6FC
100
AcDbEntity
  8
LAY-1
  6
Continuous
 62
     0
370
    -2
100
AcDbLine
 10
121.0
 20
157.8375
 30
0.0
 11
121.0
 21
99.22741395987641
 31
0.0
  0
LINE
  5
A2D
330
6FC
100
AcDbEntity
  8
LAY-1
  6
Continuous
 62
     0
370
    -2
100
AcDbLine
 10
142.0
 20
119.8375
 30
0.0
 11
142.0
 21
99.22741395987641
 31
0.0
  0
LINE
  5
A2E
330
6FC
100
AcDbEntity
  8
LAY-1
  6
Continuous
 62
     0
370
    -2
100
AcDbLine
 10
124.0
 20
101.2274139598764
 30
0.0
 11
139.0
 21
101.2274139598764
 31
0.0
  0
INSERT
  5
A2F
330
6FC
100
AcDbEntity
  8
LAY-1
  6
Continuous
 62
     0
370
    -2
100
AcDbBlockReference
  2
_Open30
 10
121.0
 20
101.2274139598764
 30
0.0
 41
3.0
 42
3.0
 43
3.0
 50
180.0
  0
INSERT
  5
A30
330
6FC
100
AcDbEntity
  8
LAY-1
  6
Continuous
 62
     0
370
    -2
100
AcDbBlockReference
  2
_Open30
 10
142.0
 20
101.2274139598764
 30
0.0
 41
3.0
 42
3.0
 43
3.0
  0
MTEXT
  5
A31
330
6FC
100
AcDbEntity
  8
LAY-1
  6
Continuous
 62
     0
100
AcDbMText
 10
131.4999999999999
 20
99.63741395987639
 30
0.0
 40
3.0
 41
0.0
 71
     5
 72
     1
  1
\A1;21.0
 73
     1
 44
1.0
  0
POINT
  5
A32
330
6FC
100
AcDbEntity
  8
Defpoints
  6
Continuous
 62
     0
100
AcDbPoint
 10
121.0
 20
157.9
 30
0.0
  0
POINT
  5
A33
330
6FC
100
AcDbEntity
  8
Defpoints
  6
Continuous
 62
     0
100
AcDbPoint
 10
142.0
 20
119.9
 30
0.0
  0
POINT
  5
A34
330
6FC
100
AcDbEntity
  8
Defpoints
  6
Continuous
 62
     0
100
AcDbPoint
 10
142.0
 20
101.2274139598764
 30
0.0
  0
ENDBLK
  5
708
330
6FC
100
AcDbEntity
  8
0
 62
     1
100
AcDbBlockEnd
  0
BLOCK
  5
715
330
70A
100
AcDbEntity
  8
0
 62
     1
100
AcDbBlockBegin
  2
*D36
 70
     1
 10
0.0
 20
0.0
 30
0.0
  3
*D36
  1

  0
LINE
  5
A35
330
70A
100
AcDbEntity
  8
LAY-1
  6
Continuous
 62
     0
370
    -2
100
AcDbLine
 10
72.0
 20
119.8375
 30
0.0
 11
72.0
 21
90.0194569373553
 31
0.0
  0
LINE
  5
A36
330
70A
100
AcDbEntity
  8
LAY-1
  6
Continuous
 62
     0
370
    -2
100
AcDbLine
 10
87.0
 20
119.8375
 30
0.0
 11
87.0
 21
90.0194569373553
 31
0.0
  0
LINE
  5
A37
330
70A
100
AcDbEntity
  8
LAY-1
  6
Continuous
 62
     0
370
    -2
100
AcDbLine
 10
75.0
 20
92.01945693735529
 30
0.0
 11
84.0
 21
92.01945693735529
 31
0.0
  0
INSERT
  5
A38
330
70A
100
AcDbEntity
  8
LAY-1
  6
Continuous
 62
     0
370
    -2
100
AcDbBlockReference
  2
_Open30
 10
72.0
 20
92.01945693735529
 30
0.0
 41
3.0
 42
3.0
 43
3.0
 50
180.0
  0
INSERT
  5
A39
330
70A
100
AcDbEntity
  8
LAY-1
  6
Continuous
 62
     0
370
    -2
100
AcDbBlockReference
  2
_Open30
 10
87.0
 20
92.01945693735529
 30
0.0
 41
3.0
 42
3.0
 43
3.0
  0
MTEXT
  5
A3A
330
70A
100
AcDbEntity
  8
LAY-1
  6
Continuous
 62
     0
100
AcDbMText
 10
79.5
 20
90.4294569373553
 30
0.0
 40
3.0
 41
0.0
 71
     5
 72
     1
  1
\A1;15.0
 73
     1
 44
1.0
  0
POINT
  5
A3B
330
70A
100
AcDbEntity
  8
Defpoints
  6
Continuous
 62
     0
100
AcDbPoint
 10
72.0
 20
119.9
 30
0.0
  0
POINT
  5
A3C
330
70A
100
AcDbEntity
  8
Defpoints
  6
Continuous
 62
     0
100
AcDbPoint
 10
87.0
 20
119.9
 30
0.0
  0
POINT
  5
A3D
330
70A
100
AcDbEntity
  8
Defpoints
  6
Continuous
 62
     0
100
AcDbPoint
 10
87.0
 20
92.01945693735529
 30
0.0
  0
ENDBLK
  5
716
330
70A
100
AcDbEntity
  8
0
 62
     1
100
AcDbBlockEnd
  0
BLOCK
  5
723
330
718
100
AcDbEntity
  8
0
 62
     1
100
AcDbBlockBegin
  2
*D37
 70
     1
 10
0.0
 20
0.0
 30
0.0
  3
*D37
  1

  0
LINE
  5
A3E
330
718
100
AcDbEntity
  8
LAY-1
  6
Continuous
 62
     0
370
    -2
100
AcDbLine
 10
87.0
 20
119.8375
 30
0.0
 11
87.0
 21
90.0194569373553
 31
0.0
  0
LINE
  5
A3F
330
718
100
AcDbEntity
  8
LAY-1
  6
Continuous
 62
     0
370
    -2
100
AcDbLine
 10
127.0
 20
119.8375
 30
0.0
 11
127.0
 21
90.0194569373553
 31
0.0
  0
LINE
  5
A40
330
718
100
AcDbEntity
  8
LAY-1
  6
Continuous
 62
     0
370
    -2
100
AcDbLine
 10
90.0
 20
92.01945693735529
 30
0.0
 11
124.0
 21
92.01945693735529
 31
0.0
  0
INSERT
  5
A41
330
718
100
AcDbEntity
  8
LAY-1
  6
Continuous
 62
     0
370
    -2
100
AcDbBlockReference
  2
_Open30
 10
87.0
 20
92.01945693735529
 30
0.0
 41
3.0
 42
3.0
 43
3.0
 50
180.0
  0
INSERT
  5
A42
330
718
100
AcDbEntity
  8
LAY-1
  6
Continuous
 62
     0
370
    -2
100
AcDbBlockReference
  2
_Open30
 10
127.0
 20
92.01945693735529
 30
0.0
 41
3.0
 42
3.0
 43
3.0
  0
MTEXT
  5
A43
330
718
100
AcDbEntity
  8
LAY-1
  6
Continuous
 62
     0
100
AcDbMText
 10
107.0
 20
90.4294569373553
 30
0.0
 40
3.0
 41
0.0
 71
     5
 72
     1
  1
\A1;40.0
 73
     1
 44
1.0
  0
POINT
  5
A44
330
718
100
AcDbEntity
  8
Defpoints
  6
Continuous
 62
     0
100
AcDbPoint
 10
87.0
 20
119.9
 30
0.0
  0
POINT
  5
A45
330
718
100
AcDbEntity
  8
Defpoints
  6
Continuous
 62
     0
100
AcDbPoint
 10
127.0
 20
119.9
 30
0.0
  0
POINT
  5
A46
330
718
100
AcDbEntity
  8
Defpoints
  6
Continuous
 62
     0
100
AcDbPoint
 10
127.0
 20
92.01945693735529
 30
0.0
  0
ENDBLK
  5
724
330
718
100
AcDbEntity
  8
0
 62
     1
100
AcDbBlockEnd
  0
BLOCK
  5
84B
330
840
100
AcDbEntity
  8
0
 62
     1
100
AcDbBlockBegin
  2
*D38
 70
     1
 10
0.0
 20
0.0
 30
0.0
  3
*D38
  1

  0
LINE
  5
841
330
840
100
AcDbEntity
  8
LAY-1
  6
Continuous
 62
     0
370
    -2
100
AcDbLine
 10
212.6999999999999
 20
169.9625
 30
0.0
 11
212.6999999999999
 21
177.755619769716
 31
0.0
  0
LINE
  5
842
330
840
100
AcDbEntity
  8
LAY-1
  6
Continuous
 62
     0
370
    -2
100
AcDbLine
 10
216.1999999999999
 20
169.9625
 30
0.0
 11
216.1999999999999
 21
177.755619769716
 31
0.0
  0
LINE
  5
843
330
840
100
AcDbEntity
  8
LAY-1
  6
Continuous
 62
     0
370
    -2
100
AcDbLine
 10
209.6999999999999
 20
175.755619769716
 30
0.0
 11
206.6999999999999
 21
175.755619769716
 31
0.0
  0
LINE
  5
844
330
840
100
AcDbEntity
  8
LAY-1
  6
Continuous
 62
     0
370
    -2
100
AcDbLine
 10
219.1999999999999
 20
175.755619769716
 30
0.0
 11
222.1999999999999
 21
175.755619769716
 31
0.0
  0
INSERT
  5
845
330
840
100
AcDbEntity
  8
LAY-1
  6
Continuous
 62
     0
370
    -2
100
AcDbBlockReference
  2
_Open30
 10
212.6999999999999
 20
175.755619769716
 30
0.0
 41
3.0
 42
3.0
 43
3.0
  0
INSERT
  5
846
330
840
100
AcDbEntity
  8
LAY-1
  6
Continuous
 62
     0
370
    -2
100
AcDbBlockReference
  2
_Open30
 10
216.1999999999999
 20
175.755619769716
 30
0.0
 41
3.0
 42
3.0
 43
3.0
 50
180.0
  0
MTEXT
  5
847
330
840
100
AcDbEntity
  8
LAY-1
  6
Continuous
 62
     0
100
AcDbMText
 10
214.4499999999999
 20
175.755619769716
 30
0.0
 40
3.0
 41
0.0
 71
     5
 72
     1
  1
\A1;4
 73
     1
 44
1.0
  0
POINT
  5
848
330
840
100
AcDbEntity
  8
Defpoints
  6
Continuous
 62
     0
100
AcDbPoint
 10
212.6999999999999
 20
169.9
 30
0.0
  0
POINT
  5
849
330
840
100
AcDbEntity
  8
Defpoints
  6
Continuous
 62
     0
100
AcDbPoint
 10
216.1999999999999
 20
169.9
 30
0.0
  0
POINT
  5
84A
330
840
100
AcDbEntity
  8
Defpoints
  6
Continuous
 62
     0
100
AcDbPoint
 10
216.1999999999999
 20
175.755619769716
 30
0.0
  0
ENDBLK
  5
84C
330
840
100
AcDbEntity
  8
0
 62
     1
100
AcDbBlockEnd
  0
BLOCK
  5
859
330
84E
100
AcDbEntity
  8
0
 62
     1
100
AcDbBlockBegin
  2
*D39
 70
     1
 10
0.0
 20
0.0
 30
0.0
  3
*D39
  1

  0
LINE
  5
84F
330
84E
100
AcDbEntity
  8
LAY-1
  6
Continuous
 62
     0
370
    -2
100
AcDbLine
 10
209.6999999999999
 20
119.8375
 30
0.0
 11
209.6999999999999
 21
115.4066676204567
 31
0.0
  0
LINE
  5
850
330
84E
100
AcDbEntity
  8
LAY-1
  6
Continuous
 62
     0
370
    -2
100
AcDbLine
 10
216.1999999999999
 20
119.8375
 30
0.0
 11
216.1999999999999
 21
115.4066676204567
 31
0.0
  0
LINE
  5
851
330
84E
100
AcDbEntity
  8
LAY-1
  6
Continuous
 62
     0
370
    -2
100
AcDbLine
 10
212.6999999999999
 20
117.4066676204567
 30
0.0
 11
213.2
 21
117.4066676204567
 31
0.0
  0
LINE
  5
852
330
84E
100
AcDbEntity
  8
LAY-1
  6
Continuous
 62
     0
370
    -2
100
AcDbLine
 10
216.1999999999999
 20
117.4066676204567
 30
0.0
 11
219.1999999999999
 21
117.4066676204567
 31
0.0
  0
INSERT
  5
853
330
84E
100
AcDbEntity
  8
LAY-1
  6
Continuous
 62
     0
370
    -2
100
AcDbBlockReference
  2
_Open30
 10
209.6999999999999
 20
117.4066676204567
 30
0.0
 41
3.0
 42
3.0
 43
3.0
 50
180.0
  0
INSERT
  5
854
330
84E
100
AcDbEntity
  8
LAY-1
  6
Continuous
 62
     0
370
    -2
100
AcDbBlockReference
  2
_Open30
 10
216.1999999999999
 20
117.4066676204567
 30
0.0
 41
3.0
 42
3.0
 43
3.0
  0
MTEXT
  5
855
330
84E
100
AcDbEntity
  8
LAY-1
  6
Continuous
 62
     0
100
AcDbMText
 10
220.29
 20
117.4066676204567
 30
0.0
 40
3.0
 41
0.0
 71
     5
 72
     1
  1
\A1;7
 73
     1
 44
1.0
  0
POINT
  5
856
330
84E
100
AcDbEntity
  8
Defpoints
  6
Continuous
 62
     0
100
AcDbPoint
 10
209.6999999999999
 20
119.9
 30
0.0
  0
POINT
  5
857
330
84E
100
AcDbEntity
  8
Defpoints
  6
Continuous
 62
     0
100
AcDbPoint
 10
216.1999999999999
 20
119.9
 30
0.0
  0
POINT
  5
858
330
84E
100
AcDbEntity
  8
Defpoints
  6
Continuous
 62
     0
100
AcDbPoint
 10
216.1999999999999
 20
117.4066676204567
 30
0.0
  0
ENDBLK
  5
85A
330
84E
100
AcDbEntity
  8
0
 62
     1
100
AcDbBlockEnd
  0
BLOCK
  5
A53
330
A48
100
AcDbEntity
  8
0
 62
     1
100
AcDbBlockBegin
  2
*D40
 70
     1
 10
0.0
 20
0.0
 30
0.0
  3
*D40
  1

  0
LINE
  5
A49
330
A48
100
AcDbEntity
  8
LAY-1
  6
Continuous
 62
     0
370
    -2
100
AcDbLine
 10
212.6999999999999
 20
169.9625
 30
0.0
 11
212.6999999999999
 21
177.5879502275307
 31
0.0
  0
LINE
  5
A4A
330
A48
100
AcDbEntity
  8
LAY-1
  6
Continuous
 62
     0
370
    -2
100
AcDbLine
 10
216.1999999999999
 20
169.9625
 30
0.0
 11
216.1999999999999
 21
177.5879502275307
 31
0.0
  0
LINE
  5
A4B
330
A48
100
AcDbEntity
  8
LAY-1
  6
Continuous
 62
     0
370
    -2
100
AcDbLine
 10
209.6999999999999
 20
175.5879502275307
 30
0.0
 11
206.6999999999999
 21
175.5879502275307
 31
0.0
  0
LINE
  5
A4C
330
A48
100
AcDbEntity
  8
LAY-1
  6
Continuous
 62
     0
370
    -2
100
AcDbLine
 10
219.1999999999999
 20
175.5879502275307
 30
0.0
 11
230.3799999999999
 21
175.5879502275307
 31
0.0
  0
INSERT
  5
A4D
330
A48
100
AcDbEntity
  8
LAY-1
  6
Continuous
 62
     0
370
    -2
100
AcDbBlockReference
  2
_Open30
 10
212.6999999999999
 20
175.5879502275307
 30
0.0
 41
3.0
 42
3.0
 43
3.0
  0
INSERT
  5
A4E
330
A48
100
AcDbEntity
  8
LAY-1
  6
Continuous
 62
     0
370
    -2
100
AcDbBlockReference
  2
_Open30
 10
216.1999999999999
 20
175.5879502275307
 30
0.0
 41
3.0
 42
3.0
 43
3.0
 50
180.0
  0
MTEXT
  5
A4F
330
A48
100
AcDbEntity
  8
LAY-1
  6
Continuous
 62
     0
100
AcDbMText
 10
226.29
 20
177.1779502275307
 30
0.0
 40
3.0
 41
0.0
 71
     5
 72
     1
  1
\A1;3.5
 73
     1
 44
1.0
  0
POINT
  5
A50
330
A48
100
AcDbEntity
  8
Defpoints
  6
Continuous
 62
     0
100
AcDbPoint
 10
212.6999999999999
 20
169.9
 30
0.0
  0
POINT
  5
A51
330
A48
100
AcDbEntity
  8
Defpoints
  6
Continuous
 62
     0
100
AcDbPoint
 10
216.1999999999999
 20
169.9
 30
0.0
  0
POINT
  5
A52
330
A48
100
AcDbEntity
  8
Defpoints
  6
Continuous
 62
     0
100
AcDbPoint
 10
216.1999999999999
 20
175.5879502275307
 30
0.0
  0
ENDBLK
  5
A54
330
A48
100
AcDbEntity
  8
0
 62
     1
100
AcDbBlockEnd
  0
BLOCK
  5
A61
330
A56
100
AcDbEntity
  8
0
 62
     1
100
AcDbBlockBegin
  2
*D41
 70
     1
 10
0.0
 20
0.0
 30
0.0
  3
*D41
  1

  0
LINE
  5
A57
330
A56
100
AcDbEntity
  8
LAY-1
  6
Continuous
 62
     0
370
    -2
100
AcDbLine
 10
209.6999999999999
 20
119.8375
 30
0.0
 11
209.6999999999999
 21
113.8976426395154
 31
0.0
  0
LINE
  5
A58
330
A56
100
AcDbEntity
  8
LAY-1
  6
Continuous
 62
     0
370
    -2
100
AcDbLine
 10
216.1999999999999
 20
119.8375
 30
0.0
 11
216.1999999999999
 21
113.8976426395154
 31
0.0
  0
LINE
  5
A59
330
A56
100
AcDbEntity
  8
LAY-1
  6
Continuous
 62
     0
370
    -2
100
AcDbLine
 10
212.6999999999999
 20
115.8976426395154
 30
0.0
 11
213.2
 21
115.8976426395154
 31
0.0
  0
LINE
  5
A5A
330
A56
100
AcDbEntity
  8
LAY-1
  6
Continuous
 62
     0
370
    -2
100
AcDbLine
 10
216.1999999999999
 20
115.8976426395154
 30
0.0
 11
227.38
 21
115.8976426395154
 31
0.0
  0
INSERT
  5
A5B
330
A56
100
AcDbEntity
  8
LAY-1
  6
Continuous
 62
     0
370
    -2
100
AcDbBlockReference
  2
_Open30
 10
209.6999999999999
 20
115.8976426395154
 30
0.0
 41
3.0
 42
3.0
 43
3.0
 50
180.0
  0
INSERT
  5
A5C
330
A56
100
AcDbEntity
  8
LAY-1
  6
Continuous
 62
     0
370
    -2
100
AcDbBlockReference
  2
_Open30
 10
216.1999999999999
 20
115.8976426395154
 30
0.0
 41
3.0
 42
3.0
 43
3.0
  0
MTEXT
  5
A5D
330
A56
100
AcDbEntity
  8
LAY-1
  6
Continuous
 62
     0
100
AcDbMText
 10
223.2899999999999
 20
114.3076426395154
 30
0.0
 40
3.0
 41
0.0
 71
     5
 72
     1
  1
\A1;6.5
 73
     1
 44
1.0
  0
POINT
  5
A5E
330
A56
100
AcDbEntity
  8
Defpoints
  6
Continuous
 62
     0
100
AcDbPoint
 10
209.6999999999999
 20
119.9
 30
0.0
  0
POINT
  5
A5F
330
A56
100
AcDbEntity
  8
Defpoints
  6
Continuous
 62
     0
100
AcDbPoint
 10
216.1999999999999
 20
119.9
 30
0.0
  0
POINT
  5
A60
330
A56
100
AcDbEntity
  8
Defpoints
  6
Continuous
 62
     0
100
AcDbPoint
 10
216.1999999999999
 20
115.8976426395154
 30
0.0
  0
ENDBLK
  5
A62
330
A56
100
AcDbEntity
  8
0
 62
     1
100
AcDbBlockEnd
  0
ENDSEC
  0
SECTION
  2
ENTITIES
  0
LINE
  5
8E
330
A
100
AcDbEntity
  8
LAY-1
  6
Continuous
 62
     3
100
AcDbLine
 10
287.2608339999999
 20
8.0
 30
0.0
 11
9.0
 21
8.0
 31
0.0
  0
LINE
  5
8F
330
A
100
AcDbEntity
  8
LAY-1
  6
Continuous
 62
     3
100
AcDbLine
 10
287.2608339999999
 20
8.0
 30
0.0
 11
287.2608339999999
 21
201.0000039999999
 31
0.0
  0
LINE
  5
90
330
A
100
AcDbEntity
  8
LAY-1
  6
Continuous
 62
     3
100
AcDbLine
 10
9.0
 20
8.0
 30
0.0
 11
9.0
 21
201.0000039999999
 31
0.0
  0
LINE
  5
91
330
A
100
AcDbEntity
  8
LAY-1
  6
Continuous
 62
     3
100
AcDbLine
 10
9.0
 20
201.0000039999999
 30
0.0
 11
287.2608339999999
 21
201.0000039999999
 31
0.0
  0
POINT
  5
92
330
A
100
AcDbEntity
  8
LAY-1
  6
Continuous
 62
     5
100
AcDbPoint
 10
287.2608339999999
 20
8.0
 30
0.0
  0
POINT
  5
93
330
A
100
AcDbEntity
  8
LAY-1
  6
Continuous
 62
     5
100
AcDbPoint
 10
287.2608339999999
 20
16.5
 30
0.0
  0
POINT
  5
94
330
A
100
AcDbEntity
  8
LAY-1
  6
Continuous
 62
     5
100
AcDbPoint
 10
287.2608339999999
 20
8.0
 30
0.0
  0
POINT
  5
95
330
A
100
AcDbEntity
  8
LAY-1
  6
Continuous
 62
     5
100
AcDbPoint
 10
287.2608339999999
 20
25.0
 30
0.0
  0
POINT
  5
96
330
A
100
AcDbEntity
  8
LAY-1
  6
Continuous
 62
     5
100
AcDbPoint
 10
287.2608339999999
 20
8.0
 30
0.0
  0
POINT
  5
97
330
A
100
AcDbEntity
  8
LAY-1
  6
Continuous
 62
     5
100
AcDbPoint
 10
287.2608339999999
 20
33.5
 30
0.0
  0
POINT
  5
98
330
A
100
AcDbEntity
  8
LAY-1
  6
Continuous
 62
     5
100
AcDbPoint
 10
287.2608339999999
 20
8.0
 30
0.0
  0
POINT
  5
99
330
A
100
AcDbEntity
  8
LAY-1
  6
Continuous
 62
     5
100
AcDbPoint
 10
151.260834
 20
8.000005999999999
 30
0.0
  0
POINT
  5
A2
330
A
100
AcDbEntity
  8
LAY-1
  6
Continuous
 62
     5
100
AcDbPoint
 10
287.2608339999999
 20
8.0
 30
0.0
  0
POINT
  5
A3
330
A
100
AcDbEntity
  8
LAY-1
  6
Continuous
 62
     5
100
AcDbPoint
 10
236.2608339999999
 20
8.0
 30
0.0
  0
POINT
  5
B9
330
A
100
AcDbEntity
  8
LAY-1
  6
Continuous
 62
     5
100
AcDbPoint
 10
143.2966919999999
 20
7.999979999999999
 30
0.0
  0
LWPOLYLINE
  5
BA
330
A
100
AcDbEntity
  8
LAY-1
  6
Continuous
 62
     3
100
AcDbPolyline
 90
        5
 70
   128
 43
0.0
 10
72.0
 20
119.9
 10
142.0
 20
119.9
 10
142.0
 20
169.9
 10
72.0
 20
169.9
 10
72.0
 20
119.9
  0
POINT
  5
C6
330
A
100
AcDbEntity
  8
LAY-1
  6
Continuous
 62
     3
100
AcDbPoint
 10
142.0
 20
119.9
 30
0.0
  0
POINT
  5
C7
330
A
100
AcDbEntity
  8
LAY-1
  6
Continuous
 62
     3
100
AcDbPoint
 10
142.0
 20
119.9
 30
0.0
  0
POINT
  5
C8
330
A
100
AcDbEntity
  8
LAY-1
  6
Continuous
 62
     3
100
AcDbPoint
 10
72.0
 20
119.9
 30
0.0
  0
POINT
  5
C9
330
A
100
AcDbEntity
  8
LAY-1
  6
Continuous
 62
     3
100
AcDbPoint
 10
79.0
 20
162.9
 30
0.0
  0
POINT
  5
CA
330
A
100
AcDbEntity
  8
LAY-1
  6
Continuous
 62
     3
100
AcDbPoint
 10
135.0
 20
162.9
 30
0.0
  0
POINT
  5
CB
330
A
100
AcDbEntity
  8
LAY-1
  6
Continuous
 62
     3
100
AcDbPoint
 10
201.2
 20
119.9
 30
0.0
  0
POINT
  5
CC
330
A
100
AcDbEntity
  8
LAY-1
  6
Continuous
 62
     3
100
AcDbPoint
 10
187.9499999999999
 20
119.9
 30
0.0
  0
POINT
  5
CD
330
A
100
AcDbEntity
  8
LAY-1
  6
Continuous
 62
     3
100
AcDbPoint
 10
142.0
 20
73.97358529233947
 30
0.0
  0
LINE
  5
CE
330
A
100
AcDbEntity
  8
LAY-1
  6
Continuous
 62
     3
100
AcDbLine
 10
187.9499999999999
 20
119.9
 30
0.0
 11
187.9499999999999
 21
169.9
 31
0.0
  0
LWPOLYLINE
  5
CF
330
A
100
AcDbEntity
  8
LAY-1
  6
Continuous
 62
     3
100
AcDbPolyline
 90
        3
 70
   128
 43
0.0
 10
72.0
 20
45.72358529233947
 10
142.0
 20
45.72358529233947
 10
142.0
 20
73.97358529233947
  0
LINE
  5
D4
330
A
100
AcDbEntity
  8
LAY-1
  6
Continuous
 62
     3
100
AcDbLine
 10
72.0
 20
73.97358529233947
 30
0.0
 11
72.0
 21
45.72358529233947
 31
0.0
  0
LWPOLYLINE
  5
D5
330
A
100
AcDbEntity
  8
LAY-1
  6
Continuous
 62
     3
100
AcDbPolyline
 90
        4
 70
   128
 43
0.0
 10
187.9499999999999
 20
119.9
 10
216.1999999999999
 20
119.9
 10
216.1999999999999
 20
169.9
 10
187.9499999999999
 20
169.9
  0
DIMENSION
  5
E6
330
A
100
AcDbEntity
  8
LAY-1
  6
Continuous
 62
     1
100
AcDbDimension
  2
*D8
 10
187.9499999999999
 20
192.6999999999999
 30
0.0
 11
202.075
 21
194.6999999999999
 31
0.0
 70
    32
 71
     5
 42
28.25
  3
STANDARD
100
AcDbAlignedDimension
 13
216.1999999999999
 23
169.9
 33
0.0
 14
187.9499999999999
 24
169.9
 34
0.0
100
AcDbRotatedDimension
1001
ACAD
1000
DSTYLE
1002
{
1070
     6
1000
_EX_NORM
1070
     7
1000
_EX_NORM
1070
    41
1040
3.0
1070
    42
1040
1.5
1070
    44
1040
1.5
1070
    73
1070
     0
1070
    74
1070
     0
1070
    75
1070
     0
1070
    76
1070
     0
1070
    77
1070
     1
1070
    78
1070
     8
1070
   140
1040
3.0
1070
   147
1040
0.5
1070
   173
1070
     1
1070
   176
1070
     1
1070
   177
1070
     1
1070
   178
1070
     1
1070
   271
1070
     3
1070
   280
1070
     0
1070
   287
1070
     3
1002
}
  0
DIMENSION
  5
F2
330
A
100
AcDbEntity
  8
LAY-1
  6
Continuous
 62
     1
100
AcDbDimension
  2
*D9
 10
72.0
 20
192.6999999999999
 30
0.0
 11
107.0
 21
194.6999999999999
 31
0.0
 70
    32
 71
     5
 42
70.0
  3
STANDARD
100
AcDbAlignedDimension
 13
142.0
 23
169.9
 33
0.0
 14
72.0
 24
169.9
 34
0.0
100
AcDbRotatedDimension
1001
ACAD
1000
DSTYLE
1002
{
1070
     6
1000
_EX_NORM
1070
     7
1000
_EX_NORM
1070
    41
1040
3.0
1070
    42
1040
1.5
1070
    44
1040
1.5
1070
    73
1070
     0
1070
    74
1070
     0
1070
    75
1070
     0
1070
    76
1070
     0
1070
    77
1070
     1
1070
    78
1070
     8
1070
   140
1040
3.0
1070
   147
1040
0.5
1070
   173
1070
     1
1070
   176
1070
     1
1070
   177
1070
     1
1070
   178
1070
     1
1070
   271
1070
     3
1070
   280
1070
     0
1070
   287
1070
     3
1002
}
  0
DIMENSION
  5
FE
330
A
100
AcDbEntity
  8
LAY-1
  6
Continuous
 62
     1
100
AcDbDimension
  2
*D10
 10
43.6
 20
119.9
 30
0.0
 11
41.59999999999998
 21
144.9
 31
0.0
 70
    32
 71
     5
 42
50.00000000000001
  3
STANDARD
100
AcDbAlignedDimension
 13
72.0
 23
169.9
 33
0.0
 14
72.0
 24
119.9
 34
0.0
 50
90.0
100
AcDbRotatedDimension
1001
ACAD
1000
DSTYLE
1002
{
1070
     6
1000
_EX_NORM
1070
     7
1000
_EX_NORM
1070
    41
1040
3.0
1070
    42
1040
1.5
1070
    44
1040
1.5
1070
    73
1070
     0
1070
    74
1070
     0
1070
    75
1070
     0
1070
    76
1070
     0
1070
    77
1070
     1
1070
    78
1070
     8
1070
   140
1040
3.0
1070
   147
1040
0.5
1070
   173
1070
     1
1070
   176
1070
     1
1070
   177
1070
     1
1070
   178
1070
     1
1070
   271
1070
     3
1070
   280
1070
     0
1070
   287
1070
     3
1002
}
  0
DIMENSION
  5
10A
330
A
100
AcDbEntity
  8
LAY-1
  6
Continuous
 62
     1
100
AcDbDimension
  2
*D11
 10
43.2
 20
45.72358529233948
 30
0.0
 11
41.2
 21
59.8485852923395
 31
0.0
 70
    32
 71
     5
 42
28.25
  3
STANDARD
100
AcDbAlignedDimension
 13
72.0
 23
73.97358529233947
 33
0.0
 14
72.0
 24
45.72358529233947
 34
0.0
 50
90.0
100
AcDbRotatedDimension
1001
ACAD
1000
DSTYLE
1002
{
1070
     6
1000
_EX_NORM
1070
     7
1000
_EX_NORM
1070
    41
1040
3.0
1070
    42
1040
1.5
1070
    44
1040
1.5
1070
    73
1070
     0
1070
    74
1070
     0
1070
    75
1070
     0
1070
    76
1070
     0
1070
    77
1070
     1
1070
    78
1070
     8
1070
   140
1040
3.0
1070
   147
1040
0.5
1070
   173
1070
     1
1070
   176
1070
     1
1070
   177
1070
     1
1070
   178
1070
     1
1070
   271
1070
     3
1070
   280
1070
     0
1070
   287
1070
     3
1002
}
  0
TEXT
  5
10B
330
A
100
AcDbEntity
  8
LAY-1
  6
Continuous
 62
     1
100
AcDbText
 10
24.63499099999999
 20
192.61931
 30
0.0
 40
3.0
  1
2 - φ5.2
 41
0.8490566037735851
  7
EXCADSTD
 72
     5
 11
42.63499099999999
 21
192.61931
 31
0.0
100
AcDbText
  0
LEADER
  5
10C
330
A
100
AcDbEntity
  8
LAY-1
  6
Continuous
 62
     1
100
AcDbLeader
  3
STANDARD
 76
     3
 10
75.425803
 20
164.628498
 30
0.0
 10
47.934991
 20
192.11931
 30
0.0
 10
19.33499099999999
 20
192.11931
 30
0.0
1001
ACAD
1000
DSTYLE
1002
{
1070
    41
1040
3.0
1070
     5
1000
_EX_NORM
1070
     6
1000
_EX_NORM
1070
     7
1000
_EX_NORM
1002
}
  0
LEADER
  5
10D
330
A
100
AcDbEntity
  8
LAY-1
  6
Continuous
 62
     1
100
AcDbLeader
  3
STANDARD
 76
     3
 10
74.91002299999999
 20
148.2231129999999
 30
0.0
 10
62.340751
 20
101.3139519999999
 30
0.0
 10
10.47113139015027
 20
101.3139519999999
 30
0.0
1001
ACAD
1000
DSTYLE
1002
{
1070
    41
1040
3.0
1070
     5
1000
_EX_NORM
1070
     6
1000
_EX_NORM
1070
     7
1000
_EX_NORM
1002
}
  0
TEXT
  5
10E
330
A
100
AcDbEntity
  8
LAY-1
  6
Continuous
 62
     1
100
AcDbText
 10
10.85183953600477
 20
103.0920654102817
 30
0.0
 40
3.0
  1
2 - φ4.3　φ8 C'bore 6 deep
 41
0.7306590257879653
  7
EXCADSTD
 72
     5
 11
61.85183953600478
 21
103.0920654102817
 31
0.0
100
AcDbText
  0
POINT
  5
10F
330
A
100
AcDbEntity
  8
LAY-1
  6
Continuous
 62
     3
100
AcDbPoint
 10
75.0
 20
149.9
 30
0.0
  0
CIRCLE
  5
110
330
A
100
AcDbEntity
  8
LAY-1
  6
Continuous
 62
     1
100
AcDbCircle
 10
75.0
 20
149.9
 30
0.0
 40
2.0
  0
POINT
  5
111
330
A
100
AcDbEntity
  8
LAY-1
  6
Continuous
 62
     3
100
AcDbPoint
 10
139.0
 20
149.9
 30
0.0
  0
CIRCLE
  5
112
330
A
100
AcDbEntity
  8
LAY-1
  6
Continuous
 62
     1
100
AcDbCircle
 10
139.0
 20
149.9
 30
0.0
 40
2.0
  0
LINE
  5
113
330
A
100
AcDbEntity
  8
LAY-1
  6
Continuous
 62
     3
100
AcDbLine
 10
72.0
 20
124.0653
 30
0.0
 11
83.003938
 21
169.9
 31
0.0
  0
LINE
  5
114
330
A
100
AcDbEntity
  8
LAY-1
  6
Continuous
 62
     3
100
AcDbLine
 10
142.0
 20
124.0653
 30
0.0
 11
130.996062
 21
169.9
 31
0.0
  0
LINE
  5
115
330
A
100
AcDbEntity
  8
LAY-1
  6
DOT
 62
     3
100
AcDbLine
 10
202.1999999999999
 20
119.9
 30
0.0
 11
207.89678
 21
169.9
 31
0.0
  0
POINT
  5
116
330
A
100
AcDbEntity
  8
LAY-1
  6
Continuous
 62
     3
100
AcDbPoint
 10
72.0
 20
59.72358529233948
 30
0.0
  0
LINE
  5
117
330
A
100
AcDbEntity
  8
LAY-1
  6
Continuous
 62
     3
100
AcDbLine
 10
83.003938
 20
73.97358529233947
 30
0.0
 11
72.0
 21
73.97358529233947
 31
0.0
  0
LINE
  5
118
330
A
100
AcDbEntity
  8
LAY-1
  6
Continuous
 62
     3
100
AcDbLine
 10
142.0
 20
73.97358529233947
 30
0.0
 11
130.996062
 21
73.97358529233947
 31
0.0
  0
LINE
  5
119
330
A
100
AcDbEntity
  8
LAY-1
  6
Continuous
 62
     3
100
AcDbLine
 10
83.003938
 20
73.97358529233947
 30
0.0
 11
83.003938
 21
59.72358529233948
 31
0.0
  0
LINE
  5
11A
330
A
100
AcDbEntity
  8
LAY-1
  6
Continuous
 62
     3
100
AcDbLine
 10
130.996062
 20
73.97358529233947
 30
0.0
 11
130.996062
 21
59.72358529233948
 31
0.0
  0
LINE
  5
11B
330
A
100
AcDbEntity
  8
LAY-1
  6
DOT
 62
     3
100
AcDbLine
 10
83.003938
 20
59.72358529233948
 30
0.0
 11
83.003938
 21
54.02658529233947
 31
0.0
  0
LINE
  5
11C
330
A
100
AcDbEntity
  8
LAY-1
  6
DOT
 62
     3
100
AcDbLine
 10
130.996062
 20
59.72358529233948
 30
0.0
 11
130.996062
 21
54.02658529233947
 31
0.0
  0
LINE
  5
11D
330
A
100
AcDbEntity
  8
LAY-1
  6
DOT
 62
     3
100
AcDbLine
 10
84.00393800000001
 20
54.02658529233947
 30
0.0
 11
83.003938
 21
54.02658529233947
 31
0.0
  0
LINE
  5
11E
330
A
100
AcDbEntity
  8
LAY-1
  6
DOT
 62
     3
100
AcDbLine
 10
129.996062
 20
54.02658529233947
 30
0.0
 11
130.996062
 21
54.02658529233947
 31
0.0
  0
LINE
  5
11F
330
A
100
AcDbEntity
  8
LAY-1
  6
DOT
 62
     3
100
AcDbLine
 10
130.996062
 20
54.02658529233947
 30
0.0
 11
142.0
 21
59.72358529233948
 31
0.0
  0
LINE
  5
120
330
A
100
AcDbEntity
  8
LAY-1
  6
DOT
 62
     3
100
AcDbLine
 10
83.003938
 20
54.02658529233947
 30
0.0
 11
72.0
 21
59.72358529233948
 31
0.0
  0
CIRCLE
  5
121
330
A
100
AcDbEntity
  8
LAY-1
  6
Continuous
 62
     3
100
AcDbCircle
 10
77.5
 20
162.9
 30
0.0
 40
2.7
  0
CIRCLE
  5
122
330
A
100
AcDbEntity
  8
LAY-1
  6
Continuous
 62
     3
100
AcDbCircle
 10
136.4999999999999
 20
162.9
 30
0.0
 40
2.7
  0
DIMENSION
  5
12C
330
A
100
AcDbEntity
  8
LAY-1
  6
Continuous
 62
     1
100
AcDbDimension
  2
*D12
 10
77.5
 20
185.7
 30
0.0
 11
88.0
 21
187.6999999999999
 31
0.0
 70
    32
 71
     5
 42
5.5
  3
STANDARD
100
AcDbAlignedDimension
 13
72.0
 23
169.9
 33
0.0
 14
77.5
 24
162.9
 34
0.0
100
AcDbRotatedDimension
1001
ACAD
1000
DSTYLE
1002
{
1070
     6
1000
_EX_NORM
1070
     7
1000
_EX_NONE
1070
    41
1040
3.0
1070
    42
1040
1.5
1070
    44
1040
1.5
1070
    73
1070
     0
1070
    74
1070
     0
1070
    75
1070
     0
1070
    76
1070
     0
1070
    77
1070
     1
1070
    78
1070
     8
1070
   140
1040
3.0
1070
   147
1040
0.5
1070
   173
1070
     1
1070
   176
1070
     1
1070
   177
1070
     1
1070
   178
1070
     1
1070
   271
1070
     3
1070
   280
1070
     0
1070
   287
1070
     3
1002
}
  0
DIMENSION
  5
137
330
A
100
AcDbEntity
  8
LAY-1
  6
Continuous
 62
     1
100
AcDbDimension
  2
*D13
 10
136.4999999999999
 20
185.7
 30
0.0
 11
107.0
 21
187.6999999999999
 31
0.0
 70
    32
 71
     5
 42
59.0
  3
STANDARD
100
AcDbAlignedDimension
 13
77.5
 23
162.9
 33
0.0
 14
136.4999999999999
 24
162.9
 34
0.0
100
AcDbRotatedDimension
1001
ACAD
1000
DSTYLE
1002
{
1070
     6
1000
_EX_NORM
1070
     7
1000
_EX_NORM
1070
    41
1040
3.0
1070
    42
1040
1.5
1070
    44
1040
1.5
1070
    73
1070
     0
1070
    74
1070
     0
1070
    75
1070
     1
1070
    76
1070
     0
1070
    77
1070
     1
1070
    78
1070
     8
1070
   140
1040
3.0
1070
   147
1040
0.5
1070
   173
1070
     1
1070
   176
1070
     1
1070
   177
1070
     1
1070
   178
1070
     1
1070
   271
1070
     3
1070
   280
1070
     0
1070
   287
1070
     3
1002
}
  0
DIMENSION
  5
140
330
A
100
AcDbEntity
  8
LAY-1
  6
Continuous
 62
     1
100
AcDbDimension
  2
*D14
 10
142.0
 20
185.7
 30
0.0
 11
146.5
 21
187.6999999999999
 31
0.0
 70
    32
 71
     5
 42
5.5
  3
STANDARD
100
AcDbAlignedDimension
 13
136.4999999999999
 23
162.9
 33
0.0
 14
142.0
 24
169.9
 34
0.0
100
AcDbRotatedDimension
1001
ACAD
1000
DSTYLE
1002
{
1070
     6
1000
_EX_NONE
1070
     7
1000
_EX_NORM
1070
    41
1040
0.0
1070
    42
1040
1.5
1070
    44
1040
1.5
1070
    73
1070
     0
1070
    74
1070
     0
1070
    75
1070
     1
1070
    76
1070
     0
1070
    77
1070
     1
1070
    78
1070
     8
1070
   140
1040
3.0
1070
   147
1040
0.5
1070
   173
1070
     1
1070
   176
1070
     1
1070
   177
1070
     1
1070
   178
1070
     1
1070
   271
1070
     3
1070
   280
1070
     0
1070
   287
1070
     3
1002
}
  0
DIMENSION
  5
14C
330
A
100
AcDbEntity
  8
LAY-1
  6
Continuous
 62
     1
100
AcDbDimension
  2
*D15
 10
83.003938
 20
177.8270596414247
 30
0.0
 11
77.501969
 21
177.8270596414247
 31
0.0
 70
   160
 71
     5
 42
11.003938
  3
STANDARD
100
AcDbAlignedDimension
 13
72.0
 23
169.9
 33
0.0
 14
83.003938
 24
169.9
 34
0.0
100
AcDbRotatedDimension
1001
ACAD
1000
DSTYLE
1002
{
1070
     6
1000
_EX_NORM
1070
     7
1000
_EX_NORM
1070
    41
1040
3.0
1070
    42
1040
1.5
1070
    44
1040
1.5
1070
    73
1070
     0
1070
    74
1070
     0
1070
    75
1070
     0
1070
    76
1070
     0
1070
    77
1070
     1
1070
    78
1070
     8
1070
   140
1040
3.0
1070
   147
1040
0.5
1070
   173
1070
     1
1070
   176
1070
     1
1070
   177
1070
     1
1070
   178
1070
     1
1070
   271
1070
     3
1070
   280
1070
     0
1070
   287
1070
     3
1002
}
  0
DIMENSION
  5
157
330
A
100
AcDbEntity
  8
LAY-1
  6
Continuous
 62
     1
100
AcDbDimension
  2
*D16
 10
130.996062
 20
177.8270596414247
 30
0.0
 11
106.7177102699027
 21
177.8270596414247
 31
0.0
 70
   160
 71
     5
 42
47.99212400000001
  3
STANDARD
100
AcDbAlignedDimension
 13
83.003938
 23
169.9
 33
0.0
 14
130.996062
 24
169.9
 34
0.0
100
AcDbRotatedDimension
1001
ACAD
1000
DSTYLE
1002
{
1070
     6
1000
_EX_NORM
1070
     7
1000
_EX_NORM
1070
    41
1040
3.0
1070
    42
1040
1.5
1070
    44
1040
1.5
1070
    73
1070
     0
1070
    74
1070
     0
1070
    75
1070
     1
1070
    76
1070
     0
1070
    77
1070
     1
1070
    78
1070
     8
1070
   140
1040
3.0
1070
   147
1040
0.5
1070
   173
1070
     1
1070
   176
1070
     1
1070
   177
1070
     1
1070
   178
1070
     1
1070
   271
1070
     3
1070
   280
1070
     0
1070
   287
1070
     3
1002
}
  0
DIMENSION
  5
162
330
A
100
AcDbEntity
  8
LAY-1
  6
Continuous
 62
     1
100
AcDbDimension
  2
*D17
 10
142.0
 20
178.0
 30
0.0
 11
154.0
 21
180.0
 31
0.0
 70
    32
 71
     5
 42
11.00393799999997
  3
STANDARD
100
AcDbAlignedDimension
 13
130.996062
 23
169.9
 33
0.0
 14
142.0
 24
169.9
 34
0.0
100
AcDbRotatedDimension
1001
ACAD
1000
DSTYLE
1002
{
1070
     6
1000
_EX_NORM
1070
     7
1000
_EX_NORM
1070
    41
1040
3.0
1070
    42
1040
1.5
1070
    44
1040
1.5
1070
    73
1070
     0
1070
    74
1070
     0
1070
    75
1070
     1
1070
    76
1070
     0
1070
    77
1070
     1
1070
    78
1070
     8
1070
   140
1040
3.0
1070
   147
1040
0.5
1070
   173
1070
     1
1070
   176
1070
     1
1070
   177
1070
     1
1070
   178
1070
     1
1070
   271
1070
     3
1070
   280
1070
     0
1070
   287
1070
     3
1002
}
  0
DIMENSION
  5
16C
330
A
100
AcDbEntity
  8
LAY-1
  6
Continuous
 62
     1
100
AcDbDimension
  2
*D18
 10
75.0
 20
109.0999999999999
 30
0.0
 11
79.5
 21
111.0999999999999
 31
0.0
 70
    32
 71
     5
 42
3.0
  3
STANDARD
100
AcDbAlignedDimension
 13
72.0
 23
119.9
 33
0.0
 14
75.0
 24
149.9
 34
0.0
100
AcDbRotatedDimension
1001
ACAD
1000
DSTYLE
1002
{
1070
     6
1000
_EX_NORM
1070
     7
1000
_EX_NONE
1070
    41
1040
3.0
1070
    42
1040
1.5
1070
    44
1040
1.5
1070
    73
1070
     0
1070
    74
1070
     0
1070
    75
1070
     0
1070
    76
1070
     0
1070
    77
1070
     1
1070
    78
1070
     8
1070
   140
1040
3.0
1070
   147
1040
0.5
1070
   173
1070
     1
1070
   176
1070
     1
1070
   177
1070
     1
1070
   178
1070
     1
1070
   271
1070
     3
1070
   280
1070
     0
1070
   287
1070
     3
1002
}
  0
DIMENSION
  5
177
330
A
100
AcDbEntity
  8
LAY-1
  6
Continuous
 62
     1
100
AcDbDimension
  2
*D19
 10
139.0
 20
109.0999999999999
 30
0.0
 11
107.0
 21
111.0999999999999
 31
0.0
 70
    32
 71
     5
 42
64.0
  3
STANDARD
100
AcDbAlignedDimension
 13
75.0
 23
149.9
 33
0.0
 14
139.0
 24
149.9
 34
0.0
100
AcDbRotatedDimension
1001
ACAD
1000
DSTYLE
1002
{
1070
     6
1000
_EX_NORM
1070
     7
1000
_EX_NORM
1070
    41
1040
3.0
1070
    42
1040
1.5
1070
    44
1040
1.5
1070
    73
1070
     0
1070
    74
1070
     0
1070
    75
1070
     1
1070
    76
1070
     0
1070
    77
1070
     1
1070
    78
1070
     8
1070
   140
1040
3.0
1070
   147
1040
0.5
1070
   173
1070
     1
1070
   176
1070
     1
1070
   177
1070
     1
1070
   178
1070
     1
1070
   271
1070
     3
1070
   280
1070
     0
1070
   287
1070
     3
1002
}
  0
DIMENSION
  5
180
330
A
100
AcDbEntity
  8
LAY-1
  6
Continuous
 62
     1
100
AcDbDimension
  2
*D20
 10
142.0
 20
109.0999999999999
 30
0.0
 11
143.5
 21
111.0999999999999
 31
0.0
 70
    32
 71
     5
 42
3.0
  3
STANDARD
100
AcDbAlignedDimension
 13
139.0
 23
149.9
 33
0.0
 14
142.0
 24
119.9
 34
0.0
100
AcDbRotatedDimension
1001
ACAD
1000
DSTYLE
1002
{
1070
     6
1000
_EX_NONE
1070
     7
1000
_EX_NORM
1070
    41
1040
0.0
1070
    42
1040
1.5
1070
    44
1040
1.5
1070
    73
1070
     0
1070
    74
1070
     0
1070
    75
1070
     1
1070
    76
1070
     0
1070
    77
1070
     1
1070
    78
1070
     8
1070
   140
1040
3.0
1070
   147
1040
0.5
1070
   173
1070
     1
1070
   176
1070
     1
1070
   177
1070
     1
1070
   178
1070
     1
1070
   271
1070
     3
1070
   280
1070
     0
1070
   287
1070
     3
1002
}
  0
DIMENSION
  5
18C
330
A
100
AcDbEntity
  8
LAY-1
  6
Continuous
 62
     1
100
AcDbDimension
  2
*D21
 10
207.89678
 20
182.0
 30
0.0
 11
197.9233899999999
 21
184.0
 31
0.0
 70
    32
 71
     5
 42
19.94678000000001
  3
STANDARD
100
AcDbAlignedDimension
 13
187.9499999999999
 23
169.9
 33
0.0
 14
207.89678
 24
169.9
 34
0.0
100
AcDbRotatedDimension
1001
ACAD
1000
DSTYLE
1002
{
1070
     6
1000
_EX_NORM
1070
     7
1000
_EX_NORM
1070
    41
1040
3.0
1070
    42
1040
1.5
1070
    44
1040
1.5
1070
    73
1070
     0
1070
    74
1070
     0
1070
    75
1070
     0
1070
    76
1070
     0
1070
    77
1070
     1
1070
    78
1070
     8
1070
   140
1040
3.0
1070
   147
1040
0.5
1070
   173
1070
     1
1070
   176
1070
     1
1070
   177
1070
     1
1070
   178
1070
     1
1070
   271
1070
     3
1070
   280
1070
     0
1070
   287
1070
     3
1002
}
  0
DIMENSION
  5
195
330
A
100
AcDbEntity
  8
LAY-1
  6
Continuous
 62
     1
100
AcDbDimension
  2
*D22
 10
216.1999999999999
 20
182.0
 30
0.0
 11
227.1999999999999
 21
187.5
 31
0.0
 70
    32
 71
     5
 42
8.303219999999981
  3
STANDARD
100
AcDbAlignedDimension
 13
207.89678
 23
169.9
 33
0.0
 14
216.1999999999999
 24
169.9
 34
0.0
100
AcDbRotatedDimension
1001
ACAD
1000
DSTYLE
1002
{
1070
     6
1000
_EX_NONE
1070
     7
1000
_EX_NORM
1070
    41
1040
0.0
1070
    42
1040
1.5
1070
    44
1040
1.5
1070
    73
1070
     0
1070
    74
1070
     0
1070
    75
1070
     1
1070
    76
1070
     0
1070
    77
1070
     1
1070
    78
1070
     8
1070
   140
1040
3.0
1070
   147
1040
4.0
1070
   173
1070
     1
1070
   176
1070
     1
1070
   177
1070
     1
1070
   178
1070
     1
1070
   271
1070
     3
1070
   280
1070
     0
1070
   287
1070
     3
1002
}
  0
DIMENSION
  5
1A1
330
A
100
AcDbEntity
  8
LAY-1
  6
Continuous
 62
     1
100
AcDbDimension
  2
*D23
 10
202.1999999999999
 20
108.4
 30
0.0
 11
195.075
 21
108.4
 31
0.0
 70
   160
 71
     5
 42
14.25
  3
STANDARD
100
AcDbAlignedDimension
 13
187.9499999999999
 23
119.9
 33
0.0
 14
202.1999999999999
 24
119.9
 34
0.0
100
AcDbRotatedDimension
1001
ACAD
1000
DSTYLE
1002
{
1070
     6
1000
_EX_NORM
1070
     7
1000
_EX_NORM
1070
    41
1040
3.0
1070
    42
1040
1.5
1070
    44
1040
1.5
1070
    73
1070
     0
1070
    74
1070
     0
1070
    75
1070
     0
1070
    76
1070
     0
1070
    77
1070
     1
1070
    78
1070
     8
1070
   140
1040
3.0
1070
   147
1040
0.5
1070
   173
1070
     1
1070
   176
1070
     1
1070
   177
1070
     1
1070
   178
1070
     1
1070
   271
1070
     3
1070
   280
1070
     0
1070
   287
1070
     3
1002
}
  0
DIMENSION
  5
1AC
330
A
100
AcDbEntity
  8
LAY-1
  6
Continuous
 62
     1
100
AcDbDimension
  2
*D24
 10
216.1999999999999
 20
108.4
 30
0.0
 11
209.2
 21
110.4
 31
0.0
 70
    32
 71
     5
 42
14.0
  3
STANDARD
100
AcDbAlignedDimension
 13
202.1999999999999
 23
119.9
 33
0.0
 14
216.1999999999999
 24
119.9
 34
0.0
100
AcDbRotatedDimension
1001
ACAD
1000
DSTYLE
1002
{
1070
     6
1000
_EX_NORM
1070
     7
1000
_EX_NORM
1070
    41
1040
3.0
1070
    42
1040
1.5
1070
    44
1040
1.5
1070
    73
1070
     0
1070
    74
1070
     0
1070
    75
1070
     1
1070
    76
1070
     0
1070
    77
1070
     1
1070
    78
1070
     8
1070
   140
1040
3.0
1070
   147
1040
0.5
1070
   173
1070
     1
1070
   176
1070
     1
1070
   177
1070
     1
1070
   178
1070
     1
1070
   271
1070
     3
1070
   280
1070
     0
1070
   287
1070
     3
1002
}
  0
DIMENSION
  5
1B8
330
A
100
AcDbEntity
  8
LAY-1
  6
Continuous
 62
     1
100
AcDbDimension
  2
*D25
 10
58.2
 20
59.72358529233948
 30
0.0
 11
56.19999999999999
 21
52.72358529233949
 31
0.0
 70
    32
 71
     5
 42
14.0
  3
STANDARD
100
AcDbAlignedDimension
 13
72.0
 23
45.72358529233947
 33
0.0
 14
72.0
 24
59.72358529233948
 34
0.0
 50
90.0
100
AcDbRotatedDimension
1001
ACAD
1000
DSTYLE
1002
{
1070
     6
1000
_EX_NORM
1070
     7
1000
_EX_NORM
1070
    41
1040
3.0
1070
    42
1040
1.5
1070
    44
1040
1.5
1070
    73
1070
     0
1070
    74
1070
     0
1070
    75
1070
     0
1070
    76
1070
     0
1070
    77
1070
     1
1070
    78
1070
     8
1070
   140
1040
3.0
1070
   147
1040
0.5
1070
   173
1070
     1
1070
   176
1070
     1
1070
   177
1070
     1
1070
   178
1070
     1
1070
   271
1070
     3
1070
   280
1070
     0
1070
   287
1070
     3
1002
}
  0
DIMENSION
  5
1C3
330
A
100
AcDbEntity
  8
LAY-1
  6
Continuous
 62
     1
100
AcDbDimension
  2
*D26
 10
58.2
 20
73.97358529233947
 30
0.0
 11
56.2
 21
84.4735852923395
 31
0.0
 70
    32
 71
     5
 42
14.25
  3
STANDARD
100
AcDbAlignedDimension
 13
72.0
 23
59.72358529233948
 33
0.0
 14
72.0
 24
73.97358529233947
 34
0.0
 50
90.0
100
AcDbRotatedDimension
1001
ACAD
1000
DSTYLE
1002
{
1070
     6
1000
_EX_NORM
1070
     7
1000
_EX_NORM
1070
    41
1040
3.0
1070
    42
1040
1.5
1070
    44
1040
1.5
1070
    73
1070
     0
1070
    74
1070
     0
1070
    75
1070
     1
1070
    76
1070
     0
1070
    77
1070
     1
1070
    78
1070
     8
1070
   140
1040
3.0
1070
   147
1040
0.5
1070
   173
1070
     1
1070
   176
1070
     1
1070
   177
1070
     1
1070
   178
1070
     1
1070
   271
1070
     3
1070
   280
1070
     0
1070
   287
1070
     3
1002
}
  0
POINT
  5
1C4
330
A
100
AcDbEntity
  8
LAY-1
  6
Continuous
 62
     3
100
AcDbPoint
 10
122.0
 20
169.9
 30
0.0
  0
POINT
  5
1C5
330
A
100
AcDbEntity
  8
LAY-1
  6
Continuous
 62
     3
100
AcDbPoint
 10
102.0
 20
169.9
 30
0.0
  0
POINT
  5
1C6
330
A
100
AcDbEntity
  8
LAY-1
  6
Continuous
 62
     3
100
AcDbPoint
 10
127.0
 20
119.9
 30
0.0
  0
POINT
  5
1C7
330
A
100
AcDbEntity
  8
LAY-1
  6
Continuous
 62
     3
100
AcDbPoint
 10
87.0
 20
119.9
 30
0.0
  0
POINT
  5
1C8
330
A
100
AcDbEntity
  8
LAY-1
  6
Continuous
 62
     3
100
AcDbPoint
 10
213.2
 20
169.9
 30
0.0
  0
POINT
  5
1C9
330
A
100
AcDbEntity
  8
LAY-1
  6
Continuous
 62
     3
100
AcDbPoint
 10
208.1999999999999
 20
119.9
 30
0.0
  0
LINE
  5
1CA
330
A
100
AcDbEntity
  8
LAY-1
  6
DOT
 62
     3
100
AcDbLine
 10
129.996062
 20
54.02658529233947
 30
0.0
 11
122.0
 21
54.02658529233947
 31
0.0
  0
LINE
  5
1CB
330
A
100
AcDbEntity
  8
LAY-1
  6
DOT
 62
     3
100
AcDbLine
 10
102.0
 20
54.02658529233947
 30
0.0
 11
84.00393800000001
 21
54.02658529233947
 31
0.0
  0
LINE
  5
1CC
330
A
100
AcDbEntity
  8
LAY-1
  6
Continuous
 62
     3
100
AcDbLine
 10
72.0
 20
59.72358529233948
 30
0.0
 11
87.0
 21
59.72358529233948
 31
0.0
  0
LINE
  5
1CD
330
A
100
AcDbEntity
  8
LAY-1
  6
Continuous
 62
     3
100
AcDbLine
 10
127.0
 20
59.72358529233948
 30
0.0
 11
142.0
 21
59.72358529233948
 31
0.0
  0
LINE
  5
1D0
330
A
100
AcDbEntity
  8
LAY-1
  6
DOT
 62
     3
100
AcDbLine
 10
102.0
 20
54.02658529233947
 30
0.0
 11
122.0
 21
54.02658529233947
 31
0.0
  0
LINE
  5
1D1
330
A
100
AcDbEntity
  8
LAY-1
  6
Continuous
 62
     3
100
AcDbLine
 10
216.1999999999999
 20
152.545751
 30
0.0
 11
210.1999999999999
 21
152.545751
 31
0.0
  0
LWPOLYLINE
  5
1D2
330
A
100
AcDbEntity
  8
LAY-1
  6
Continuous
 62
     3
100
AcDbPolyline
 90
        3
 70
   128
 43
0.0
 10
216.1999999999999
 20
147.2542489999999
 10
210.1999999999999
 20
147.2542489999999
 10
210.1999999999999
 20
152.545751
  0
LWPOLYLINE
  5
1D7
330
A
100
AcDbEntity
  8
LAY-1
  6
DOT
 62
     1
100
AcDbPolyline
 90
        3
 70
   128
 43
0.0
 10
216.1999999999999
 20
153.9
 10
210.1999999999999
 20
153.9
 10
210.1999999999999
 20
152.545751
  0
LWPOLYLINE
  5
1DC
330
A
100
AcDbEntity
  8
LAY-1
  6
DOT
 62
     1
100
AcDbPolyline
 90
        3
 70
   128
 43
0.0
 10
216.1999999999999
 20
145.9
 10
210.1999999999999
 20
145.9
 10
210.1999999999999
 20
147.2542489999999
  0
LINE
  5
1E1
330
A
100
AcDbEntity
  8
LAY-1
  6
DOT
 62
     1
100
AcDbLine
 10
187.9499999999999
 20
147.9
 30
0.0
 11
210.1999999999999
 21
147.9
 31
0.0
  0
LINE
  5
1E2
330
A
100
AcDbEntity
  8
LAY-1
  6
DOT
 62
     1
100
AcDbLine
 10
187.9499999999999
 20
151.9
 30
0.0
 11
210.1999999999999
 21
151.9
 31
0.0
  0
ARC
  5
1E3
330
A
100
AcDbEntity
  8
LAY-1
  6
DOT
 62
     1
100
AcDbCircle
 10
75.0
 20
149.9
 30
0.0
 40
4.0
100
AcDbArc
 50
221.409622
 51
138.590378
  0
ARC
  5
1E4
330
A
100
AcDbEntity
  8
LAY-1
  6
DOT
 62
     1
100
AcDbCircle
 10
139.0
 20
149.9
 30
0.0
 40
4.0
100
AcDbArc
 50
41.40962199999999
 51
318.5903779999999
  0
MTEXT
  5
213
330
A
100
AcDbEntity
  8
LAY-1
  6
Continuous
100
AcDbMText
 10
141.293085993815
 20
36.90106537686664
 30
0.0
 40
3.333333333333333
 41
13.28988333333334
 71
     1
 72
     5
  1
{\fArial|b1|i1|c0|p34;mm}
 73
     1
 44
1.0
  0
MTEXT
  5
214
330
A
100
AcDbEntity
  8
LAY-1
  6
Continuous
100
AcDbMText
 10
138.2603558912758
 20
31.05639404800415
 30
0.0
 40
1.666666666666666
 41
13.28988333333334
 71
     1
 72
     5
  1
{\fArial|b0|i0|c0|p34;MILLIMETERS}
 73
     1
 44
1.0
  0
MTEXT
  5
215
330
A
100
AcDbEntity
  8
LAY-1
  6
Continuous
100
AcDbMText
 10
122.9150189772133
 20
16.87218040969849
 30
0.0
 40
2.5
 41
64.49488333333336
 71
     1
 72
     5
  1
{\fArial|b0|i0|c0|p34;JUL 31 2001\P\fArial|b1|i0|c0|p34;\H1.2x;CI \fMS UI Gothic|b1|i0|c0|p17; \fArial|b1|i0|c0|p34;INDUSTRIES, LTD. (JAPAN)}
 73
     1
 44
1.0
  0
MTEXT
  5
216
330
A
100
AcDbEntity
  8
LAY-1
  6
Continuous
100
AcDbMText
 10
127.3527402296545
 20
27.81076108164469
 30
0.0
 40
3.0
 41
55.91528214553289
 71
     1
 72
     5
  1
{\fArial|b1|i0|c0|p34;PHENIX TOC IN TSUKUBA\P\fArial|b0|i0|c0|p34;\H0.6667x;Dept. of Physics , Tsukuba Univ.  Japan}
 73
     1
 44
1.0
  0
LINE
  5
217
330
A
100
AcDbEntity
  8
LAY-1
  6
Continuous
370
   100
100
AcDbLine
 10
287.2608328143056
 20
38.34321724906846
 30
0.0
 11
120.5941661476387
 21
38.3432106618776
 31
0.0
210
0.0
220
0.0
230
-1.0
  0
LINE
  5
218
330
A
100
AcDbEntity
  8
LAY-1
  6
Continuous
370
   100
100
AcDbLine
 10
287.2608332095367
 20
28.34321724906846
 30
0.0
 11
120.5941665428704
 21
28.34321066187761
 31
0.0
210
0.0
220
0.0
230
-1.0
  0
LINE
  5
219
330
A
100
AcDbEntity
  8
LAY-1
  6
Continuous
370
   100
100
AcDbLine
 10
287.2608336047682
 20
18.34321724906845
 30
0.0
 11
120.5941669381016
 21
18.34321066187762
 31
0.0
210
0.0
220
0.0
230
-1.0
  0
MTEXT
  5
21A
330
A
100
AcDbEntity
  8
LAY-1
  6
Continuous
100
AcDbMText
 10
22.54114467716209
 20
23.07297796337835
 30
0.0
 40
4.0
 41
112.1783999999999
 71
     1
 72
     5
  1
MATERIAL :UNILATE\P16 REQUIRED
 73
     1
 44
1.0
  0
MTEXT
  5
21B
330
A
100
AcDbEntity
  8
LAY-1
  6
Continuous
100
AcDbMText
 10
122.4545926466469
 20
34.87228765832264
 30
0.0
 40
3.333333333333333
 41
13.28987733741945
 71
     1
 72
     5
  1
UNIT
 73
     1
 44
1.0
  0
LINE
  5
21C
330
A
100
AcDbEntity
  8
LAY-1
  6
Continuous
370
   100
100
AcDbLine
 10
120.5941661476387
 20
38.34321066187759
 30
0.0
 11
120.5941673333331
 21
8.343210661877611
 31
0.0
210
0.0
220
0.0
230
-1.0
  0
LINE
  5
21D
330
A
100
AcDbEntity
  8
LAY-1
  6
Continuous
370
   100
100
AcDbLine
 10
137.2608328143055
 20
38.34321132059665
 30
0.0
 11
137.2608332095369
 21
28.3432113205967
 31
0.0
210
0.0
220
0.0
230
-1.0
  0
MTEXT
  5
21E
330
A
100
AcDbEntity
  8
LAY-1
  6
Continuous
100
AcDbMText
 10
232.7071917270507
 20
26.28090610848745
 30
0.0
 40
5.0
 41
46.5857
 71
     1
 72
     5
  1
{\fArial|b1|i0|c0|p34;105-219-013}
 73
     1
 44
1.0
  0
MTEXT
  5
21F
330
A
100
AcDbEntity
  8
LAY-1
  6
Continuous
100
AcDbMText
 10
219.2007667290151
 20
36.0130461951859
 30
0.0
 40
4.0
 41
71.0569
 71
     1
 72
     5
  1
{\fArial|b1|i0|c0|p34;Light Guide holder(down)}
 73
     1
 44
1.0
  0
MTEXT
  5
220
330
A
100
AcDbEntity
  8
LAY-1
  6
Continuous
100
AcDbMText
 10
193.3096900994464
 20
34.92876870182038
 30
0.0
 40
3.333333333333333
 41
33.33333333333335
 71
     1
 72
     5
  1
TITLE
 73
     1
 44
1.0
  0
MTEXT
  5
221
330
A
100
AcDbEntity
  8
LAY-1
  6
Continuous
100
AcDbMText
 10
188.8085329746093
 20
14.20569486167907
 30
0.0
 40
3.0
 41
31.89735
 71
     1
 72
     5
  1
DRAWING NO.
 73
     1
 44
1.0
  0
MTEXT
  5
222
330
A
100
AcDbEntity
  8
LAY-1
  6
Continuous
100
AcDbMText
 10
188.879496516276
 20
27.19165621943157
 30
0.0
 40
3.0
 41
33.33333333333335
 71
     1
 72
     5
  1
PHENIX\PDRAWUNG NO.
 73
     1
 44
1.0
  0
MTEXT
  5
223
330
A
100
AcDbEntity
  8
LAY-1
  6
Continuous
100
AcDbMText
 10
155.2272443190103
 20
35.16126071161907
 30
0.0
 40
3.333333333333333
 41
16.66666666222933
 71
     1
 72
     5
  1
{\fMS UI Gothic|b0|i0|c0|p17;SCALE}
 73
     1
 44
1.0
  0
LINE
  5
224
330
A
100
AcDbEntity
  8
LAY-1
  6
Continuous
370
   100
100
AcDbLine
 10
153.9274994809721
 20
38.34321197931572
 30
0.0
 11
153.9274998762036
 21
28.34321197931577
 31
0.0
210
0.0
220
0.0
230
-1.0
  0
LINE
  5
225
330
A
100
AcDbEntity
  8
LAY-1
  6
Continuous
370
   100
100
AcDbLine
 10
170.5941661476388
 20
38.34321263803481
 30
0.0
 11
170.5941665428703
 21
28.34321263803487
 31
0.0
210
0.0
220
0.0
230
-1.0
  0
LINE
  5
226
330
A
100
AcDbEntity
  8
LAY-1
  6
Continuous
370
   100
100
AcDbLine
 10
187.2608328143056
 20
38.34321329675393
 30
0.0
 11
187.2608328143056
 21
8.343206249068483
 31
0.0
210
0.0
220
0.0
230
-1.0
  0
MTEXT
  5
227
330
A
100
AcDbEntity
  8
LAY-1
  6
Continuous
100
AcDbMText
 10
175.2013552402343
 20
34.73448950794221
 30
0.0
 40
3.333333333333333
 41
13.2899
 71
     1
 72
     5
  1
{\fArial|b1|i0|c0|p34;1:1}
 73
     1
 44
1.0
  0
LINE
  5
228
330
A
100
AcDbEntity
  8
LAY-1
  6
Continuous
100
AcDbLine
 10
220.5941661476389
 20
38.34321329675393
 30
0.0
 11
220.5941661476389
 21
8.343206249068483
 31
0.0
210
0.0
220
0.0
230
-1.0
  0
MTEXT
  5
229
330
A
100
AcDbEntity
  8
LAY-1
  6
Continuous
100
AcDbMText
 10
243.0308102980142
 20
14.87078430997213
 30
0.0
 40
3.333333333333333
 41
17.9787
 71
     1
 72
     5
  1
028-1
 73
     1
 44
1.0
  0
LINE
  5
24B
330
A
100
AcDbEntity
  8
LAY-1
  6
Continuous
 62
     3
100
AcDbLine
 10
72.0
 20
169.9
 30
0.0
 11
102.0
 21
169.9
 31
0.0
  0
LINE
  5
24C
330
A
100
AcDbEntity
  8
LAY-1
  6
Continuous
 62
     3
100
AcDbLine
 10
102.0
 20
169.9
 30
0.0
 11
102.0
 21
152.9
 31
0.0
  0
LINE
  5
24D
330
A
100
AcDbEntity
  8
LAY-1
  6
Continuous
 62
     3
100
AcDbLine
 10
122.0
 20
169.9
 30
0.0
 11
122.0
 21
152.8999999999999
 31
0.0
  0
LINE
  5
24E
330
A
100
AcDbEntity
  8
LAY-1
  6
Continuous
 62
     3
100
AcDbLine
 10
102.0
 20
169.9
 30
0.0
 11
102.0
 21
152.9
 31
0.0
  0
LINE
  5
24F
330
A
100
AcDbEntity
  8
LAY-1
  6
Continuous
 62
     3
100
AcDbLine
 10
122.0
 20
169.9
 30
0.0
 11
122.0
 21
152.8999999999999
 31
0.0
  0
LINE
  5
252
330
A
100
AcDbEntity
  8
LAY-1
  6
DOT
 62
     3
100
AcDbLine
 10
212.7
 20
149.9
 30
0.0
 11
212.6999999999999
 21
166.4
 31
0.0
  0
LINE
  5
254
330
A
100
AcDbEntity
  8
LAY-1
  6
DOT
 62
     3
100
AcDbLine
 10
212.6999999999999
 20
149.9
 30
0.0
 11
212.6999999999999
 21
169.9
 31
0.0
  0
LINE
  5
256
330
A
100
AcDbEntity
  8
LAY-1
  6
DOT
 62
     3
100
AcDbLine
 10
212.6999999999999
 20
149.9
 30
0.0
 11
209.6999999999999
 21
149.9
 31
0.0
  0
LINE
  5
25A
330
A
100
AcDbEntity
  8
LAY-1
  6
Continuous
 62
     3
100
AcDbLine
 10
102.0
 20
55.66447279233946
 30
0.0
 11
101.9999999999999
 21
52.22358529233948
 31
0.0
  0
LINE
  5
25B
330
A
100
AcDbEntity
  8
LAY-1
  6
Continuous
 62
     3
100
AcDbLine
 10
122.0
 20
56.11548529233948
 30
0.0
 11
121.9999999999999
 21
52.22358529233948
 31
0.0
  0
LINE
  5
25C
330
A
100
AcDbEntity
  8
LAY-1
  6
Continuous
 62
     3
100
AcDbLine
 10
119.0
 20
149.8999999999999
 30
0.0
 11
105.0
 21
149.9
 31
0.0
  0
ARC
  5
25D
330
A
100
AcDbEntity
  8
LAY-1
  6
Continuous
 62
     3
100
AcDbCircle
 10
105.0
 20
152.9
 30
0.0
 40
3.0
100
AcDbArc
 50
180.0
 51
269.9999999999998
  0
ARC
  5
25E
330
A
100
AcDbEntity
  8
LAY-1
  6
Continuous
 62
     3
100
AcDbCircle
 10
119.0
 20
152.8999999999999
 30
0.0
 40
3.0
100
AcDbArc
 50
269.9999999999998
 51
0.0
  0
LWPOLYLINE
  5
25F
330
A
100
AcDbEntity
  8
LAY-1
  6
DOT
 62
     3
100
AcDbPolyline
 90
        2
 70
   128
 43
0.0
 10
102.0
 20
49.22358529233948
 10
122.0
 20
49.22358529233948
  0
LINE
  5
262
330
A
100
AcDbEntity
  8
LAY-1
  6
DOT
 62
     3
100
AcDbLine
 10
209.6999999999999
 20
119.9
 30
0.0
 11
209.6999999999999
 21
149.8999999999999
 31
0.0
  0
LINE
  5
265
330
A
100
AcDbEntity
  8
LAY-1
  6
Continuous
 62
     3
100
AcDbLine
 10
72.0
 20
119.9
 30
0.0
 11
87.0
 21
119.9
 31
0.0
  0
LINE
  5
266
330
A
100
AcDbEntity
  8
LAY-1
  6
Continuous
 62
     3
100
AcDbLine
 10
87.0
 20
119.9
 30
0.0
 11
103.0
 21
157.9
 31
0.0
  0
LINE
  5
267
330
A
100
AcDbEntity
  8
LAY-1
  6
DOT
 62
     3
100
AcDbLine
 10
103.0
 20
157.9
 30
0.0
 11
121.0
 21
157.9
 31
0.0
  0
LINE
  5
268
330
A
100
AcDbEntity
  8
LAY-1
  6
Continuous
 62
     3
100
AcDbLine
 10
121.0
 20
157.9
 30
0.0
 11
127.0
 21
119.9
 31
0.0
  0
LINE
  5
26A
330
A
100
AcDbEntity
  8
LAY-1
  6
Continuous
 62
     3
100
AcDbLine
 10
87.0
 20
52.22358529233948
 30
0.0
 11
127.0
 21
52.22358529233948
 31
0.0
  0
LINE
  5
26C
330
A
100
AcDbEntity
  8
LAY-1
  6
Continuous
 62
     3
100
AcDbLine
 10
87.0
 20
59.72358529233948
 30
0.0
 11
87.0
 21
52.22358529233948
 31
0.0
  0
LINE
  5
26D
330
A
100
AcDbEntity
  8
LAY-1
  6
Continuous
 62
     3
100
AcDbLine
 10
127.0
 20
59.72358529233948
 30
0.0
 11
127.0
 21
52.22358529233948
 31
0.0
  0
LINE
  5
270
330
A
100
AcDbEntity
  8
LAY-1
  6
Continuous
 62
     3
100
AcDbLine
 10
87.0
 20
59.72358529233948
 30
0.0
 11
102.0
 21
55.66447279233946
 31
0.0
  0
LINE
  5
271
330
A
100
AcDbEntity
  8
LAY-1
  6
Continuous
 62
     3
100
AcDbLine
 10
127.0
 20
59.72358529233948
 30
0.0
 11
122.0
 21
56.11548529233948
 31
0.0
  0
LINE
  5
272
330
A
100
AcDbEntity
  8
LAY-1
  6
DOT
 62
     3
100
AcDbLine
 10
101.9999999999999
 20
52.22358529233948
 30
0.0
 11
102.0
 21
49.22358529233948
 31
0.0
  0
LINE
  5
273
330
A
100
AcDbEntity
  8
LAY-1
  6
DOT
 62
     3
100
AcDbLine
 10
121.9999999999999
 20
52.22358529233948
 30
0.0
 11
121.9999999999999
 21
49.22358529233948
 31
0.0
  0
DIMENSION
  5
3F7
330
A
100
AcDbEntity
  8
LAY-1
  6
Continuous
 62
     1
100
AcDbDimension
  2
*D29
 10
102.0
 20
173.5376155971683
 30
0.0
 11
87.0
 21
175.1276155971683
 31
0.0
 70
    32
 71
     5
 42
30.0
  3
STANDARD
100
AcDbAlignedDimension
 13
72.0
 23
169.9
 33
0.0
 14
102.0
 24
169.9
 34
0.0
100
AcDbRotatedDimension
  0
DIMENSION
  5
6C3
330
A
100
AcDbEntity
  8
LAY-1
  6
Continuous
 62
     1
100
AcDbDimension
  2
*D31
 10
122.0
 20
173.5376155971683
 30
0.0
 11
112.0
 21
175.1276155971683
 31
0.0
 70
    32
 71
     5
 42
20.0
  3
STANDARD
100
AcDbAlignedDimension
 13
102.0
 23
169.9
 33
0.0
 14
122.0
 24
169.9
 34
0.0
100
AcDbRotatedDimension
  0
DIMENSION
  5
6D1
330
A
100
AcDbEntity
  8
LAY-1
  6
Continuous
 62
     1
100
AcDbDimension
  2
*D32
 10
142.0
 20
173.5376155971683
 30
0.0
 11
132.0
 21
175.1276155971683
 31
0.0
 70
    32
 71
     5
 42
20.0
  3
STANDARD
100
AcDbAlignedDimension
 13
122.0
 23
169.9
 33
0.0
 14
142.0
 24
169.9
 34
0.0
100
AcDbRotatedDimension
1001
ACAD
1000
DSTYLE
1002
{
1070
   279
1070
     1
1002
}
  0
DIMENSION
  5
6DF
330
A
100
AcDbEntity
  8
LAY-1
  6
Continuous
 62
     1
100
AcDbDimension
  2
*D33
 10
103.0
 20
101.2274139598764
 30
0.0
 11
87.5
 21
99.63741395987639
 31
0.0
 70
    32
 71
     5
 42
31.0
  3
STANDARD
100
AcDbAlignedDimension
 13
72.0
 23
119.9
 33
0.0
 14
103.0
 24
157.9
 34
0.0
100
AcDbRotatedDimension
  0
DIMENSION
  5
6ED
330
A
100
AcDbEntity
  8
LAY-1
  6
Continuous
 62
     1
100
AcDbDimension
  2
*D34
 10
121.0
 20
101.2274139598764
 30
0.0
 11
112.0
 21
99.63741395987639
 31
0.0
 70
    32
 71
     5
 42
18.00000000000002
  3
STANDARD
100
AcDbAlignedDimension
 13
103.0
 23
157.9
 33
0.0
 14
121.0
 24
157.9
 34
0.0
100
AcDbRotatedDimension
1001
ACAD
1000
DSTYLE
1002
{
1070
   279
1070
     1
1002
}
  0
DIMENSION
  5
6FB
330
A
100
AcDbEntity
  8
LAY-1
  6
Continuous
 62
     1
100
AcDbDimension
  2
*D35
 10
142.0
 20
101.2274139598764
 30
0.0
 11
131.4999999999999
 21
99.63741395987639
 31
0.0
 70
    32
 71
     5
 42
20.99999999999997
  3
STANDARD
100
AcDbAlignedDimension
 13
121.0
 23
157.9
 33
0.0
 14
142.0
 24
119.9
 34
0.0
100
AcDbRotatedDimension
1001
ACAD
1000
DSTYLE
1002
{
1070
   279
1070
     1
1002
}
  0
DIMENSION
  5
709
330
A
100
AcDbEntity
  8
LAY-1
  6
Continuous
 62
     1
100
AcDbDimension
  2
*D36
 10
87.0
 20
92.01945693735529
 30
0.0
 11
79.5
 21
90.4294569373553
 31
0.0
 70
    32
 71
     5
 42
15.0
  3
STANDARD
100
AcDbAlignedDimension
 13
72.0
 23
119.9
 33
0.0
 14
87.0
 24
119.9
 34
0.0
100
AcDbRotatedDimension
  0
DIMENSION
  5
717
330
A
100
AcDbEntity
  8
LAY-1
  6
Continuous
 62
     1
100
AcDbDimension
  2
*D37
 10
127.0
 20
92.01945693735529
 30
0.0
 11
107.0
 21
90.4294569373553
 31
0.0
 70
    32
 71
     5
 42
40.0
  3
STANDARD
100
AcDbAlignedDimension
 13
87.0
 23
119.9
 33
0.0
 14
127.0
 24
119.9
 34
0.0
100
AcDbRotatedDimension
  0
DIMENSION
  5
A47
330
A
100
AcDbEntity
  8
LAY-1
  6
Continuous
 62
     1
100
AcDbDimension
  2
*D40
 10
216.1999999999999
 20
175.5879502275307
 30
0.0
 11
226.29
 21
177.1779502275307
 31
0.0
 70
    32
 71
     5
 42
3.5
  3
STANDARD
100
AcDbAlignedDimension
 13
212.6999999999999
 23
169.9
 33
0.0
 14
216.1999999999999
 24
169.9
 34
0.0
100
AcDbRotatedDimension
  0
DIMENSION
  5
A55
330
A
100
AcDbEntity
  8
LAY-1
  6
Continuous
 62
     1
100
AcDbDimension
  2
*D41
 10
216.1999999999999
 20
115.8976426395154
 30
0.0
 11
223.2899999999999
 21
114.3076426395154
 31
0.0
 70
    32
 71
     5
 42
6.5
  3
STANDARD
100
AcDbAlignedDimension
 13
209.6999999999999
 23
119.9
 33
0.0
 14
216.1999999999999
 24
119.9
 34
0.0
100
AcDbRotatedDimension
  0
ENDSEC
  0
SECTION
  2
OBJECTS
  0
DICTIONARY
  5
19
330
0
100
AcDbDictionary
281
     1
  3
ACAD_GROUP
350
1A
  3
ACAD_LAYOUT
350
1EE
  3
ACAD_MLINESTYLE
350
1B
  3
ACAD_PLOTSETTINGS
350
1EF
  3
ACAD_PLOTSTYLENAME
350
1EC
  3
ASE_INDEX_DICTIONARY
350
22B
  0
DICTIONARY
  5
1A
102
{ACAD_REACTORS
330
19
102
}
330
19
100
AcDbDictionary
281
     1
  0
DICTIONARY
  5
1EE
102
{ACAD_REACTORS
330
19
102
}
330
19
100
AcDbDictionary
281
     1
  3
Model
350
1F0
  3
ﾚｲｱｳﾄ1
350
1F1
  0
DICTIONARY
  5
1B
102
{ACAD_REACTORS
330
19
102
}
330
19
100
AcDbDictionary
281
     1
  3
STANDARD
350
1C
  0
DICTIONARY
  5
1EF
102
{ACAD_REACTORS
330
19
102
}
330
19
100
AcDbDictionary
281
     1
  0
ACDBDICTIONARYWDFLT
  5
1EC
102
{ACAD_REACTORS
330
19
102
}
330
19
100
AcDbDictionary
281
     1
  3
Normal
350
1ED
100
AcDbDictionaryWithDefault
340
1ED
  0
DICTIONARY
  5
22B
102
{ACAD_REACTORS
330
19
102
}
330
19
100
AcDbDictionary
281
     1
  3
ASEBlockHierarchyIndexRecord
350
22D
1001
DCO15
1040
1413045820.14
  0
LAYOUT
  5
1F0
102
{ACAD_REACTORS
330
1EE
102
}
330
1EE
100
AcDbPlotSettings
  1

  2
Tektronix Phaser 850DP
  4

  6

 40
0.0
 41
0.0
 42
0.0
 43
0.0
 44
0.0
 45
0.0
 46
0.0
 47
0.0
 48
0.0
 49
0.0
140
0.0
141
0.0
142
1.0
143
1.0
 70
  1712
 72
     0
 73
     0
 74
     0
  7

 75
     0
147
1.0
148
0.0
149
0.0
100
AcDbLayout
  1
Model
 70
     1
 71
     0
 10
0.0
 20
0.0
 11
12.0
 21
9.0
 12
0.0
 22
0.0
 32
0.0
 14
0.0
 24
0.0
 34
0.0
 15
0.0
 25
0.0
 35
0.0
146
0.0
 13
0.0
 23
0.0
 33
0.0
 16
1.0
 26
0.0
 36
0.0
 17
0.0
 27
1.0
 37
0.0
 76
     0
330
A
  0
LAYOUT
  5
1F1
102
{ACAD_REACTORS
330
1EE
102
}
330
1EE
100
AcDbPlotSettings
  1

  2
Tektronix Phaser 850DP
  4

  6

 40
0.0
 41
0.0
 42
0.0
 43
0.0
 44
0.0
 45
0.0
 46
0.0
 47
0.0
 48
0.0
 49
0.0
140
0.0
141
0.0
142
1.0
143
1.0
 70
   688
 72
     0
 73
     0
 74
     5
  7

 75
    16
147
1.0
148
0.0
149
0.0
100
AcDbLayout
  1
ﾚｲｱｳﾄ1
 70
     0
 71
     1
 10
0.0
 20
0.0
 11
12.0
 21
9.0
 12
0.0
 22
0.0
 32
0.0
 14
1.000000000000000E+20
 24
1.000000000000000E+20
 34
1.000000000000000E+20
 15
-1.000000000000000E+20
 25
-1.000000000000000E+20
 35
-1.000000000000000E+20
146
0.0
 13
0.0
 23
0.0
 33
0.0
 16
1.0
 26
0.0
 36
0.0
 17
0.0
 27
1.0
 37
0.0
 76
     0
330
B
  0
MLINESTYLE
  5
1C
102
{ACAD_REACTORS
330
1B
102
}
330
1B
100
AcDbMlineStyle
  2
STANDARD
 70
     0
  3

 62
     0
 51
90.0
 52
90.0
 71
     2
 49
0.5
 62
   256
  6
BYLAYER
 49
-0.5
 62
   256
  6
BYLAYER
  0
ACDBPLACEHOLDER
  5
1ED
102
{ACAD_REACTORS
330
1EC
102
}
330
1EC
  0
XRECORD
  5
22D
102
{ACAD_REACTORS
330
22B
102
}
330
22B
100
AcDbXrecord
280
     1
330
95F
330
960
330
968
330
969
330
971
330
972
330
97A
330
97B
330
984
330
985
330
98C
330
98D
330
99C
330
99D
330
9A4
330
9A5
330
9AD
330
9AE
330
9B7
330
9B8
330
9BF
330
9C0
330
9CF
330
9D0
330
9DF
330
9E0
330
9E7
330
9E8
330
9F0
330
9F1
330
9F9
330
9FA
330
A02
330
A03
330
A0B
330
A0C
330
A14
330
A15
330
A1D
330
A1E
330
A26
330
A27
330
A2F
330
A30
330
A38
330
A39
330
A41
330
A42
330
845
330
846
330
853
330
854
330
A4D
330
A4E
330
A5B
330
A5C
  0
ENDSEC
  0
EOF
