  0
SECTION
  2
HEADER
  9
$ACADVER
  1
AC1015
  9
$ACADMAINTVER
 70
    10
  9
$DWGCODEPAGE
  3
ANSI_932
  9
$INSBASE
 10
0.0
 20
0.0
 30
0.0
  9
$EXTMIN
 10
8.974495286122419
 20
7.98843433613473
 30
-0.0015258207003583
  9
$EXTMAX
 10
287.2774418309371
 20
201.0021977440946
 30
0.0000000349246037
  9
$LIMMIN
 10
0.0
 20
0.0
  9
$LIMMAX
 10
297.0
 20
210.0
  9
$ORTHOMODE
 70
     0
  9
$REGENMODE
 70
     1
  9
$FILLMODE
 70
     1
  9
$QTEXTMODE
 70
     0
  9
$MIRRTEXT
 70
     1
  9
$LTSCALE
 40
1.0
  9
$ATTMODE
 70
     1
  9
$TEXTSIZE
 40
0.0
  9
$TRACEWID
 40
0.05
  9
$TEXTSTYLE
  7
STANDARD
  9
$CLAYER
  8
LAY-1
  9
$CELTYPE
  6
CONTINUOUS
  9
$CECOLOR
 62
   256
  9
$CELTSCALE
 40
1.0
  9
$DISPSILH
 70
     0
  9
$DIMSCALE
 40
1.0
  9
$DIMASZ
 40
0.18
  9
$DIMEXO
 40
0.0625
  9
$DIMDLI
 40
0.38
  9
$DIMRND
 40
0.0
  9
$DIMDLE
 40
0.0
  9
$DIMEXE
 40
0.18
  9
$DIMTP
 40
0.0
  9
$DIMTM
 40
0.0
  9
$DIMTXT
 40
0.18
  9
$DIMCEN
 40
0.09
  9
$DIMTSZ
 40
0.0
  9
$DIMTOL
 70
     0
  9
$DIMLIM
 70
     0
  9
$DIMTIH
 70
     1
  9
$DIMTOH
 70
     1
  9
$DIMSE1
 70
     0
  9
$DIMSE2
 70
     0
  9
$DIMTAD
 70
     0
  9
$DIMZIN
 70
     0
  9
$DIMBLK
  1

  9
$DIMASO
 70
     1
  9
$DIMSHO
 70
     1
  9
$DIMPOST
  1

  9
$DIMAPOST
  1

  9
$DIMALT
 70
     0
  9
$DIMALTD
 70
     2
  9
$DIMALTF
 40
25.4
  9
$DIMLFAC
 40
1.0
  9
$DIMTOFL
 70
     0
  9
$DIMTVP
 40
0.0
  9
$DIMTIX
 70
     0
  9
$DIMSOXD
 70
     0
  9
$DIMSAH
 70
     0
  9
$DIMBLK1
  1

  9
$DIMBLK2
  1

  9
$DIMSTYLE
  2
STANDARD
  9
$DIMCLRD
 70
     0
  9
$DIMCLRE
 70
     0
  9
$DIMCLRT
 70
     0
  9
$DIMTFAC
 40
1.0
  9
$DIMGAP
 40
0.09
  9
$DIMJUST
 70
     0
  9
$DIMSD1
 70
     0
  9
$DIMSD2
 70
     0
  9
$DIMTOLJ
 70
     1
  9
$DIMTZIN
 70
     0
  9
$DIMALTZ
 70
     0
  9
$DIMALTTZ
 70
     0
  9
$DIMUPT
 70
     0
  9
$DIMDEC
 70
     4
  9
$DIMTDEC
 70
     4
  9
$DIMALTU
 70
     2
  9
$DIMALTTD
 70
     2
  9
$DIMTXSTY
  7
STANDARD
  9
$DIMAUNIT
 70
     0
  9
$DIMADEC
 70
     0
  9
$DIMALTRND
 40
0.0
  9
$DIMAZIN
 70
     0
  9
$DIMDSEP
 70
    46
  9
$DIMATFIT
 70
     3
  9
$DIMFRAC
 70
     0
  9
$DIMLDRBLK
  1

  9
$DIMLUNIT
 70
     2
  9
$DIMLWD
 70
    -2
  9
$DIMLWE
 70
    -2
  9
$DIMTMOVE
 70
     0
  9
$LUNITS
 70
     2
  9
$LUPREC
 70
     4
  9
$SKETCHINC
 40
0.1
  9
$FILLETRAD
 40
0.0
  9
$AUNITS
 70
     0
  9
$AUPREC
 70
     0
  9
$MENU
  1
acad
  9
$ELEVATION
 40
0.0
  9
$PELEVATION
 40
0.0
  9
$THICKNESS
 40
0.0
  9
$LIMCHECK
 70
     0
  9
$CHAMFERA
 40
0.0
  9
$CHAMFERB
 40
0.0
  9
$CHAMFERC
 40
0.0
  9
$CHAMFERD
 40
0.0
  9
$SKPOLY
 70
     0
  9
$TDCREATE
 40
2452142.432936713
  9
$TDUCREATE
 40
2452142.057936713
  9
$TDUPDATE
 40
2452159.126875717
  9
$TDUUPDATE
 40
2452158.751875717
  9
$TDINDWG
 40
0.0030808681
  9
$TDUSRTIMER
 40
0.0030806944
  9
$USRTIMER
 70
     1
  9
$ANGBASE
 50
0.0
  9
$ANGDIR
 70
     0
  9
$PDMODE
 70
     0
  9
$PDSIZE
 40
0.0
  9
$PLINEWID
 40
0.0
  9
$SPLFRAME
 70
     0
  9
$SPLINETYPE
 70
     6
  9
$SPLINESEGS
 70
     8
  9
$HANDSEED
  5
1BE
  9
$SURFTAB1
 70
     6
  9
$SURFTAB2
 70
     6
  9
$SURFTYPE
 70
     6
  9
$SURFU
 70
     6
  9
$SURFV
 70
     6
  9
$UCSBASE
  2

  9
$UCSNAME
  2

  9
$UCSORG
 10
0.0
 20
0.0
 30
0.0
  9
$UCSXDIR
 10
1.0
 20
0.0
 30
0.0
  9
$UCSYDIR
 10
0.0
 20
1.0
 30
0.0
  9
$UCSORTHOREF
  2

  9
$UCSORTHOVIEW
 70
     0
  9
$UCSORGTOP
 10
0.0
 20
0.0
 30
0.0
  9
$UCSORGBOTTOM
 10
0.0
 20
0.0
 30
0.0
  9
$UCSORGLEFT
 10
0.0
 20
0.0
 30
0.0
  9
$UCSORGRIGHT
 10
0.0
 20
0.0
 30
0.0
  9
$UCSORGFRONT
 10
0.0
 20
0.0
 30
0.0
  9
$UCSORGBACK
 10
0.0
 20
0.0
 30
0.0
  9
$PUCSBASE
  2

  9
$PUCSNAME
  2

  9
$PUCSORG
 10
0.0
 20
0.0
 30
0.0
  9
$PUCSXDIR
 10
1.0
 20
0.0
 30
0.0
  9
$PUCSYDIR
 10
0.0
 20
1.0
 30
0.0
  9
$PUCSORTHOREF
  2

  9
$PUCSORTHOVIEW
 70
     0
  9
$PUCSORGTOP
 10
0.0
 20
0.0
 30
0.0
  9
$PUCSORGBOTTOM
 10
0.0
 20
0.0
 30
0.0
  9
$PUCSORGLEFT
 10
0.0
 20
0.0
 30
0.0
  9
$PUCSORGRIGHT
 10
0.0
 20
0.0
 30
0.0
  9
$PUCSORGFRONT
 10
0.0
 20
0.0
 30
0.0
  9
$PUCSORGBACK
 10
0.0
 20
0.0
 30
0.0
  9
$USERI1
 70
     0
  9
$USERI2
 70
     0
  9
$USERI3
 70
     0
  9
$USERI4
 70
     0
  9
$USERI5
 70
     0
  9
$USERR1
 40
0.0
  9
$USERR2
 40
0.0
  9
$USERR3
 40
0.0
  9
$USERR4
 40
0.0
  9
$USERR5
 40
0.0
  9
$WORLDVIEW
 70
     1
  9
$SHADEDGE
 70
     3
  9
$SHADEDIF
 70
    70
  9
$TILEMODE
 70
     1
  9
$MAXACTVP
 70
    16
  9
$PINSBASE
 10
0.0
 20
0.0
 30
0.0
  9
$PLIMCHECK
 70
     0
  9
$PEXTMIN
 10
1.000000000000000E+20
 20
1.000000000000000E+20
 30
1.000000000000000E+20
  9
$PEXTMAX
 10
-1.000000000000000E+20
 20
-1.000000000000000E+20
 30
-1.000000000000000E+20
  9
$PLIMMIN
 10
0.0
 20
0.0
  9
$PLIMMAX
 10
12.0
 20
9.0
  9
$UNITMODE
 70
     0
  9
$VISRETAIN
 70
     0
  9
$PLINEGEN
 70
     1
  9
$PSLTSCALE
 70
     0
  9
$TREEDEPTH
 70
  3020
  9
$CMLSTYLE
  2
STANDARD
  9
$CMLJUST
 70
     0
  9
$CMLSCALE
 40
1.0
  9
$PROXYGRAPHICS
 70
     1
  9
$MEASUREMENT
 70
     0
  9
$CELWEIGHT
370
    -1
  9
$ENDCAPS
280
     0
  9
$JOINSTYLE
280
     0
  9
$LWDISPLAY
290
     0
  9
$INSUNITS
 70
     0
  9
$HYPERLINKBASE
  1

  9
$STYLESHEET
  1

  9
$XEDIT
290
     1
  9
$CEPSNTYPE
380
     0
  9
$PSTYLEMODE
290
     1
  9
$FINGERPRINTGUID
  2
{B4F9D4FC-2299-4E39-81E7-1B523D4279A5}
  9
$VERSIONGUID
  2
{9C06DACA-5F1C-47B2-8ADC-3EEFBA7F5C4D}
  9
$EXTNAMES
290
     1
  9
$PSVPSCALE
 40
0.0
  9
$OLESTARTUP
290
     0
  0
ENDSEC
  0
SECTION
  2
CLASSES
  0
CLASS
  1
LWPOLYLINE
  2
AcDbPolyline
  3
AutoCAD 2000
 90
    32768
280
     0
281
     1
  0
CLASS
  1
IMAGE
  2
AcDbRasterImage
  3
ISM
 90
    32895
280
     0
281
     1
  0
CLASS
  1
OLE2FRAME
  2
AcDbOle2Frame
  3
AutoCAD 2000
 90
    32768
280
     0
281
     1
  0
CLASS
  1
HATCH
  2
AcDbHatch
  3
AutoCAD 2000
 90
    32768
280
     0
281
     1
  0
CLASS
  1
DICTIONARYVAR
  2
AcDbDictionaryVar
  3
AutoCAD 2000
 90
    32768
280
     0
281
     0
  0
CLASS
  1
RASTERVARIABLES
  2
AcDbRasterVariables
  3
ISM
 90
    32768
280
     0
281
     0
  0
CLASS
  1
IMAGEDEF
  2
AcDbRasterImageDef
  3
ISM
 90
    32768
280
     0
281
     0
  0
CLASS
  1
IMAGEDEF_REACTOR
  2
AcDbRasterImageDefReactor
  3
ISM
 90
    32769
280
     0
281
     0
  0
CLASS
  1
IDBUFFER
  2
AcDbIdBuffer
  3
AutoCAD 2000
 90
    32768
280
     0
281
     0
  0
CLASS
  1
SPATIAL_FILTER
  2
AcDbSpatialFilter
  3
AutoCAD 2000
 90
    32768
280
     0
281
     0
  0
CLASS
  1
XRECORD
  2
AcDbXrecord
  3
AutoCAD 2000
 90
    32768
280
     0
281
     0
  0
CLASS
  1
SORTENTSTABLE
  2
AcDbSortentsTable
  3
AutoCAD 2000
 90
    32768
280
     0
281
     0
  0
CLASS
  1
LAYER_INDEX
  2
AcDbLayerIndex
  3
AutoCAD 2000
 90
    32768
280
     0
281
     0
  0
CLASS
  1
SPATIAL_INDEX
  2
AcDbSpatialIndex
  3
AutoCAD 2000
 90
    32768
280
     0
281
     0
  0
CLASS
  1
OBJECT_PTR
  2
CAseDLPNTableRecord
  3
ASE-LPNTableRecord
 90
    32769
280
     0
281
     0
  0
CLASS
  1
LAYOUT
  2
AcDbLayout
  3
AutoCAD 2000
 90
        0
280
     0
281
     0
  0
CLASS
  1
PLOTSETTINGS
  2
AcDbPlotSettings
  3
AutoCAD 2000
 90
    32768
280
     0
281
     0
  0
CLASS
  1
ACDBDICTIONARYWDFLT
  2
AcDbDictionaryWithDefault
  3
AutoCAD 2000
 90
        0
280
     0
281
     0
  0
CLASS
  1
ACDBPLACEHOLDER
  2
AcDbPlaceHolder
  3
AutoCAD 2000
 90
        0
280
     0
281
     0
  0
CLASS
  1
VBA_PROJECT
  2
AcDbVbaProject
  3
acadvba
 90
    32768
280
     0
281
     0
  0
CLASS
  1
WIPEOUT
  2
AcDbWipeout
  3
WipeOut|AutoCAD Express Tool|expresstools@autodesk.com
 90
    32768
280
     0
281
     1
  0
CLASS
  1
WIPEOUTVARIABLES
  2
AcDbWipeoutVariables
  3
WipeOut|AutoCAD Express Tool|expresstools@autodesk.com
 90
    32768
280
     0
281
     0
  0
CLASS
  1
RTEXT
  2
RText
  3
RText|AutoCAD Express Tool|expresstools@autodesk.com
 90
    32768
280
     0
281
     1
  0
CLASS
  1
ARCALIGNEDTEXT
  2
AcDbArcAlignedText
  3
ATEXT|AutoCAD Express Tool|expresstools@autodesk.com
 90
    32768
280
     0
281
     1
  0
ENDSEC
  0
SECTION
  2
TABLES
  0
TABLE
  2
VPORT
  5
7
330
0
100
AcDbSymbolTable
 70
     2
  0
VPORT
  5
1BD
330
7
100
AcDbSymbolTableRecord
100
AcDbViewportTableRecord
  2
*Active
 70
     0
 10
0.0
 20
0.0
 11
1.0
 21
1.0
 12
148.1259685585297
 22
104.4953160401146
 13
0.0
 23
0.0
 14
1.0
 24
1.0
 15
0.0
 25
0.0
 16
0.0
 26
0.0
 36
1.0
 17
0.0
 27
0.0
 37
0.0
 40
194.9122594414807
 41
1.768472906403941
 42
50.0
 43
0.0
 44
0.0
 50
0.0
 51
0.0
 71
     0
 72
   100
 73
     1
 74
     1
 75
     0
 76
     0
 77
     0
 78
     0
281
     0
 65
     1
110
0.0
120
0.0
130
0.0
111
1.0
121
0.0
131
0.0
112
0.0
122
1.0
132
0.0
 79
     0
146
0.0
  0
ENDTAB
  0
TABLE
  2
LTYPE
  5
4
330
0
100
AcDbSymbolTable
 70
     5
  0
LTYPE
  5
11
330
4
100
AcDbSymbolTableRecord
100
AcDbLinetypeTableRecord
  2
BYBLOCK
 70
     0
  3

 72
    65
 73
     0
 40
0.0
  0
LTYPE
  5
12
330
4
100
AcDbSymbolTableRecord
100
AcDbLinetypeTableRecord
  2
BYLAYER
 70
     0
  3

 72
    65
 73
     0
 40
0.0
  0
LTYPE
  5
13
330
4
100
AcDbSymbolTableRecord
100
AcDbLinetypeTableRecord
  2
CONTINUOUS
 70
     0
  3
実線
 72
    65
 73
     0
 40
0.0
  0
LTYPE
  5
1D
330
4
100
AcDbSymbolTableRecord
100
AcDbLinetypeTableRecord
  2
DASHED
 70
     0
  3
破線
 72
    65
 73
     2
 40
3.799999999999998
 49
3.0
 74
     0
 49
-0.8
 74
     0
  0
LTYPE
  5
1E
330
4
100
AcDbSymbolTableRecord
100
AcDbLinetypeTableRecord
  2
DOT
 70
     0
  3
点線
 72
    65
 73
     2
 40
2.0
 49
1.0
 74
     0
 49
-1.0
 74
     0
  0
LTYPE
  5
1F
330
4
100
AcDbSymbolTableRecord
100
AcDbLinetypeTableRecord
  2
DASHDOT
 70
     0
  3
一点鎖線
 72
    65
 73
     4
 40
25.6
 49
20.0
 74
     0
 49
-2.0
 74
     0
 49
1.6
 74
     0
 49
-2.0
 74
     0
  0
LTYPE
  5
20
330
4
100
AcDbSymbolTableRecord
100
AcDbLinetypeTableRecord
  2
DIVIDE
 70
     0
  3
二点鎖線
 72
    65
 73
     6
 40
31.2
 49
20.0
 74
     0
 49
-2.399999999999999
 74
     0
 49
2.0
 74
     0
 49
-2.399999999999999
 74
     0
 49
2.0
 74
     0
 49
-2.399999999999999
 74
     0
  0
ENDTAB
  0
TABLE
  2
LAYER
  5
2
330
0
100
AcDbSymbolTable
 70
     2
  0
LAYER
  5
14
330
2
100
AcDbSymbolTableRecord
100
AcDbLayerTableRecord
  2
0
 70
     0
 62
     7
  6
CONTINUOUS
370
    -3
390
170
  0
LAYER
  5
25
330
2
100
AcDbSymbolTableRecord
100
AcDbLayerTableRecord
  2
LAY-1
 70
     0
 62
     7
  6
CONTINUOUS
370
    -3
390
170
  0
ENDTAB
  0
TABLE
  2
STYLE
  5
3
330
0
100
AcDbSymbolTable
 70
     5
  0
STYLE
  5
17
330
3
100
AcDbSymbolTableRecord
100
AcDbTextStyleTableRecord
  2
STANDARD
 70
     0
 40
0.0
 41
1.0
 50
0.0
 71
     0
 42
0.0
  3
monotxt
  4

  0
STYLE
  5
21
330
3
100
AcDbSymbolTableRecord
100
AcDbTextStyleTableRecord
  2
EXCADSTD
 70
     0
 40
0.0
 41
1.0
 50
0.0
 71
     0
 42
0.2
  3
monotxt
  4
extfont
  0
STYLE
  5
22
330
3
100
AcDbSymbolTableRecord
100
AcDbTextStyleTableRecord
  2
EXCADVERT
 70
     4
 40
0.0
 41
1.0
 50
0.0
 71
     0
 42
0.286885
  3
monotxt
  4
extfont
  0
STYLE
  5
23
330
3
100
AcDbSymbolTableRecord
100
AcDbTextStyleTableRecord
  2
EXCADSTD2
 70
     0
 40
0.0
 41
1.0
 50
0.0
 71
     0
 42
0.2
  3
monotxt
  4
extfont
  0
STYLE
  5
24
330
3
100
AcDbSymbolTableRecord
100
AcDbTextStyleTableRecord
  2
EXCADVERT2
 70
     4
 40
0.0
 41
1.0
 50
0.0
 71
     0
 42
0.286885
  3
monotxt
  4
extfont
  0
ENDTAB
  0
TABLE
  2
VIEW
  5
5
330
0
100
AcDbSymbolTable
 70
     0
  0
ENDTAB
  0
TABLE
  2
UCS
  5
6
330
0
100
AcDbSymbolTable
 70
     0
  0
ENDTAB
  0
TABLE
  2
APPID
  5
8
330
0
100
AcDbSymbolTable
 70
     2
  0
APPID
  5
16
330
8
100
AcDbSymbolTableRecord
100
AcDbRegAppTableRecord
  2
ACAD
 70
     0
  0
APPID
  5
1AF
330
8
100
AcDbSymbolTableRecord
100
AcDbRegAppTableRecord
  2
DCO15
 70
     0
  0
ENDTAB
  0
TABLE
  2
DIMSTYLE
  5
9
330
0
100
AcDbSymbolTable
 70
     1
100
AcDbDimStyleTable
 71
     0
  0
DIMSTYLE
105
18
102
{ACAD_REACTORS
330
E7
330
F3
330
FF
330
10B
330
115
330
120
330
129
330
133
330
13E
330
147
330
153
330
15F
102
}
330
9
100
AcDbSymbolTableRecord
100
AcDbDimStyleTableRecord
  2
STANDARD
 70
     0
340
17
  0
ENDTAB
  0
TABLE
  2
BLOCK_RECORD
  5
1
330
0
100
AcDbSymbolTable
 70
    20
  0
BLOCK_RECORD
  5
A
330
1
100
AcDbSymbolTableRecord
100
AcDbBlockTableRecord
  2
*MODEL_SPACE
340
173
  0
BLOCK_RECORD
  5
B
330
1
100
AcDbSymbolTableRecord
100
AcDbBlockTableRecord
  2
*PAPER_SPACE
340
174
  0
BLOCK_RECORD
  5
26
330
1
100
AcDbSymbolTableRecord
100
AcDbBlockTableRecord
  2
_EX_NORM
340
0
  0
BLOCK_RECORD
  5
27
330
1
100
AcDbSymbolTableRecord
100
AcDbBlockTableRecord
  2
_EX_BNORM
340
0
  0
BLOCK_RECORD
  5
28
330
1
100
AcDbSymbolTableRecord
100
AcDbBlockTableRecord
  2
_EX_BCIR
340
0
  0
BLOCK_RECORD
  5
29
330
1
100
AcDbSymbolTableRecord
100
AcDbBlockTableRecord
  2
_EX_RCIVIL
340
0
  0
BLOCK_RECORD
  5
2A
330
1
100
AcDbSymbolTableRecord
100
AcDbBlockTableRecord
  2
_EX_SLANT
340
0
  0
BLOCK_RECORD
  5
2B
330
1
100
AcDbSymbolTableRecord
100
AcDbBlockTableRecord
  2
_EX_NONE
340
0
  0
BLOCK_RECORD
  5
2C
330
1
100
AcDbSymbolTableRecord
100
AcDbBlockTableRecord
  2
_EX_CIVIL
340
0
  0
BLOCK_RECORD
  5
2D
330
1
100
AcDbSymbolTableRecord
100
AcDbBlockTableRecord
  2
_EX_WCIR
340
0
  0
BLOCK_RECORD
  5
DC
330
1
100
AcDbSymbolTableRecord
100
AcDbBlockTableRecord
  2
*D8
340
0
  0
BLOCK_RECORD
  5
E8
330
1
100
AcDbSymbolTableRecord
100
AcDbBlockTableRecord
  2
*D9
340
0
  0
BLOCK_RECORD
  5
F4
330
1
100
AcDbSymbolTableRecord
100
AcDbBlockTableRecord
  2
*D10
340
0
  0
BLOCK_RECORD
  5
100
330
1
100
AcDbSymbolTableRecord
100
AcDbBlockTableRecord
  2
*D11
340
0
  0
BLOCK_RECORD
  5
10C
330
1
100
AcDbSymbolTableRecord
100
AcDbBlockTableRecord
  2
*D12
340
0
  0
BLOCK_RECORD
  5
116
330
1
100
AcDbSymbolTableRecord
100
AcDbBlockTableRecord
  2
*D13
340
0
  0
BLOCK_RECORD
  5
121
330
1
100
AcDbSymbolTableRecord
100
AcDbBlockTableRecord
  2
*D14
340
0
  0
BLOCK_RECORD
  5
12A
330
1
100
AcDbSymbolTableRecord
100
AcDbBlockTableRecord
  2
*D15
340
0
  0
BLOCK_RECORD
  5
134
330
1
100
AcDbSymbolTableRecord
100
AcDbBlockTableRecord
  2
*D16
340
0
  0
BLOCK_RECORD
  5
13F
330
1
100
AcDbSymbolTableRecord
100
AcDbBlockTableRecord
  2
*D17
340
0
  0
BLOCK_RECORD
  5
148
330
1
100
AcDbSymbolTableRecord
100
AcDbBlockTableRecord
  2
*D18
340
0
  0
BLOCK_RECORD
  5
154
330
1
100
AcDbSymbolTableRecord
100
AcDbBlockTableRecord
  2
*D19
340
0
  0
ENDTAB
  0
ENDSEC
  0
SECTION
  2
BLOCKS
  0
BLOCK
  5
D
330
A
100
AcDbEntity
  8
0
100
AcDbBlockBegin
  2
*MODEL_SPACE
 70
     0
 10
0.0
 20
0.0
 30
0.0
  3
*MODEL_SPACE
  1

  0
ENDBLK
  5
E
330
A
100
AcDbEntity
  8
0
100
AcDbBlockEnd
  0
BLOCK
  5
F
330
B
100
AcDbEntity
 67
     1
  8
0
100
AcDbBlockBegin
  2
*PAPER_SPACE
 70
     0
 10
0.0
 20
0.0
 30
0.0
  3
*PAPER_SPACE
  1

  0
ENDBLK
  5
10
330
B
100
AcDbEntity
 67
     1
  8
0
100
AcDbBlockEnd
  0
BLOCK
  5
2E
330
26
100
AcDbEntity
  8
0
100
AcDbBlockBegin
  2
_EX_NORM
 70
     0
 10
0.0
 20
0.0
 30
0.0
  3
_EX_NORM
  1

  0
LINE
  5
2F
330
26
100
AcDbEntity
  8
0
  6
Continuous
 62
     0
100
AcDbLine
 10
0.0
 20
0.0
 30
0.0
 11
-1.0
 21
0.0
 31
0.0
  0
LINE
  5
30
330
26
100
AcDbEntity
  8
0
  6
Continuous
 62
     0
100
AcDbLine
 10
0.0
 20
0.0
 30
0.0
 11
-0.9607689999999999
 21
0.27735
 31
0.0
  0
LINE
  5
31
330
26
100
AcDbEntity
  8
0
  6
Continuous
 62
     0
100
AcDbLine
 10
0.0
 20
0.0
 30
0.0
 11
-0.9607689999999999
 21
-0.27735
 31
0.0
  0
ENDBLK
  5
32
330
26
100
AcDbEntity
  8
0
100
AcDbBlockEnd
  0
BLOCK
  5
33
330
27
100
AcDbEntity
  8
0
100
AcDbBlockBegin
  2
_EX_BNORM
 70
     0
 10
0.0
 20
0.0
 30
0.0
  3
_EX_BNORM
  1

  0
LINE
  5
34
330
27
100
AcDbEntity
  8
0
  6
Continuous
 62
     0
100
AcDbLine
 10
0.0
 20
0.0
 30
0.0
 11
-1.0
 21
0.0
 31
0.0
  0
LINE
  5
35
330
27
100
AcDbEntity
  8
0
  6
Continuous
 62
     0
100
AcDbLine
 10
0.0
 20
0.0
 30
0.0
 11
-0.9607689999999999
 21
0.27735
 31
0.0
  0
LINE
  5
36
330
27
100
AcDbEntity
  8
0
  6
Continuous
 62
     0
100
AcDbLine
 10
0.0
 20
0.0
 30
0.0
 11
-0.9607689999999999
 21
-0.27735
 31
0.0
  0
LINE
  5
37
330
27
100
AcDbEntity
  8
0
  6
Continuous
 62
     0
100
AcDbLine
 10
0.0
 20
0.0
 30
0.0
 11
-0.9607689999999999
 21
0.138768
 31
0.0
  0
LINE
  5
38
330
27
100
AcDbEntity
  8
0
  6
Continuous
 62
     0
100
AcDbLine
 10
0.0
 20
0.0
 30
0.0
 11
-0.9607689999999999
 21
-0.138768
 31
0.0
  0
LINE
  5
39
330
27
100
AcDbEntity
  8
0
  6
Continuous
 62
     0
100
AcDbLine
 10
-0.9607689999999999
 20
0.27735
 30
0.0
 11
-0.9607689999999999
 21
-0.27735
 31
0.0
  0
ENDBLK
  5
3A
330
27
100
AcDbEntity
  8
0
100
AcDbBlockEnd
  0
BLOCK
  5
3B
330
28
100
AcDbEntity
  8
0
100
AcDbBlockBegin
  2
_EX_BCIR
 70
     0
 10
0.0
 20
0.0
 30
0.0
  3
_EX_BCIR
  1

  0
LINE
  5
3C
330
28
100
AcDbEntity
  8
0
  6
Continuous
 62
     0
100
AcDbLine
 10
0.0
 20
0.0
 30
0.0
 11
-1.0
 21
0.0
 31
0.0
  0
CIRCLE
  5
3D
330
28
100
AcDbEntity
  8
0
  6
Continuous
 62
     0
100
AcDbCircle
 10
0.0
 20
0.0
 30
0.0
 40
0.5
  0
CIRCLE
  5
3E
330
28
100
AcDbEntity
  8
0
  6
Continuous
 62
     0
100
AcDbCircle
 10
0.0
 20
0.0
 30
0.0
 40
0.25
  0
ENDBLK
  5
3F
330
28
100
AcDbEntity
  8
0
100
AcDbBlockEnd
  0
BLOCK
  5
40
330
29
100
AcDbEntity
  8
0
100
AcDbBlockBegin
  2
_EX_RCIVIL
 70
     0
 10
0.0
 20
0.0
 30
0.0
  3
_EX_RCIVIL
  1

  0
LINE
  5
41
330
29
100
AcDbEntity
  8
0
  6
Continuous
 62
     0
100
AcDbLine
 10
0.0
 20
0.0
 30
0.0
 11
-1.0
 21
0.0
 31
0.0
  0
LINE
  5
42
330
29
100
AcDbEntity
  8
0
  6
Continuous
 62
     0
100
AcDbLine
 10
-1.0
 20
-0.25
 30
0.0
 11
0.0
 21
-0.25
 31
0.0
  0
LINE
  5
43
330
29
100
AcDbEntity
  8
0
  6
Continuous
 62
     0
100
AcDbLine
 10
-1.0
 20
-0.125
 30
0.0
 11
0.0
 21
-0.125
 31
0.0
  0
ENDBLK
  5
44
330
29
100
AcDbEntity
  8
0
100
AcDbBlockEnd
  0
BLOCK
  5
45
330
2A
100
AcDbEntity
  8
0
100
AcDbBlockBegin
  2
_EX_SLANT
 70
     0
 10
0.0
 20
0.0
 30
0.0
  3
_EX_SLANT
  1

  0
LINE
  5
46
330
2A
100
AcDbEntity
  8
0
  6
Continuous
 62
     0
100
AcDbLine
 10
0.0
 20
0.0
 30
0.0
 11
-1.0
 21
0.0
 31
0.0
  0
LINE
  5
47
330
2A
100
AcDbEntity
  8
0
  6
Continuous
 62
     0
100
AcDbLine
 10
0.7071069999999999
 20
0.7071069999999999
 30
0.0
 11
-0.7071069999999999
 21
-0.7071069999999999
 31
0.0
  0
ENDBLK
  5
48
330
2A
100
AcDbEntity
  8
0
100
AcDbBlockEnd
  0
BLOCK
  5
49
330
2B
100
AcDbEntity
  8
0
100
AcDbBlockBegin
  2
_EX_NONE
 70
     0
 10
0.0
 20
0.0
 30
0.0
  3
_EX_NONE
  1

  0
LINE
  5
4A
330
2B
100
AcDbEntity
  8
0
  6
Continuous
 62
     0
100
AcDbLine
 10
0.0
 20
0.0
 30
0.0
 11
-1.0
 21
0.0
 31
0.0
  0
ENDBLK
  5
4B
330
2B
100
AcDbEntity
  8
0
100
AcDbBlockEnd
  0
BLOCK
  5
4C
330
2C
100
AcDbEntity
  8
0
100
AcDbBlockBegin
  2
_EX_CIVIL
 70
     0
 10
0.0
 20
0.0
 30
0.0
  3
_EX_CIVIL
  1

  0
LINE
  5
4D
330
2C
100
AcDbEntity
  8
0
  6
Continuous
 62
     0
100
AcDbLine
 10
0.0
 20
0.0
 30
0.0
 11
-1.0
 21
0.0
 31
0.0
  0
LINE
  5
4E
330
2C
100
AcDbEntity
  8
0
  6
Continuous
 62
     0
100
AcDbLine
 10
-1.0
 20
0.25
 30
0.0
 11
0.0
 21
0.25
 31
0.0
  0
LINE
  5
4F
330
2C
100
AcDbEntity
  8
0
  6
Continuous
 62
     0
100
AcDbLine
 10
-1.0
 20
0.125
 30
0.0
 11
0.0
 21
0.125
 31
0.0
  0
ENDBLK
  5
50
330
2C
100
AcDbEntity
  8
0
100
AcDbBlockEnd
  0
BLOCK
  5
51
330
2D
100
AcDbEntity
  8
0
100
AcDbBlockBegin
  2
_EX_WCIR
 70
     0
 10
0.0
 20
0.0
 30
0.0
  3
_EX_WCIR
  1

  0
LINE
  5
52
330
2D
100
AcDbEntity
  8
0
  6
Continuous
 62
     0
100
AcDbLine
 10
0.0
 20
0.0
 30
0.0
 11
-1.0
 21
0.0
 31
0.0
  0
CIRCLE
  5
53
330
2D
100
AcDbEntity
  8
0
  6
Continuous
 62
     0
100
AcDbCircle
 10
0.0
 20
0.0
 30
0.0
 40
0.5
  0
ENDBLK
  5
54
330
2D
100
AcDbEntity
  8
0
100
AcDbBlockEnd
  0
BLOCK
  5
DD
330
DC
100
AcDbEntity
  8
0
100
AcDbBlockBegin
  2
*D8
 70
     1
 10
0.0
 20
0.0
 30
0.0
  3
*D8
  1

  0
LINE
  5
DE
330
DC
100
AcDbEntity
  8
0
  6
Continuous
 62
     1
100
AcDbLine
 10
169.6999999999999
 20
156.4
 30
0.0
 11
169.6999999999999
 21
178.5
 31
0.0
  0
LINE
  5
DF
330
DC
100
AcDbEntity
  8
0
  6
Continuous
 62
     1
100
AcDbLine
 10
89.7
 20
156.4
 30
0.0
 11
89.7
 21
178.5
 31
0.0
  0
LINE
  5
E0
330
DC
100
AcDbEntity
  8
0
  6
Continuous
 62
     1
100
AcDbLine
 10
169.6999999999999
 20
177.0
 30
0.0
 11
89.7
 21
177.0
 31
0.0
  0
LINE
  5
E1
330
DC
100
AcDbEntity
  8
0
  6
Continuous
 62
     1
100
AcDbLine
 10
166.802223
 20
176.223543
 30
0.0
 11
169.6999999999999
 21
177.0
 31
0.0
  0
LINE
  5
E2
330
DC
100
AcDbEntity
  8
0
  6
Continuous
 62
     1
100
AcDbLine
 10
169.6999999999999
 20
177.0
 30
0.0
 11
166.802223
 21
177.7764569999999
 31
0.0
  0
LINE
  5
E3
330
DC
100
AcDbEntity
  8
0
  6
Continuous
 62
     1
100
AcDbLine
 10
92.597777
 20
177.7764569999999
 30
0.0
 11
89.7
 21
177.0
 31
0.0
  0
LINE
  5
E4
330
DC
100
AcDbEntity
  8
0
  6
Continuous
 62
     1
100
AcDbLine
 10
89.7
 20
177.0
 30
0.0
 11
92.597777
 21
176.223543
 31
0.0
  0
TEXT
  5
E5
330
DC
100
AcDbEntity
  8
0
  6
Continuous
 62
     1
100
AcDbText
 10
126.7
 20
177.5
 30
0.0
 40
3.0
  1
80
  7
EXCADSTD
100
AcDbText
  0
ENDBLK
  5
E6
330
DC
100
AcDbEntity
  8
0
100
AcDbBlockEnd
  0
BLOCK
  5
E9
330
E8
100
AcDbEntity
  8
0
100
AcDbBlockBegin
  2
*D9
 70
     1
 10
0.0
 20
0.0
 30
0.0
  3
*D9
  1

  0
LINE
  5
EA
330
E8
100
AcDbEntity
  8
0
  6
Continuous
 62
     1
100
AcDbLine
 10
226.3
 20
156.4
 30
0.0
 11
226.3
 21
178.5
 31
0.0
  0
LINE
  5
EB
330
E8
100
AcDbEntity
  8
0
  6
Continuous
 62
     1
100
AcDbLine
 10
220.3
 20
156.4
 30
0.0
 11
220.3
 21
178.5
 31
0.0
  0
LINE
  5
EC
330
E8
100
AcDbEntity
  8
0
  6
Continuous
 62
     1
100
AcDbLine
 10
226.3
 20
177.0
 30
0.0
 11
220.3
 21
177.0
 31
0.0
  0
LINE
  5
ED
330
E8
100
AcDbEntity
  8
0
  6
Continuous
 62
     1
100
AcDbLine
 10
223.4022229999999
 20
176.223543
 30
0.0
 11
226.3
 21
177.0
 31
0.0
  0
LINE
  5
EE
330
E8
100
AcDbEntity
  8
0
  6
Continuous
 62
     1
100
AcDbLine
 10
226.3
 20
177.0
 30
0.0
 11
223.4022229999999
 21
177.7764569999999
 31
0.0
  0
LINE
  5
EF
330
E8
100
AcDbEntity
  8
0
  6
Continuous
 62
     1
100
AcDbLine
 10
223.1977769999999
 20
177.7764569999999
 30
0.0
 11
220.3
 21
177.0
 31
0.0
  0
LINE
  5
F0
330
E8
100
AcDbEntity
  8
0
  6
Continuous
 62
     1
100
AcDbLine
 10
220.3
 20
177.0
 30
0.0
 11
223.1977769999999
 21
176.223543
 31
0.0
  0
TEXT
  5
F1
330
E8
100
AcDbEntity
  8
0
  6
Continuous
 62
     1
100
AcDbText
 10
221.7999999999999
 20
177.5
 30
0.0
 40
3.0
  1
6
  7
EXCADSTD
100
AcDbText
  0
ENDBLK
  5
F2
330
E8
100
AcDbEntity
  8
0
100
AcDbBlockEnd
  0
BLOCK
  5
F5
330
F4
100
AcDbEntity
  8
0
100
AcDbBlockBegin
  2
*D10
 70
     1
 10
0.0
 20
0.0
 30
0.0
  3
*D10
  1

  0
LINE
  5
F6
330
F4
100
AcDbEntity
  8
0
  6
Continuous
 62
     1
100
AcDbLine
 10
220.3
 20
156.4
 30
0.0
 11
220.3
 21
168.6999999999999
 31
0.0
  0
LINE
  5
F7
330
F4
100
AcDbEntity
  8
0
  6
Continuous
 62
     1
100
AcDbLine
 10
224.3
 20
151.9
 30
0.0
 11
224.3
 21
168.6999999999999
 31
0.0
  0
LINE
  5
F8
330
F4
100
AcDbEntity
  8
0
  6
Continuous
 62
     1
100
AcDbLine
 10
213.8
 20
167.1999999999998
 30
0.0
 11
229.3
 21
167.1999999999998
 31
0.0
  0
LINE
  5
F9
330
F4
100
AcDbEntity
  8
0
  6
Continuous
 62
     1
100
AcDbLine
 10
217.4022229999999
 20
166.4235429999999
 30
0.0
 11
220.3
 21
167.1999999999998
 31
0.0
  0
LINE
  5
FA
330
F4
100
AcDbEntity
  8
0
  6
Continuous
 62
     1
100
AcDbLine
 10
220.3
 20
167.1999999999998
 30
0.0
 11
217.4022229999999
 21
167.976457
 31
0.0
  0
LINE
  5
FB
330
F4
100
AcDbEntity
  8
0
  6
Continuous
 62
     1
100
AcDbLine
 10
227.1977769999999
 20
167.976457
 30
0.0
 11
224.3
 21
167.1999999999998
 31
0.0
  0
LINE
  5
FC
330
F4
100
AcDbEntity
  8
0
  6
Continuous
 62
     1
100
AcDbLine
 10
224.3
 20
167.1999999999998
 30
0.0
 11
227.1977769999999
 21
166.4235429999999
 31
0.0
  0
TEXT
  5
FD
330
F4
100
AcDbEntity
  8
0
  6
Continuous
 62
     1
100
AcDbText
 10
214.3
 20
167.6999999999999
 30
0.0
 40
3.0
  1
4
  7
EXCADSTD
100
AcDbText
  0
ENDBLK
  5
FE
330
F4
100
AcDbEntity
  8
0
100
AcDbBlockEnd
  0
BLOCK
  5
101
330
100
100
AcDbEntity
  8
0
100
AcDbBlockBegin
  2
*D11
 70
     1
 10
0.0
 20
0.0
 30
0.0
  3
*D11
  1

  0
LINE
  5
102
330
100
100
AcDbEntity
  8
0
  6
Continuous
 62
     1
100
AcDbLine
 10
88.2
 20
154.9
 30
0.0
 11
63.1
 21
154.9
 31
0.0
  0
LINE
  5
103
330
100
100
AcDbEntity
  8
0
  6
Continuous
 62
     1
100
AcDbLine
 10
88.2
 20
74.90000000000001
 30
0.0
 11
63.1
 21
74.90000000000001
 31
0.0
  0
LINE
  5
104
330
100
100
AcDbEntity
  8
0
  6
Continuous
 62
     1
100
AcDbLine
 10
64.59999999999999
 20
154.9
 30
0.0
 11
64.59999999999999
 21
74.90000000000001
 31
0.0
  0
LINE
  5
105
330
100
100
AcDbEntity
  8
0
  6
Continuous
 62
     1
100
AcDbLine
 10
65.37645699999998
 20
152.0022229999999
 30
0.0
 11
64.59999999999999
 21
154.9
 31
0.0
  0
LINE
  5
106
330
100
100
AcDbEntity
  8
0
  6
Continuous
 62
     1
100
AcDbLine
 10
64.59999999999999
 20
154.9
 30
0.0
 11
63.82354300000001
 21
152.0022229999999
 31
0.0
  0
LINE
  5
107
330
100
100
AcDbEntity
  8
0
  6
Continuous
 62
     1
100
AcDbLine
 10
63.82354300000001
 20
77.797777
 30
0.0
 11
64.59999999999999
 21
74.90000000000001
 31
0.0
  0
LINE
  5
108
330
100
100
AcDbEntity
  8
0
  6
Continuous
 62
     1
100
AcDbLine
 10
64.59999999999999
 20
74.90000000000001
 30
0.0
 11
65.37645699999998
 21
77.797777
 31
0.0
  0
TEXT
  5
109
330
100
100
AcDbEntity
  8
0
  6
Continuous
 62
     1
100
AcDbText
 10
64.1
 20
111.8999999999999
 30
0.0
 40
3.0
  1
80
 50
90.0
  7
EXCADSTD
100
AcDbText
  0
ENDBLK
  5
10A
330
100
100
AcDbEntity
  8
0
100
AcDbBlockEnd
  0
BLOCK
  5
10D
330
10C
100
AcDbEntity
  8
0
100
AcDbBlockBegin
  2
*D12
 70
     1
 10
0.0
 20
0.0
 30
0.0
  3
*D12
  1

  0
LINE
  5
10E
330
10C
100
AcDbEntity
  8
0
  6
Continuous
 62
     1
100
AcDbLine
 10
89.7
 20
156.4
 30
0.0
 11
89.7
 21
168.6999999999999
 31
0.0
  0
LINE
  5
10F
330
10C
100
AcDbEntity
  8
0
  6
Continuous
 62
     1
100
AcDbLine
 10
94.7
 20
151.4
 30
0.0
 11
94.7
 21
168.6999999999999
 31
0.0
  0
LINE
  5
110
330
10C
100
AcDbEntity
  8
0
  6
Continuous
 62
     1
100
AcDbLine
 10
84.7
 20
167.1999999999998
 30
0.0
 11
94.7
 21
167.1999999999998
 31
0.0
  0
LINE
  5
111
330
10C
100
AcDbEntity
  8
0
  6
Continuous
 62
     1
100
AcDbLine
 10
86.802223
 20
166.4235429999999
 30
0.0
 11
89.7
 21
167.1999999999998
 31
0.0
  0
LINE
  5
112
330
10C
100
AcDbEntity
  8
0
  6
Continuous
 62
     1
100
AcDbLine
 10
89.7
 20
167.1999999999998
 30
0.0
 11
86.802223
 21
167.976457
 31
0.0
  0
TEXT
  5
113
330
10C
100
AcDbEntity
  8
0
  6
Continuous
 62
     1
100
AcDbText
 10
90.7
 20
167.6999999999999
 30
0.0
 40
3.0
  1
5
  7
EXCADSTD
100
AcDbText
  0
ENDBLK
  5
114
330
10C
100
AcDbEntity
  8
0
100
AcDbBlockEnd
  0
BLOCK
  5
117
330
116
100
AcDbEntity
  8
0
100
AcDbBlockBegin
  2
*D13
 70
     1
 10
0.0
 20
0.0
 30
0.0
  3
*D13
  1

  0
LINE
  5
118
330
116
100
AcDbEntity
  8
0
  6
Continuous
 62
     1
100
AcDbLine
 10
164.7
 20
151.4
 30
0.0
 11
164.7
 21
168.6999999999999
 31
0.0
  0
LINE
  5
119
330
116
100
AcDbEntity
  8
0
  6
Continuous
 62
     1
100
AcDbLine
 10
94.7
 20
167.1999999999998
 30
0.0
 11
164.7
 21
167.1999999999998
 31
0.0
  0
LINE
  5
11A
330
116
100
AcDbEntity
  8
0
  6
Continuous
 62
     1
100
AcDbLine
 10
97.597777
 20
167.976457
 30
0.0
 11
94.7
 21
167.1999999999998
 31
0.0
  0
LINE
  5
11B
330
116
100
AcDbEntity
  8
0
  6
Continuous
 62
     1
100
AcDbLine
 10
94.7
 20
167.1999999999998
 30
0.0
 11
97.597777
 21
166.4235429999999
 31
0.0
  0
LINE
  5
11C
330
116
100
AcDbEntity
  8
0
  6
Continuous
 62
     1
100
AcDbLine
 10
161.802223
 20
166.4235429999999
 30
0.0
 11
164.7
 21
167.1999999999998
 31
0.0
  0
LINE
  5
11D
330
116
100
AcDbEntity
  8
0
  6
Continuous
 62
     1
100
AcDbLine
 10
164.7
 20
167.1999999999998
 30
0.0
 11
161.802223
 21
167.976457
 31
0.0
  0
TEXT
  5
11E
330
116
100
AcDbEntity
  8
0
  6
Continuous
 62
     1
100
AcDbText
 10
126.7
 20
167.6999999999999
 30
0.0
 40
3.0
  1
70
  7
EXCADSTD
100
AcDbText
  0
ENDBLK
  5
11F
330
116
100
AcDbEntity
  8
0
100
AcDbBlockEnd
  0
BLOCK
  5
122
330
121
100
AcDbEntity
  8
0
100
AcDbBlockBegin
  2
*D14
 70
     1
 10
0.0
 20
0.0
 30
0.0
  3
*D14
  1

  0
LINE
  5
123
330
121
100
AcDbEntity
  8
0
  6
Continuous
 62
     1
100
AcDbLine
 10
169.6999999999999
 20
156.4
 30
0.0
 11
169.6999999999999
 21
168.6999999999999
 31
0.0
  0
LINE
  5
124
330
121
100
AcDbEntity
  8
0
  6
Continuous
 62
     1
100
AcDbLine
 10
164.7
 20
167.1999999999998
 30
0.0
 11
174.6999999999999
 21
167.1999999999998
 31
0.0
  0
LINE
  5
125
330
121
100
AcDbEntity
  8
0
  6
Continuous
 62
     1
100
AcDbLine
 10
172.597777
 20
167.976457
 30
0.0
 11
169.6999999999999
 21
167.1999999999998
 31
0.0
  0
LINE
  5
126
330
121
100
AcDbEntity
  8
0
  6
Continuous
 62
     1
100
AcDbLine
 10
169.6999999999999
 20
167.1999999999998
 30
0.0
 11
172.597777
 21
166.4235429999999
 31
0.0
  0
TEXT
  5
127
330
121
100
AcDbEntity
  8
0
  6
Continuous
 62
     1
100
AcDbText
 10
165.7
 20
167.6999999999999
 30
0.0
 40
3.0
  1
5
  7
EXCADSTD
100
AcDbText
  0
ENDBLK
  5
128
330
121
100
AcDbEntity
  8
0
100
AcDbBlockEnd
  0
BLOCK
  5
12B
330
12A
100
AcDbEntity
  8
0
100
AcDbBlockBegin
  2
*D15
 70
     1
 10
0.0
 20
0.0
 30
0.0
  3
*D15
  1

  0
LINE
  5
12C
330
12A
100
AcDbEntity
  8
0
  6
Continuous
 62
     1
100
AcDbLine
 10
88.2
 20
74.90000000000001
 30
0.0
 11
71.79999999999998
 21
74.90000000000001
 31
0.0
  0
LINE
  5
12D
330
12A
100
AcDbEntity
  8
0
  6
Continuous
 62
     1
100
AcDbLine
 10
93.2
 20
79.90000000000001
 30
0.0
 11
71.79999999999998
 21
79.90000000000001
 31
0.0
  0
LINE
  5
12E
330
12A
100
AcDbEntity
  8
0
  6
Continuous
 62
     1
100
AcDbLine
 10
73.3
 20
69.90000000000001
 30
0.0
 11
73.3
 21
79.90000000000001
 31
0.0
  0
LINE
  5
12F
330
12A
100
AcDbEntity
  8
0
  6
Continuous
 62
     1
100
AcDbLine
 10
74.07645699999998
 20
72.002223
 30
0.0
 11
73.3
 21
74.90000000000001
 31
0.0
  0
LINE
  5
130
330
12A
100
AcDbEntity
  8
0
  6
Continuous
 62
     1
100
AcDbLine
 10
73.3
 20
74.90000000000001
 30
0.0
 11
72.523543
 21
72.002223
 31
0.0
  0
TEXT
  5
131
330
12A
100
AcDbEntity
  8
0
  6
Continuous
 62
     1
100
AcDbText
 10
72.8
 20
75.9
 30
0.0
 40
3.0
  1
5
 50
90.0
  7
EXCADSTD
100
AcDbText
  0
ENDBLK
  5
132
330
12A
100
AcDbEntity
  8
0
100
AcDbBlockEnd
  0
BLOCK
  5
135
330
134
100
AcDbEntity
  8
0
100
AcDbBlockBegin
  2
*D16
 70
     1
 10
0.0
 20
0.0
 30
0.0
  3
*D16
  1

  0
LINE
  5
136
330
134
100
AcDbEntity
  8
0
  6
Continuous
 62
     1
100
AcDbLine
 10
93.2
 20
149.9
 30
0.0
 11
71.79999999999998
 21
149.9
 31
0.0
  0
LINE
  5
137
330
134
100
AcDbEntity
  8
0
  6
Continuous
 62
     1
100
AcDbLine
 10
73.3
 20
79.90000000000001
 30
0.0
 11
73.3
 21
149.9
 31
0.0
  0
LINE
  5
138
330
134
100
AcDbEntity
  8
0
  6
Continuous
 62
     1
100
AcDbLine
 10
72.523543
 20
82.797777
 30
0.0
 11
73.3
 21
79.90000000000001
 31
0.0
  0
LINE
  5
139
330
134
100
AcDbEntity
  8
0
  6
Continuous
 62
     1
100
AcDbLine
 10
73.3
 20
79.90000000000001
 30
0.0
 11
74.07645699999998
 21
82.797777
 31
0.0
  0
LINE
  5
13A
330
134
100
AcDbEntity
  8
0
  6
Continuous
 62
     1
100
AcDbLine
 10
74.07645699999998
 20
147.0022229999998
 30
0.0
 11
73.3
 21
149.9
 31
0.0
  0
LINE
  5
13B
330
134
100
AcDbEntity
  8
0
  6
Continuous
 62
     1
100
AcDbLine
 10
73.3
 20
149.9
 30
0.0
 11
72.523543
 21
147.0022229999998
 31
0.0
  0
TEXT
  5
13C
330
134
100
AcDbEntity
  8
0
  6
Continuous
 62
     1
100
AcDbText
 10
72.8
 20
111.8999999999999
 30
0.0
 40
3.0
  1
70
 50
90.0
  7
EXCADSTD
100
AcDbText
  0
ENDBLK
  5
13D
330
134
100
AcDbEntity
  8
0
100
AcDbBlockEnd
  0
BLOCK
  5
140
330
13F
100
AcDbEntity
  8
0
100
AcDbBlockBegin
  2
*D17
 70
     1
 10
0.0
 20
0.0
 30
0.0
  3
*D17
  1

  0
LINE
  5
141
330
13F
100
AcDbEntity
  8
0
  6
Continuous
 62
     1
100
AcDbLine
 10
88.2
 20
154.9
 30
0.0
 11
71.79999999999998
 21
154.9
 31
0.0
  0
LINE
  5
142
330
13F
100
AcDbEntity
  8
0
  6
Continuous
 62
     1
100
AcDbLine
 10
73.3
 20
149.9
 30
0.0
 11
73.3
 21
159.9
 31
0.0
  0
LINE
  5
143
330
13F
100
AcDbEntity
  8
0
  6
Continuous
 62
     1
100
AcDbLine
 10
72.523543
 20
157.7977769999999
 30
0.0
 11
73.3
 21
154.9
 31
0.0
  0
LINE
  5
144
330
13F
100
AcDbEntity
  8
0
  6
Continuous
 62
     1
100
AcDbLine
 10
73.3
 20
154.9
 30
0.0
 11
74.07645699999998
 21
157.7977769999999
 31
0.0
  0
TEXT
  5
145
330
13F
100
AcDbEntity
  8
0
  6
Continuous
 62
     1
100
AcDbText
 10
72.8
 20
150.9
 30
0.0
 40
3.0
  1
5
 50
90.0
  7
EXCADSTD
100
AcDbText
  0
ENDBLK
  5
146
330
13F
100
AcDbEntity
  8
0
100
AcDbBlockEnd
  0
BLOCK
  5
149
330
148
100
AcDbEntity
  8
0
100
AcDbBlockBegin
  2
*D18
 70
     1
 10
0.0
 20
0.0
 30
0.0
  3
*D18
  1

  0
LINE
  5
14A
330
148
100
AcDbEntity
  8
0
  6
Continuous
 62
     1
100
AcDbLine
 10
218.8
 20
150.4
 30
0.0
 11
196.1999999999999
 21
150.4
 31
0.0
  0
LINE
  5
14B
330
148
100
AcDbEntity
  8
0
  6
Continuous
 62
     1
100
AcDbLine
 10
218.8
 20
79.40000000000002
 30
0.0
 11
196.1999999999999
 21
79.40000000000002
 31
0.0
  0
LINE
  5
14C
330
148
100
AcDbEntity
  8
0
  6
Continuous
 62
     1
100
AcDbLine
 10
197.6999999999999
 20
150.4
 30
0.0
 11
197.6999999999999
 21
79.40000000000002
 31
0.0
  0
LINE
  5
14D
330
148
100
AcDbEntity
  8
0
  6
Continuous
 62
     1
100
AcDbLine
 10
198.476457
 20
147.5022229999999
 30
0.0
 11
197.6999999999999
 21
150.4
 31
0.0
  0
LINE
  5
14E
330
148
100
AcDbEntity
  8
0
  6
Continuous
 62
     1
100
AcDbLine
 10
197.6999999999999
 20
150.4
 30
0.0
 11
196.9235429999999
 21
147.5022229999999
 31
0.0
  0
LINE
  5
14F
330
148
100
AcDbEntity
  8
0
  6
Continuous
 62
     1
100
AcDbLine
 10
196.9235429999999
 20
82.29777699999997
 30
0.0
 11
197.6999999999999
 21
79.40000000000002
 31
0.0
  0
LINE
  5
150
330
148
100
AcDbEntity
  8
0
  6
Continuous
 62
     1
100
AcDbLine
 10
197.6999999999999
 20
79.40000000000002
 30
0.0
 11
198.476457
 21
82.29777699999997
 31
0.0
  0
TEXT
  5
151
330
148
100
AcDbEntity
  8
0
  6
Continuous
 62
     1
100
AcDbText
 10
197.1999999999999
 20
113.4
 30
0.0
 40
3.0
  1
71
 50
90.0
  7
EXCADSTD
100
AcDbText
  0
ENDBLK
  5
152
330
148
100
AcDbEntity
  8
0
100
AcDbBlockEnd
  0
BLOCK
  5
155
330
154
100
AcDbEntity
  8
0
100
AcDbBlockBegin
  2
*D19
 70
     1
 10
0.0
 20
0.0
 30
0.0
  3
*D19
  1

  0
LINE
  5
156
330
154
100
AcDbEntity
  8
0
  6
Continuous
 62
     1
100
AcDbLine
 10
227.8
 20
147.4
 30
0.0
 11
246.6
 21
147.4
 31
0.0
  0
LINE
  5
157
330
154
100
AcDbEntity
  8
0
  6
Continuous
 62
     1
100
AcDbLine
 10
227.8
 20
82.4
 30
0.0
 11
246.6
 21
82.4
 31
0.0
  0
LINE
  5
158
330
154
100
AcDbEntity
  8
0
  6
Continuous
 62
     1
100
AcDbLine
 10
245.1
 20
147.4
 30
0.0
 11
245.1
 21
82.4
 31
0.0
  0
LINE
  5
159
330
154
100
AcDbEntity
  8
0
  6
Continuous
 62
     1
100
AcDbLine
 10
245.876457
 20
144.502223
 30
0.0
 11
245.1
 21
147.4
 31
0.0
  0
LINE
  5
15A
330
154
100
AcDbEntity
  8
0
  6
Continuous
 62
     1
100
AcDbLine
 10
245.1
 20
147.4
 30
0.0
 11
244.323543
 21
144.502223
 31
0.0
  0
LINE
  5
15B
330
154
100
AcDbEntity
  8
0
  6
Continuous
 62
     1
100
AcDbLine
 10
244.323543
 20
85.297777
 30
0.0
 11
245.1
 21
82.4
 31
0.0
  0
LINE
  5
15C
330
154
100
AcDbEntity
  8
0
  6
Continuous
 62
     1
100
AcDbLine
 10
245.1
 20
82.4
 30
0.0
 11
245.876457
 21
85.297777
 31
0.0
  0
TEXT
  5
15D
330
154
100
AcDbEntity
  8
0
  6
Continuous
 62
     1
100
AcDbText
 10
244.6
 20
113.4
 30
0.0
 40
3.0
  1
65
 50
90.0
  7
EXCADSTD
100
AcDbText
  0
ENDBLK
  5
15E
330
154
100
AcDbEntity
  8
0
100
AcDbBlockEnd
  0
ENDSEC
  0
SECTION
  2
ENTITIES
  0
LINE
  5
8E
330
A
100
AcDbEntity
  8
LAY-1
  6
Continuous
 62
     3
100
AcDbLine
 10
287.2608339999998
 20
8.0
 30
0.0
 11
9.0
 21
8.0
 31
0.0
  0
LINE
  5
8F
330
A
100
AcDbEntity
  8
LAY-1
  6
Continuous
 62
     3
100
AcDbLine
 10
287.2608339999998
 20
8.0
 30
0.0
 11
287.2608339999998
 21
201.0000039999999
 31
0.0
  0
LINE
  5
90
330
A
100
AcDbEntity
  8
LAY-1
  6
Continuous
 62
     3
100
AcDbLine
 10
9.0
 20
8.0
 30
0.0
 11
9.0
 21
201.0000039999999
 31
0.0
  0
LINE
  5
91
330
A
100
AcDbEntity
  8
LAY-1
  6
Continuous
 62
     3
100
AcDbLine
 10
9.0
 20
201.0000039999999
 30
0.0
 11
287.2608339999998
 21
201.0000039999999
 31
0.0
  0
POINT
  5
92
330
A
100
AcDbEntity
  8
LAY-1
  6
Continuous
 62
     5
100
AcDbPoint
 10
287.2608339999998
 20
8.0
 30
0.0
  0
POINT
  5
93
330
A
100
AcDbEntity
  8
LAY-1
  6
Continuous
 62
     5
100
AcDbPoint
 10
287.2608339999998
 20
16.5
 30
0.0
  0
POINT
  5
94
330
A
100
AcDbEntity
  8
LAY-1
  6
Continuous
 62
     5
100
AcDbPoint
 10
287.2608339999998
 20
8.0
 30
0.0
  0
POINT
  5
95
330
A
100
AcDbEntity
  8
LAY-1
  6
Continuous
 62
     5
100
AcDbPoint
 10
287.2608339999998
 20
25.0
 30
0.0
  0
POINT
  5
96
330
A
100
AcDbEntity
  8
LAY-1
  6
Continuous
 62
     5
100
AcDbPoint
 10
287.2608339999998
 20
8.0
 30
0.0
  0
POINT
  5
97
330
A
100
AcDbEntity
  8
LAY-1
  6
Continuous
 62
     5
100
AcDbPoint
 10
287.2608339999998
 20
33.5
 30
0.0
  0
POINT
  5
98
330
A
100
AcDbEntity
  8
LAY-1
  6
Continuous
 62
     5
100
AcDbPoint
 10
287.2608339999998
 20
8.0
 30
0.0
  0
POINT
  5
99
330
A
100
AcDbEntity
  8
LAY-1
  6
Continuous
 62
     5
100
AcDbPoint
 10
151.260834
 20
8.000005999999999
 30
0.0
  0
POINT
  5
A2
330
A
100
AcDbEntity
  8
LAY-1
  6
Continuous
 62
     5
100
AcDbPoint
 10
287.2608339999998
 20
8.0
 30
0.0
  0
POINT
  5
A3
330
A
100
AcDbEntity
  8
LAY-1
  6
Continuous
 62
     5
100
AcDbPoint
 10
236.2608339999999
 20
8.0
 30
0.0
  0
POINT
  5
B9
330
A
100
AcDbEntity
  8
LAY-1
  6
Continuous
 62
     5
100
AcDbPoint
 10
143.2966919999999
 20
7.999979999999998
 30
0.0
  0
LWPOLYLINE
  5
BA
330
A
100
AcDbEntity
  8
LAY-1
  6
Continuous
 62
     3
100
AcDbPolyline
 90
        5
 70
   128
 43
0.0
 10
89.7
 20
74.90000000000001
 10
169.6999999999999
 20
74.90000000000001
 10
169.6999999999999
 20
154.9
 10
89.7
 20
154.9
 10
89.7
 20
74.90000000000001
  0
CIRCLE
  5
C1
330
A
100
AcDbEntity
  8
LAY-1
  6
Continuous
 62
     3
100
AcDbCircle
 10
129.6999999999999
 20
114.9
 30
0.0
 40
35.5
  0
CIRCLE
  5
C2
330
A
100
AcDbEntity
  8
LAY-1
  6
Continuous
 62
     3
100
AcDbCircle
 10
129.6999999999999
 20
114.9
 30
0.0
 40
32.5
  0
CIRCLE
  5
C3
330
A
100
AcDbEntity
  8
LAY-1
  6
Continuous
 62
     1
100
AcDbCircle
 10
94.7
 20
149.9
 30
0.0
 40
2.2
  0
CIRCLE
  5
C4
330
A
100
AcDbEntity
  8
LAY-1
  6
Continuous
 62
     1
100
AcDbCircle
 10
94.7
 20
79.90000000000001
 30
0.0
 40
2.2
  0
CIRCLE
  5
C5
330
A
100
AcDbEntity
  8
LAY-1
  6
Continuous
 62
     1
100
AcDbCircle
 10
164.7
 20
79.90000000000001
 30
0.0
 40
2.2
  0
CIRCLE
  5
C6
330
A
100
AcDbEntity
  8
LAY-1
  6
Continuous
 62
     1
100
AcDbCircle
 10
164.7
 20
149.9
 30
0.0
 40
2.2
  0
LWPOLYLINE
  5
C7
330
A
100
AcDbEntity
  8
LAY-1
  6
Continuous
 62
     3
100
AcDbPolyline
 90
        5
 70
   128
 43
0.0
 10
220.3
 20
74.90000000000001
 10
226.3
 20
74.90000000000001
 10
226.3
 20
154.9
 10
220.3
 20
154.9
 10
220.3
 20
74.90000000000001
  0
LWPOLYLINE
  5
CE
330
A
100
AcDbEntity
  8
LAY-1
  6
DOT
 62
     1
100
AcDbPolyline
 90
        4
 70
   128
 43
0.0
 10
220.3
 20
150.4
 10
224.3
 20
150.4
 10
224.3
 20
147.4
 10
226.3
 20
147.4
  0
LWPOLYLINE
  5
D4
330
A
100
AcDbEntity
  8
LAY-1
  6
DOT
 62
     1
100
AcDbPolyline
 90
        4
 70
   128
 43
0.0
 10
220.3
 20
79.40000000000002
 10
224.3
 20
79.40000000000002
 10
224.3
 20
82.4
 10
226.3
 20
82.4
  0
LINE
  5
DA
330
A
100
AcDbEntity
  8
LAY-1
  6
DASHDOT
 62
     1
100
AcDbLine
 10
129.6999999999999
 20
159.9
 30
0.0
 11
129.6999999999999
 21
68.7
 31
0.0
  0
LINE
  5
DB
330
A
100
AcDbEntity
  8
LAY-1
  6
DASHDOT
 62
     1
100
AcDbLine
 10
78.7
 20
114.9
 30
0.0
 11
230.3
 21
114.9
 31
0.0
  0
DIMENSION
  5
E7
330
A
100
AcDbEntity
  8
LAY-1
  6
Continuous
 62
     1
100
AcDbDimension
  2
*D8
 10
89.7
 20
177.0
 30
0.0
 11
129.6999999999999
 21
179.0
 31
0.0
 70
    32
 71
     5
 42
-1.0
  3
STANDARD
100
AcDbAlignedDimension
 13
169.6999999999999
 23
154.9
 33
0.0
 14
89.7
 24
154.9
 34
0.0
100
AcDbRotatedDimension
1001
ACAD
1000
DSTYLE
1002
{
1070
     6
1000
_EX_NORM
1070
     7
1000
_EX_NORM
1070
    41
1040
3.0
1070
    42
1040
1.5
1070
    44
1040
1.5
1070
    73
1070
     0
1070
    74
1070
     0
1070
    75
1070
     0
1070
    76
1070
     0
1070
    77
1070
     1
1070
    78
1070
     8
1070
   140
1040
3.0
1070
   147
1040
0.5
1070
   173
1070
     1
1070
   176
1070
     1
1070
   177
1070
     1
1070
   178
1070
     1
1070
   271
1070
     3
1070
   280
1070
     0
1070
   287
1070
     3
1002
}
  0
DIMENSION
  5
F3
330
A
100
AcDbEntity
  8
LAY-1
  6
Continuous
 62
     1
100
AcDbDimension
  2
*D9
 10
220.3
 20
177.0
 30
0.0
 11
223.3
 21
179.0
 31
0.0
 70
    32
 71
     5
 42
-1.0
  3
STANDARD
100
AcDbAlignedDimension
 13
226.3
 23
154.9
 33
0.0
 14
220.3
 24
154.9
 34
0.0
100
AcDbRotatedDimension
1001
ACAD
1000
DSTYLE
1002
{
1070
     6
1000
_EX_NORM
1070
     7
1000
_EX_NORM
1070
    41
1040
3.0
1070
    42
1040
1.5
1070
    44
1040
1.5
1070
    73
1070
     0
1070
    74
1070
     0
1070
    75
1070
     0
1070
    76
1070
     0
1070
    77
1070
     1
1070
    78
1070
     8
1070
   140
1040
3.0
1070
   147
1040
0.5
1070
   173
1070
     1
1070
   176
1070
     1
1070
   177
1070
     1
1070
   178
1070
     1
1070
   271
1070
     3
1070
   280
1070
     0
1070
   287
1070
     3
1002
}
  0
DIMENSION
  5
FF
330
A
100
AcDbEntity
  8
LAY-1
  6
Continuous
 62
     1
100
AcDbDimension
  2
*D10
 10
224.3
 20
167.1999999999998
 30
0.0
 11
215.8
 21
169.1999999999999
 31
0.0
 70
    32
 71
     5
 42
-1.0
  3
STANDARD
100
AcDbAlignedDimension
 13
220.3
 23
154.9
 33
0.0
 14
224.3
 24
150.4
 34
0.0
100
AcDbRotatedDimension
1001
ACAD
1000
DSTYLE
1002
{
1070
     6
1000
_EX_NORM
1070
     7
1000
_EX_NORM
1070
    41
1040
3.0
1070
    42
1040
1.5
1070
    44
1040
1.5
1070
    73
1070
     0
1070
    74
1070
     0
1070
    75
1070
     0
1070
    76
1070
     0
1070
    77
1070
     1
1070
    78
1070
     8
1070
   140
1040
3.0
1070
   147
1040
0.5
1070
   173
1070
     1
1070
   176
1070
     1
1070
   177
1070
     1
1070
   178
1070
     1
1070
   271
1070
     3
1070
   280
1070
     1
1070
   287
1070
     3
1002
}
  0
DIMENSION
  5
10B
330
A
100
AcDbEntity
  8
LAY-1
  6
Continuous
 62
     1
100
AcDbDimension
  2
*D11
 10
64.59999999999999
 20
74.90000000000001
 30
0.0
 11
62.6
 21
114.9
 31
0.0
 70
    32
 71
     5
 42
-1.0
  3
STANDARD
100
AcDbAlignedDimension
 13
89.7
 23
154.9
 33
0.0
 14
89.7
 24
74.90000000000001
 34
0.0
 50
90.0
100
AcDbRotatedDimension
1001
ACAD
1000
DSTYLE
1002
{
1070
     6
1000
_EX_NORM
1070
     7
1000
_EX_NORM
1070
    41
1040
3.0
1070
    42
1040
1.5
1070
    44
1040
1.5
1070
    73
1070
     0
1070
    74
1070
     0
1070
    75
1070
     0
1070
    76
1070
     0
1070
    77
1070
     1
1070
    78
1070
     8
1070
   140
1040
3.0
1070
   147
1040
0.5
1070
   173
1070
     1
1070
   176
1070
     1
1070
   177
1070
     1
1070
   178
1070
     1
1070
   271
1070
     3
1070
   280
1070
     0
1070
   287
1070
     3
1002
}
  0
DIMENSION
  5
115
330
A
100
AcDbEntity
  8
LAY-1
  6
Continuous
 62
     1
100
AcDbDimension
  2
*D12
 10
94.7
 20
167.1999999999998
 30
0.0
 11
92.2
 21
169.1999999999999
 31
0.0
 70
    32
 71
     5
 42
-1.0
  3
STANDARD
100
AcDbAlignedDimension
 13
89.7
 23
154.9
 33
0.0
 14
94.7
 24
149.9
 34
0.0
100
AcDbRotatedDimension
1001
ACAD
1000
DSTYLE
1002
{
1070
     6
1000
_EX_NORM
1070
     7
1000
_EX_NONE
1070
    41
1040
3.0
1070
    42
1040
1.5
1070
    44
1040
1.5
1070
    73
1070
     0
1070
    74
1070
     0
1070
    75
1070
     0
1070
    76
1070
     0
1070
    77
1070
     1
1070
    78
1070
     8
1070
   140
1040
3.0
1070
   147
1040
0.5
1070
   173
1070
     1
1070
   176
1070
     1
1070
   177
1070
     1
1070
   178
1070
     1
1070
   271
1070
     3
1070
   280
1070
     0
1070
   287
1070
     3
1002
}
  0
DIMENSION
  5
120
330
A
100
AcDbEntity
  8
LAY-1
  6
Continuous
 62
     1
100
AcDbDimension
  2
*D13
 10
164.7
 20
167.1999999999998
 30
0.0
 11
129.6999999999999
 21
169.1999999999999
 31
0.0
 70
    32
 71
     5
 42
-1.0
  3
STANDARD
100
AcDbAlignedDimension
 13
94.7
 23
149.9
 33
0.0
 14
164.7
 24
149.9
 34
0.0
100
AcDbRotatedDimension
1001
ACAD
1000
DSTYLE
1002
{
1070
     6
1000
_EX_NORM
1070
     7
1000
_EX_NORM
1070
    41
1040
3.0
1070
    42
1040
1.5
1070
    44
1040
1.5
1070
    73
1070
     0
1070
    74
1070
     0
1070
    75
1070
     1
1070
    76
1070
     0
1070
    77
1070
     1
1070
    78
1070
     8
1070
   140
1040
3.0
1070
   147
1040
0.5
1070
   173
1070
     1
1070
   176
1070
     1
1070
   177
1070
     1
1070
   178
1070
     1
1070
   271
1070
     3
1070
   280
1070
     0
1070
   287
1070
     3
1002
}
  0
DIMENSION
  5
129
330
A
100
AcDbEntity
  8
LAY-1
  6
Continuous
 62
     1
100
AcDbDimension
  2
*D14
 10
169.6999999999999
 20
167.1999999999998
 30
0.0
 11
167.1999999999998
 21
169.1999999999999
 31
0.0
 70
    32
 71
     5
 42
-1.0
  3
STANDARD
100
AcDbAlignedDimension
 13
164.7
 23
149.9
 33
0.0
 14
169.6999999999999
 24
154.9
 34
0.0
100
AcDbRotatedDimension
1001
ACAD
1000
DSTYLE
1002
{
1070
     6
1000
_EX_NONE
1070
     7
1000
_EX_NORM
1070
    41
1040
0.0
1070
    42
1040
1.5
1070
    44
1040
1.5
1070
    73
1070
     0
1070
    74
1070
     0
1070
    75
1070
     1
1070
    76
1070
     0
1070
    77
1070
     1
1070
    78
1070
     8
1070
   140
1040
3.0
1070
   147
1040
0.5
1070
   173
1070
     1
1070
   176
1070
     1
1070
   177
1070
     1
1070
   178
1070
     1
1070
   271
1070
     3
1070
   280
1070
     0
1070
   287
1070
     3
1002
}
  0
DIMENSION
  5
133
330
A
100
AcDbEntity
  8
LAY-1
  6
Continuous
 62
     1
100
AcDbDimension
  2
*D15
 10
73.3
 20
79.90000000000001
 30
0.0
 11
71.29999999999999
 21
77.40000000000001
 31
0.0
 70
    32
 71
     5
 42
-1.0
  3
STANDARD
100
AcDbAlignedDimension
 13
89.7
 23
74.90000000000001
 33
0.0
 14
94.7
 24
79.90000000000001
 34
0.0
 50
90.0
100
AcDbRotatedDimension
1001
ACAD
1000
DSTYLE
1002
{
1070
     6
1000
_EX_NORM
1070
     7
1000
_EX_NONE
1070
    41
1040
3.0
1070
    42
1040
1.5
1070
    44
1040
1.5
1070
    73
1070
     0
1070
    74
1070
     0
1070
    75
1070
     0
1070
    76
1070
     0
1070
    77
1070
     1
1070
    78
1070
     8
1070
   140
1040
3.0
1070
   147
1040
0.5
1070
   173
1070
     1
1070
   176
1070
     1
1070
   177
1070
     1
1070
   178
1070
     1
1070
   271
1070
     3
1070
   280
1070
     0
1070
   287
1070
     3
1002
}
  0
DIMENSION
  5
13E
330
A
100
AcDbEntity
  8
LAY-1
  6
Continuous
 62
     1
100
AcDbDimension
  2
*D16
 10
73.3
 20
149.9
 30
0.0
 11
71.29999999999999
 21
114.9
 31
0.0
 70
    32
 71
     5
 42
-1.0
  3
STANDARD
100
AcDbAlignedDimension
 13
94.7
 23
79.90000000000001
 33
0.0
 14
94.7
 24
149.9
 34
0.0
 50
90.0
100
AcDbRotatedDimension
1001
ACAD
1000
DSTYLE
1002
{
1070
     6
1000
_EX_NORM
1070
     7
1000
_EX_NORM
1070
    41
1040
3.0
1070
    42
1040
1.5
1070
    44
1040
1.5
1070
    73
1070
     0
1070
    74
1070
     0
1070
    75
1070
     1
1070
    76
1070
     0
1070
    77
1070
     1
1070
    78
1070
     8
1070
   140
1040
3.0
1070
   147
1040
0.5
1070
   173
1070
     1
1070
   176
1070
     1
1070
   177
1070
     1
1070
   178
1070
     1
1070
   271
1070
     3
1070
   280
1070
     0
1070
   287
1070
     3
1002
}
  0
DIMENSION
  5
147
330
A
100
AcDbEntity
  8
LAY-1
  6
Continuous
 62
     1
100
AcDbDimension
  2
*D17
 10
73.3
 20
154.9
 30
0.0
 11
71.29999999999999
 21
152.4
 31
0.0
 70
    32
 71
     5
 42
-1.0
  3
STANDARD
100
AcDbAlignedDimension
 13
94.7
 23
149.9
 33
0.0
 14
89.7
 24
154.9
 34
0.0
 50
90.0
100
AcDbRotatedDimension
1001
ACAD
1000
DSTYLE
1002
{
1070
     6
1000
_EX_NONE
1070
     7
1000
_EX_NORM
1070
    41
1040
0.0
1070
    42
1040
1.5
1070
    44
1040
1.5
1070
    73
1070
     0
1070
    74
1070
     0
1070
    75
1070
     1
1070
    76
1070
     0
1070
    77
1070
     1
1070
    78
1070
     8
1070
   140
1040
3.0
1070
   147
1040
0.5
1070
   173
1070
     1
1070
   176
1070
     1
1070
   177
1070
     1
1070
   178
1070
     1
1070
   271
1070
     3
1070
   280
1070
     0
1070
   287
1070
     3
1002
}
  0
DIMENSION
  5
153
330
A
100
AcDbEntity
  8
LAY-1
  6
Continuous
 62
     1
100
AcDbDimension
  2
*D18
 10
197.6999999999999
 20
79.40000000000002
 30
0.0
 11
195.6999999999999
 21
114.9
 31
0.0
 70
    32
 71
     5
 42
-1.0
  3
STANDARD
100
AcDbAlignedDimension
 13
220.3
 23
150.4
 33
0.0
 14
220.3
 24
79.40000000000002
 34
0.0
 50
90.0
100
AcDbRotatedDimension
1001
ACAD
1000
DSTYLE
1002
{
1070
     6
1000
_EX_NORM
1070
     7
1000
_EX_NORM
1070
    41
1040
3.0
1070
    42
1040
1.5
1070
    44
1040
1.5
1070
    73
1070
     0
1070
    74
1070
     0
1070
    75
1070
     0
1070
    76
1070
     0
1070
    77
1070
     1
1070
    78
1070
     8
1070
   140
1040
3.0
1070
   147
1040
0.5
1070
   173
1070
     1
1070
   176
1070
     1
1070
   177
1070
     1
1070
   178
1070
     1
1070
   271
1070
     3
1070
   280
1070
     0
1070
   287
1070
     3
1002
}
  0
DIMENSION
  5
15F
330
A
100
AcDbEntity
  8
LAY-1
  6
Continuous
 62
     1
100
AcDbDimension
  2
*D19
 10
245.1
 20
82.4
 30
0.0
 11
243.1
 21
114.9
 31
0.0
 70
    32
 71
     5
 42
-1.0
  3
STANDARD
100
AcDbAlignedDimension
 13
226.3
 23
147.4
 33
0.0
 14
226.3
 24
82.4
 34
0.0
 50
90.0
100
AcDbRotatedDimension
1001
ACAD
1000
DSTYLE
1002
{
1070
     6
1000
_EX_NORM
1070
     7
1000
_EX_NORM
1070
    41
1040
3.0
1070
    42
1040
1.5
1070
    44
1040
1.5
1070
    73
1070
     0
1070
    74
1070
     0
1070
    75
1070
     0
1070
    76
1070
     0
1070
    77
1070
     1
1070
    78
1070
     8
1070
   140
1040
3.0
1070
   147
1040
0.5
1070
   173
1070
     1
1070
   176
1070
     1
1070
   177
1070
     1
1070
   178
1070
     1
1070
   271
1070
     3
1070
   280
1070
     0
1070
   287
1070
     3
1002
}
  0
TEXT
  5
160
330
A
100
AcDbEntity
  8
LAY-1
  6
Continuous
 62
     1
100
AcDbText
 10
44.668084
 20
176.9361679999999
 30
0.0
 40
3.0
  1
4 - φ4.5
 41
0.8490566037735847
  7
EXCADSTD
 72
     5
 11
62.66808399999999
 21
176.9361679999999
 31
0.0
100
AcDbText
  0
LEADER
  5
161
330
A
100
AcDbEntity
  8
LAY-1
  6
Continuous
 62
     1
100
AcDbLeader
  3
STANDARD
 76
     3
 10
93.18095300000001
 20
151.491382
 30
0.0
 10
68.236168
 20
176.4361679999999
 30
0.0
 10
39.1
 20
176.4361679999999
 30
0.0
1001
ACAD
1000
DSTYLE
1002
{
1070
    41
1040
3.0
1070
     5
1000
_EX_NORM
1070
     6
1000
_EX_NORM
1070
     7
1000
_EX_NORM
1002
}
  0
MTEXT
  5
196
330
A
100
AcDbEntity
  8
LAY-1
  6
Continuous
100
AcDbMText
 10
14.25442177555219
 20
49.15870396664477
 30
0.0
 40
4.0
 41
112.1783999999999
 71
     1
 72
     5
  1
MATERIAL :ALUMINIUM (A5052)\P2 REQUIRED
 73
     1
 44
1.0
  0
LINE
  5
197
330
A
100
AcDbEntity
  8
LAY-1
  6
Continuous
370
   100
100
AcDbLine
 10
287.2608336047682
 20
18.34321724906844
 30
0.0
 11
120.5941669381015
 21
18.34321066187762
 31
0.0
210
0.0
220
0.0
230
-1.0
  0
LINE
  5
198
330
A
100
AcDbEntity
  8
LAY-1
  6
Continuous
370
   100
100
AcDbLine
 10
287.2608332095367
 20
28.34321724906846
 30
0.0
 11
120.5941665428704
 21
28.34321066187761
 31
0.0
210
0.0
220
0.0
230
-1.0
  0
LINE
  5
199
330
A
100
AcDbEntity
  8
LAY-1
  6
Continuous
370
   100
100
AcDbLine
 10
287.2608328143056
 20
38.34321724906846
 30
0.0
 11
120.5941661476387
 21
38.3432106618776
 31
0.0
210
0.0
220
0.0
230
-1.0
  0
MTEXT
  5
19A
330
A
100
AcDbEntity
  8
LAY-1
  6
Continuous
100
AcDbMText
 10
127.3527402296545
 20
27.81076108164469
 30
0.0
 40
3.0
 41
55.91528214553289
 71
     1
 72
     5
  1
{\fArial|b1|i0|c0|p34;PHENIX TOC IN TSUKUBA\P\fArial|b0|i0|c0|p34;\H0.6667x;Dept. of Physics , Tsukuba Univ.  Japan}
 73
     1
 44
1.0
  0
MTEXT
  5
19B
330
A
100
AcDbEntity
  8
LAY-1
  6
Continuous
100
AcDbMText
 10
122.9150189772132
 20
16.87218040969849
 30
0.0
 40
2.5
 41
64.49488333333336
 71
     1
 72
     5
  1
{\fArial|b0|i0|c0|p34;JUL 31 2001\P\fArial|b1|i0|c0|p34;\H1.2x;CI \fMS UI Gothic|b1|i0|c0|p17; \fArial|b1|i0|c0|p34;INDUSTRIES, LTD. (JAPAN)}
 73
     1
 44
1.0
  0
MTEXT
  5
19C
330
A
100
AcDbEntity
  8
LAY-1
  6
Continuous
100
AcDbMText
 10
155.2272443190103
 20
35.16126071161907
 30
0.0
 40
3.333333333333333
 41
16.66666666222933
 71
     1
 72
     5
  1
{\fMS UI Gothic|b0|i0|c0|p17;SCALE}
 73
     1
 44
1.0
  0
MTEXT
  5
19D
330
A
100
AcDbEntity
  8
LAY-1
  6
Continuous
100
AcDbMText
 10
122.4545926466469
 20
34.87228765832264
 30
0.0
 40
3.333333333333333
 41
13.28987733741945
 71
     1
 72
     5
  1
UNIT
 73
     1
 44
1.0
  0
LINE
  5
19E
330
A
100
AcDbEntity
  8
LAY-1
  6
Continuous
370
   100
100
AcDbLine
 10
120.5941661476387
 20
38.34321066187759
 30
0.0
 11
120.5941673333331
 21
8.343210661877611
 31
0.0
210
0.0
220
0.0
230
-1.0
  0
LINE
  5
19F
330
A
100
AcDbEntity
  8
LAY-1
  6
Continuous
370
   100
100
AcDbLine
 10
137.2608328143055
 20
38.34321132059664
 30
0.0
 11
137.2608332095369
 21
28.3432113205967
 31
0.0
210
0.0
220
0.0
230
-1.0
  0
LINE
  5
1A0
330
A
100
AcDbEntity
  8
LAY-1
  6
Continuous
370
   100
100
AcDbLine
 10
153.9274994809721
 20
38.34321197931572
 30
0.0
 11
153.9274998762035
 21
28.34321197931576
 31
0.0
210
0.0
220
0.0
230
-1.0
  0
MTEXT
  5
1A1
330
A
100
AcDbEntity
  8
LAY-1
  6
Continuous
100
AcDbMText
 10
138.2603558912757
 20
31.05639404800415
 30
0.0
 40
1.666666666666666
 41
13.28988333333334
 71
     1
 72
     5
  1
{\fArial|b0|i0|c0|p34;MILLIMETERS}
 73
     1
 44
1.0
  0
MTEXT
  5
1A2
330
A
100
AcDbEntity
  8
LAY-1
  6
Continuous
100
AcDbMText
 10
141.293085993815
 20
36.90106537686664
 30
0.0
 40
3.333333333333333
 41
13.28988333333334
 71
     1
 72
     5
  1
{\fArial|b1|i1|c0|p34;mm}
 73
     1
 44
1.0
  0
MTEXT
  5
1A3
330
A
100
AcDbEntity
  8
LAY-1
  6
Continuous
100
AcDbMText
 10
188.879496516276
 20
27.19165621943157
 30
0.0
 40
3.0
 41
33.33333333333335
 71
     1
 72
     5
  1
PHENIX\PDRAWUNG NO.
 73
     1
 44
1.0
  0
MTEXT
  5
1A4
330
A
100
AcDbEntity
  8
LAY-1
  6
Continuous
100
AcDbMText
 10
188.8085329746093
 20
14.20569486167907
 30
0.0
 40
3.0
 41
31.89735
 71
     1
 72
     5
  1
DRAWING NO.
 73
     1
 44
1.0
  0
MTEXT
  5
1A5
330
A
100
AcDbEntity
  8
LAY-1
  6
Continuous
100
AcDbMText
 10
175.2013552402343
 20
34.73448950794221
 30
0.0
 40
3.333333333333333
 41
13.2899
 71
     1
 72
     5
  1
{\fArial|b1|i0|c0|p34;1:1}
 73
     1
 44
1.0
  0
LINE
  5
1A6
330
A
100
AcDbEntity
  8
LAY-1
  6
Continuous
370
   100
100
AcDbLine
 10
170.5941661476388
 20
38.34321263803481
 30
0.0
 11
170.5941665428703
 21
28.34321263803487
 31
0.0
210
0.0
220
0.0
230
-1.0
  0
LINE
  5
1A7
330
A
100
AcDbEntity
  8
LAY-1
  6
Continuous
370
   100
100
AcDbLine
 10
187.2608328143056
 20
38.34321329675393
 30
0.0
 11
187.2608328143056
 21
8.343206249068481
 31
0.0
210
0.0
220
0.0
230
-1.0
  0
LINE
  5
1A8
330
A
100
AcDbEntity
  8
LAY-1
  6
Continuous
100
AcDbLine
 10
220.5941661476388
 20
38.34321329675393
 30
0.0
 11
220.5941661476388
 21
8.343206249068481
 31
0.0
210
0.0
220
0.0
230
-1.0
  0
MTEXT
  5
1A9
330
A
100
AcDbEntity
  8
LAY-1
  6
Continuous
100
AcDbMText
 10
193.3096900994464
 20
34.92876870182038
 30
0.0
 40
3.333333333333333
 41
33.33333333333335
 71
     1
 72
     5
  1
TITLE
 73
     1
 44
1.0
  0
MTEXT
  5
1AA
330
A
100
AcDbEntity
  8
LAY-1
  6
Continuous
100
AcDbMText
 10
232.7071917270507
 20
26.28090610848745
 30
0.0
 40
5.0
 41
46.5857
 71
     1
 72
     5
  1
{\fArial|b1|i0|c0|p34;105-219-103}
 73
     1
 44
1.0
  0
MTEXT
  5
1AB
330
A
100
AcDbEntity
  8
LAY-1
  6
Continuous
100
AcDbMText
 10
226.3732555167655
 20
36.33257443541551
 30
0.0
 40
5.0
 41
56.9572
 71
     1
 72
     5
  1
{\fArial|b1|i0|c0|p34;housing mount 2}
 73
     1
 44
1.0
  0
MTEXT
  5
1AC
330
A
100
AcDbEntity
  8
LAY-1
  6
Continuous
100
AcDbMText
 10
243.0308102980141
 20
14.87078430997213
 30
0.0
 40
3.333333333333333
 41
17.9787
 71
     1
 72
     5
  1
038
 73
     1
 44
1.0
  0
ENDSEC
  0
SECTION
  2
OBJECTS
  0
DICTIONARY
  5
19
330
0
100
AcDbDictionary
281
     1
  3
ACAD_GROUP
350
1A
  3
ACAD_LAYOUT
350
171
  3
ACAD_MLINESTYLE
350
1B
  3
ACAD_PLOTSETTINGS
350
172
  3
ACAD_PLOTSTYLENAME
350
16F
  3
ASE_INDEX_DICTIONARY
350
1AE
  0
DICTIONARY
  5
1A
102
{ACAD_REACTORS
330
19
102
}
330
19
100
AcDbDictionary
281
     1
  0
DICTIONARY
  5
171
102
{ACAD_REACTORS
330
19
102
}
330
19
100
AcDbDictionary
281
     1
  3
Model
350
173
  3
ﾚｲｱｳﾄ1
350
174
  0
DICTIONARY
  5
1B
102
{ACAD_REACTORS
330
19
102
}
330
19
100
AcDbDictionary
281
     1
  3
STANDARD
350
1C
  0
DICTIONARY
  5
172
102
{ACAD_REACTORS
330
19
102
}
330
19
100
AcDbDictionary
281
     1
  0
ACDBDICTIONARYWDFLT
  5
16F
102
{ACAD_REACTORS
330
19
102
}
330
19
100
AcDbDictionary
281
     1
  3
Normal
350
170
100
AcDbDictionaryWithDefault
340
170
  0
DICTIONARY
  5
1AE
102
{ACAD_REACTORS
330
19
102
}
330
19
100
AcDbDictionary
281
     1
  3
ASEBlockHierarchyIndexRecord
350
1B0
1001
DCO15
1040
1413151058.062
  0
LAYOUT
  5
173
102
{ACAD_REACTORS
330
171
102
}
330
171
100
AcDbPlotSettings
  1

  2
Tektronix Phaser 850DP
  4

  6

 40
0.0
 41
0.0
 42
0.0
 43
0.0
 44
0.0
 45
0.0
 46
0.0
 47
0.0
 48
0.0
 49
0.0
140
0.0
141
0.0
142
1.0
143
1.0
 70
  1712
 72
     0
 73
     0
 74
     0
  7

 75
     0
147
1.0
148
0.0
149
0.0
100
AcDbLayout
  1
Model
 70
     1
 71
     0
 10
0.0
 20
0.0
 11
12.0
 21
9.0
 12
0.0
 22
0.0
 32
0.0
 14
0.0
 24
0.0
 34
0.0
 15
0.0
 25
0.0
 35
0.0
146
0.0
 13
0.0
 23
0.0
 33
0.0
 16
1.0
 26
0.0
 36
0.0
 17
0.0
 27
1.0
 37
0.0
 76
     0
330
A
  0
LAYOUT
  5
174
102
{ACAD_REACTORS
330
171
102
}
330
171
100
AcDbPlotSettings
  1

  2
Tektronix Phaser 850DP
  4

  6

 40
0.0
 41
0.0
 42
0.0
 43
0.0
 44
0.0
 45
0.0
 46
0.0
 47
0.0
 48
0.0
 49
0.0
140
0.0
141
0.0
142
1.0
143
1.0
 70
   688
 72
     0
 73
     0
 74
     5
  7

 75
    16
147
1.0
148
0.0
149
0.0
100
AcDbLayout
  1
ﾚｲｱｳﾄ1
 70
     0
 71
     1
 10
0.0
 20
0.0
 11
12.0
 21
9.0
 12
0.0
 22
0.0
 32
0.0
 14
1.000000000000000E+20
 24
1.000000000000000E+20
 34
1.000000000000000E+20
 15
-1.000000000000000E+20
 25
-1.000000000000000E+20
 35
-1.000000000000000E+20
146
0.0
 13
0.0
 23
0.0
 33
0.0
 16
1.0
 26
0.0
 36
0.0
 17
0.0
 27
1.0
 37
0.0
 76
     0
330
B
  0
MLINESTYLE
  5
1C
102
{ACAD_REACTORS
330
1B
102
}
330
1B
100
AcDbMlineStyle
  2
STANDARD
 70
     0
  3

 62
     0
 51
90.0
 52
90.0
 71
     2
 49
0.5
 62
   256
  6
BYLAYER
 49
-0.5
 62
   256
  6
BYLAYER
  0
ACDBPLACEHOLDER
  5
170
102
{ACAD_REACTORS
330
16F
102
}
330
16F
  0
XRECORD
  5
1B0
102
{ACAD_REACTORS
330
1AE
102
}
330
1AE
100
AcDbXrecord
280
     1
  0
ENDSEC
  0
EOF
