  0
SECTION
  2
HEADER
  9
$ACADVER
  1
AC1015
  9
$ACADMAINTVER
 70
    10
  9
$DWGCODEPAGE
  3
ANSI_932
  9
$INSBASE
 10
0.0
 20
0.0
 30
0.0
  9
$EXTMIN
 10
3.780602455441226
 20
3.790741460154265
 30
-0.0000000349181948
  9
$EXTMAX
 10
152.5458579576744
 20
100.3056339061652
 30
0.0000000814935747
  9
$LIMMIN
 10
0.0
 20
0.0
  9
$LIMMAX
 10
297.0
 20
210.0
  9
$ORTHOMODE
 70
     1
  9
$REGENMODE
 70
     1
  9
$FILLMODE
 70
     1
  9
$QTEXTMODE
 70
     0
  9
$MIRRTEXT
 70
     1
  9
$LTSCALE
 40
1.0
  9
$ATTMODE
 70
     1
  9
$TEXTSIZE
 40
0.0
  9
$TRACEWID
 40
0.05
  9
$TEXTSTYLE
  7
STANDARD
  9
$CLAYER
  8
LAY-1
  9
$CELTYPE
  6
CONTINUOUS
  9
$CECOLOR
 62
   256
  9
$CELTSCALE
 40
1.0
  9
$DISPSILH
 70
     0
  9
$DIMSCALE
 40
1.0
  9
$DIMASZ
 40
0.18
  9
$DIMEXO
 40
0.0625
  9
$DIMDLI
 40
0.38
  9
$DIMRND
 40
0.0
  9
$DIMDLE
 40
0.0
  9
$DIMEXE
 40
0.18
  9
$DIMTP
 40
0.0
  9
$DIMTM
 40
0.0
  9
$DIMTXT
 40
0.18
  9
$DIMCEN
 40
0.09
  9
$DIMTSZ
 40
0.0
  9
$DIMTOL
 70
     0
  9
$DIMLIM
 70
     0
  9
$DIMTIH
 70
     1
  9
$DIMTOH
 70
     1
  9
$DIMSE1
 70
     0
  9
$DIMSE2
 70
     0
  9
$DIMTAD
 70
     0
  9
$DIMZIN
 70
     0
  9
$DIMBLK
  1

  9
$DIMASO
 70
     1
  9
$DIMSHO
 70
     1
  9
$DIMPOST
  1

  9
$DIMAPOST
  1

  9
$DIMALT
 70
     0
  9
$DIMALTD
 70
     2
  9
$DIMALTF
 40
25.4
  9
$DIMLFAC
 40
1.0
  9
$DIMTOFL
 70
     0
  9
$DIMTVP
 40
0.0
  9
$DIMTIX
 70
     0
  9
$DIMSOXD
 70
     0
  9
$DIMSAH
 70
     0
  9
$DIMBLK1
  1

  9
$DIMBLK2
  1

  9
$DIMSTYLE
  2
STANDARD
  9
$DIMCLRD
 70
     0
  9
$DIMCLRE
 70
     0
  9
$DIMCLRT
 70
     0
  9
$DIMTFAC
 40
1.0
  9
$DIMGAP
 40
0.09
  9
$DIMJUST
 70
     0
  9
$DIMSD1
 70
     0
  9
$DIMSD2
 70
     0
  9
$DIMTOLJ
 70
     1
  9
$DIMTZIN
 70
     0
  9
$DIMALTZ
 70
     0
  9
$DIMALTTZ
 70
     0
  9
$DIMUPT
 70
     0
  9
$DIMDEC
 70
     4
  9
$DIMTDEC
 70
     4
  9
$DIMALTU
 70
     2
  9
$DIMALTTD
 70
     2
  9
$DIMTXSTY
  7
STANDARD
  9
$DIMAUNIT
 70
     0
  9
$DIMADEC
 70
     0
  9
$DIMALTRND
 40
0.0
  9
$DIMAZIN
 70
     0
  9
$DIMDSEP
 70
    46
  9
$DIMATFIT
 70
     3
  9
$DIMFRAC
 70
     0
  9
$DIMLDRBLK
  1

  9
$DIMLUNIT
 70
     2
  9
$DIMLWD
 70
    -2
  9
$DIMLWE
 70
    -2
  9
$DIMTMOVE
 70
     0
  9
$LUNITS
 70
     2
  9
$LUPREC
 70
     4
  9
$SKETCHINC
 40
0.1
  9
$FILLETRAD
 40
0.0
  9
$AUNITS
 70
     0
  9
$AUPREC
 70
     0
  9
$MENU
  1
acad
  9
$ELEVATION
 40
0.0
  9
$PELEVATION
 40
0.0
  9
$THICKNESS
 40
0.0
  9
$LIMCHECK
 70
     0
  9
$CHAMFERA
 40
0.0
  9
$CHAMFERB
 40
0.0
  9
$CHAMFERC
 40
0.0
  9
$CHAMFERD
 40
0.0
  9
$SKPOLY
 70
     0
  9
$TDCREATE
 40
2452142.434276308
  9
$TDUCREATE
 40
2452142.059276308
  9
$TDUPDATE
 40
2452159.130404907
  9
$TDUUPDATE
 40
2452158.755404907
  9
$TDINDWG
 40
0.0261349769
  9
$TDUSRTIMER
 40
0.0261347917
  9
$USRTIMER
 70
     1
  9
$ANGBASE
 50
0.0
  9
$ANGDIR
 70
     0
  9
$PDMODE
 70
     0
  9
$PDSIZE
 40
0.0
  9
$PLINEWID
 40
0.0
  9
$SPLFRAME
 70
     0
  9
$SPLINETYPE
 70
     6
  9
$SPLINESEGS
 70
     8
  9
$HANDSEED
  5
204
  9
$SURFTAB1
 70
     6
  9
$SURFTAB2
 70
     6
  9
$SURFTYPE
 70
     6
  9
$SURFU
 70
     6
  9
$SURFV
 70
     6
  9
$UCSBASE
  2

  9
$UCSNAME
  2

  9
$UCSORG
 10
0.0
 20
0.0
 30
0.0
  9
$UCSXDIR
 10
1.0
 20
0.0
 30
0.0
  9
$UCSYDIR
 10
0.0
 20
1.0
 30
0.0
  9
$UCSORTHOREF
  2

  9
$UCSORTHOVIEW
 70
     0
  9
$UCSORGTOP
 10
0.0
 20
0.0
 30
0.0
  9
$UCSORGBOTTOM
 10
0.0
 20
0.0
 30
0.0
  9
$UCSORGLEFT
 10
0.0
 20
0.0
 30
0.0
  9
$UCSORGRIGHT
 10
0.0
 20
0.0
 30
0.0
  9
$UCSORGFRONT
 10
0.0
 20
0.0
 30
0.0
  9
$UCSORGBACK
 10
0.0
 20
0.0
 30
0.0
  9
$PUCSBASE
  2

  9
$PUCSNAME
  2

  9
$PUCSORG
 10
0.0
 20
0.0
 30
0.0
  9
$PUCSXDIR
 10
1.0
 20
0.0
 30
0.0
  9
$PUCSYDIR
 10
0.0
 20
1.0
 30
0.0
  9
$PUCSORTHOREF
  2

  9
$PUCSORTHOVIEW
 70
     0
  9
$PUCSORGTOP
 10
0.0
 20
0.0
 30
0.0
  9
$PUCSORGBOTTOM
 10
0.0
 20
0.0
 30
0.0
  9
$PUCSORGLEFT
 10
0.0
 20
0.0
 30
0.0
  9
$PUCSORGRIGHT
 10
0.0
 20
0.0
 30
0.0
  9
$PUCSORGFRONT
 10
0.0
 20
0.0
 30
0.0
  9
$PUCSORGBACK
 10
0.0
 20
0.0
 30
0.0
  9
$USERI1
 70
     0
  9
$USERI2
 70
     0
  9
$USERI3
 70
     0
  9
$USERI4
 70
     0
  9
$USERI5
 70
     0
  9
$USERR1
 40
0.0
  9
$USERR2
 40
0.0
  9
$USERR3
 40
0.0
  9
$USERR4
 40
0.0
  9
$USERR5
 40
0.0
  9
$WORLDVIEW
 70
     1
  9
$SHADEDGE
 70
     3
  9
$SHADEDIF
 70
    70
  9
$TILEMODE
 70
     1
  9
$MAXACTVP
 70
    16
  9
$PINSBASE
 10
0.0
 20
0.0
 30
0.0
  9
$PLIMCHECK
 70
     0
  9
$PEXTMIN
 10
1.000000000000000E+20
 20
1.000000000000000E+20
 30
1.000000000000000E+20
  9
$PEXTMAX
 10
-1.000000000000000E+20
 20
-1.000000000000000E+20
 30
-1.000000000000000E+20
  9
$PLIMMIN
 10
0.0
 20
0.0
  9
$PLIMMAX
 10
12.0
 20
9.0
  9
$UNITMODE
 70
     0
  9
$VISRETAIN
 70
     0
  9
$PLINEGEN
 70
     1
  9
$PSLTSCALE
 70
     0
  9
$TREEDEPTH
 70
  3020
  9
$CMLSTYLE
  2
STANDARD
  9
$CMLJUST
 70
     0
  9
$CMLSCALE
 40
1.0
  9
$PROXYGRAPHICS
 70
     1
  9
$MEASUREMENT
 70
     0
  9
$CELWEIGHT
370
    -1
  9
$ENDCAPS
280
     0
  9
$JOINSTYLE
280
     0
  9
$LWDISPLAY
290
     0
  9
$INSUNITS
 70
     0
  9
$HYPERLINKBASE
  1

  9
$STYLESHEET
  1

  9
$XEDIT
290
     1
  9
$CEPSNTYPE
380
     0
  9
$PSTYLEMODE
290
     1
  9
$FINGERPRINTGUID
  2
{B14215A5-87F4-426B-9BA4-1307916E5404}
  9
$VERSIONGUID
  2
{93512CB0-26D3-4073-A739-0511617C0124}
  9
$EXTNAMES
290
     1
  9
$PSVPSCALE
 40
0.0
  9
$OLESTARTUP
290
     0
  0
ENDSEC
  0
SECTION
  2
CLASSES
  0
CLASS
  1
LWPOLYLINE
  2
AcDbPolyline
  3
AutoCAD 2000
 90
    32768
280
     0
281
     1
  0
CLASS
  1
IMAGE
  2
AcDbRasterImage
  3
ISM
 90
    32895
280
     0
281
     1
  0
CLASS
  1
OLE2FRAME
  2
AcDbOle2Frame
  3
AutoCAD 2000
 90
    32768
280
     0
281
     1
  0
CLASS
  1
HATCH
  2
AcDbHatch
  3
AutoCAD 2000
 90
    32768
280
     0
281
     1
  0
CLASS
  1
DICTIONARYVAR
  2
AcDbDictionaryVar
  3
AutoCAD 2000
 90
    32768
280
     0
281
     0
  0
CLASS
  1
RASTERVARIABLES
  2
AcDbRasterVariables
  3
ISM
 90
    32768
280
     0
281
     0
  0
CLASS
  1
IMAGEDEF
  2
AcDbRasterImageDef
  3
ISM
 90
    32768
280
     0
281
     0
  0
CLASS
  1
IMAGEDEF_REACTOR
  2
AcDbRasterImageDefReactor
  3
ISM
 90
    32769
280
     0
281
     0
  0
CLASS
  1
IDBUFFER
  2
AcDbIdBuffer
  3
AutoCAD 2000
 90
    32768
280
     0
281
     0
  0
CLASS
  1
SPATIAL_FILTER
  2
AcDbSpatialFilter
  3
AutoCAD 2000
 90
    32768
280
     0
281
     0
  0
CLASS
  1
XRECORD
  2
AcDbXrecord
  3
AutoCAD 2000
 90
    32768
280
     0
281
     0
  0
CLASS
  1
SORTENTSTABLE
  2
AcDbSortentsTable
  3
AutoCAD 2000
 90
    32768
280
     0
281
     0
  0
CLASS
  1
LAYER_INDEX
  2
AcDbLayerIndex
  3
AutoCAD 2000
 90
    32768
280
     0
281
     0
  0
CLASS
  1
SPATIAL_INDEX
  2
AcDbSpatialIndex
  3
AutoCAD 2000
 90
    32768
280
     0
281
     0
  0
CLASS
  1
OBJECT_PTR
  2
CAseDLPNTableRecord
  3
ASE-LPNTableRecord
 90
    32769
280
     0
281
     0
  0
CLASS
  1
LAYOUT
  2
AcDbLayout
  3
AutoCAD 2000
 90
        0
280
     0
281
     0
  0
CLASS
  1
PLOTSETTINGS
  2
AcDbPlotSettings
  3
AutoCAD 2000
 90
    32768
280
     0
281
     0
  0
CLASS
  1
ACDBDICTIONARYWDFLT
  2
AcDbDictionaryWithDefault
  3
AutoCAD 2000
 90
        0
280
     0
281
     0
  0
CLASS
  1
ACDBPLACEHOLDER
  2
AcDbPlaceHolder
  3
AutoCAD 2000
 90
        0
280
     0
281
     0
  0
CLASS
  1
VBA_PROJECT
  2
AcDbVbaProject
  3
acadvba
 90
    32768
280
     0
281
     0
  0
CLASS
  1
WIPEOUT
  2
AcDbWipeout
  3
WipeOut|AutoCAD Express Tool|expresstools@autodesk.com
 90
    32768
280
     0
281
     1
  0
CLASS
  1
WIPEOUTVARIABLES
  2
AcDbWipeoutVariables
  3
WipeOut|AutoCAD Express Tool|expresstools@autodesk.com
 90
    32768
280
     0
281
     0
  0
CLASS
  1
RTEXT
  2
RText
  3
RText|AutoCAD Express Tool|expresstools@autodesk.com
 90
    32768
280
     0
281
     1
  0
CLASS
  1
ARCALIGNEDTEXT
  2
AcDbArcAlignedText
  3
ATEXT|AutoCAD Express Tool|expresstools@autodesk.com
 90
    32768
280
     0
281
     1
  0
ENDSEC
  0
SECTION
  2
TABLES
  0
TABLE
  2
VPORT
  5
7
330
0
100
AcDbSymbolTable
 70
     2
  0
VPORT
  5
203
330
7
100
AcDbSymbolTableRecord
100
AcDbViewportTableRecord
  2
*Active
 70
     0
 10
0.0
 20
0.0
 11
1.0
 21
1.0
 12
78.16323020655783
 22
52.04818768315973
 13
0.0
 23
0.0
 14
1.0
 24
1.0
 15
0.0
 25
0.0
 16
0.0
 26
0.0
 36
1.0
 17
0.0
 27
0.0
 37
0.0
 40
97.46421925695532
 41
1.76847290640394
 42
50.0
 43
0.0
 44
0.0
 50
0.0
 51
0.0
 71
     0
 72
   100
 73
     1
 74
     1
 75
     0
 76
     0
 77
     0
 78
     0
281
     0
 65
     1
110
0.0
120
0.0
130
0.0
111
1.0
121
0.0
131
0.0
112
0.0
122
1.0
132
0.0
 79
     0
146
0.0
  0
ENDTAB
  0
TABLE
  2
LTYPE
  5
4
330
0
100
AcDbSymbolTable
 70
     5
  0
LTYPE
  5
11
330
4
100
AcDbSymbolTableRecord
100
AcDbLinetypeTableRecord
  2
BYBLOCK
 70
     0
  3

 72
    65
 73
     0
 40
0.0
  0
LTYPE
  5
12
330
4
100
AcDbSymbolTableRecord
100
AcDbLinetypeTableRecord
  2
BYLAYER
 70
     0
  3

 72
    65
 73
     0
 40
0.0
  0
LTYPE
  5
13
330
4
100
AcDbSymbolTableRecord
100
AcDbLinetypeTableRecord
  2
CONTINUOUS
 70
     0
  3
実線
 72
    65
 73
     0
 40
0.0
  0
LTYPE
  5
1D
330
4
100
AcDbSymbolTableRecord
100
AcDbLinetypeTableRecord
  2
DASHED
 70
     0
  3
破線
 72
    65
 73
     2
 40
3.799999999999998
 49
3.0
 74
     0
 49
-0.8
 74
     0
  0
LTYPE
  5
1E
330
4
100
AcDbSymbolTableRecord
100
AcDbLinetypeTableRecord
  2
DOT
 70
     0
  3
点線
 72
    65
 73
     2
 40
2.0
 49
1.0
 74
     0
 49
-1.0
 74
     0
  0
LTYPE
  5
1F
330
4
100
AcDbSymbolTableRecord
100
AcDbLinetypeTableRecord
  2
DASHDOT
 70
     0
  3
一点鎖線
 72
    65
 73
     4
 40
25.6
 49
20.0
 74
     0
 49
-2.0
 74
     0
 49
1.6
 74
     0
 49
-2.0
 74
     0
  0
LTYPE
  5
20
330
4
100
AcDbSymbolTableRecord
100
AcDbLinetypeTableRecord
  2
DIVIDE
 70
     0
  3
二点鎖線
 72
    65
 73
     6
 40
31.2
 49
20.0
 74
     0
 49
-2.399999999999999
 74
     0
 49
2.0
 74
     0
 49
-2.399999999999999
 74
     0
 49
2.0
 74
     0
 49
-2.399999999999999
 74
     0
  0
ENDTAB
  0
TABLE
  2
LAYER
  5
2
330
0
100
AcDbSymbolTable
 70
     2
  0
LAYER
  5
14
330
2
100
AcDbSymbolTableRecord
100
AcDbLayerTableRecord
  2
0
 70
     0
 62
     7
  6
CONTINUOUS
370
    -3
390
1AB
  0
LAYER
  5
25
330
2
100
AcDbSymbolTableRecord
100
AcDbLayerTableRecord
  2
LAY-1
 70
     0
 62
     7
  6
CONTINUOUS
370
    -3
390
1AB
  0
ENDTAB
  0
TABLE
  2
STYLE
  5
3
330
0
100
AcDbSymbolTable
 70
     5
  0
STYLE
  5
17
330
3
100
AcDbSymbolTableRecord
100
AcDbTextStyleTableRecord
  2
STANDARD
 70
     0
 40
0.0
 41
1.0
 50
0.0
 71
     0
 42
0.0
  3
monotxt
  4

  0
STYLE
  5
21
330
3
100
AcDbSymbolTableRecord
100
AcDbTextStyleTableRecord
  2
EXCADSTD
 70
     0
 40
0.0
 41
1.0
 50
0.0
 71
     0
 42
0.2
  3
monotxt
  4
extfont
  0
STYLE
  5
22
330
3
100
AcDbSymbolTableRecord
100
AcDbTextStyleTableRecord
  2
EXCADVERT
 70
     4
 40
0.0
 41
1.0
 50
0.0
 71
     0
 42
0.286885
  3
monotxt
  4
extfont
  0
STYLE
  5
23
330
3
100
AcDbSymbolTableRecord
100
AcDbTextStyleTableRecord
  2
EXCADSTD2
 70
     0
 40
0.0
 41
1.0
 50
0.0
 71
     0
 42
0.2
  3
monotxt
  4
extfont
  0
STYLE
  5
24
330
3
100
AcDbSymbolTableRecord
100
AcDbTextStyleTableRecord
  2
EXCADVERT2
 70
     4
 40
0.0
 41
1.0
 50
0.0
 71
     0
 42
0.286885
  3
monotxt
  4
extfont
  0
ENDTAB
  0
TABLE
  2
VIEW
  5
5
330
0
100
AcDbSymbolTable
 70
     0
  0
ENDTAB
  0
TABLE
  2
UCS
  5
6
330
0
100
AcDbSymbolTable
 70
     0
  0
ENDTAB
  0
TABLE
  2
APPID
  5
8
330
0
100
AcDbSymbolTable
 70
     2
  0
APPID
  5
16
330
8
100
AcDbSymbolTableRecord
100
AcDbRegAppTableRecord
  2
ACAD
 70
     0
  0
APPID
  5
1F5
330
8
100
AcDbSymbolTableRecord
100
AcDbRegAppTableRecord
  2
DCO15
 70
     0
  0
ENDTAB
  0
TABLE
  2
DIMSTYLE
  5
9
330
0
100
AcDbSymbolTable
 70
     1
100
AcDbDimStyleTable
 71
     0
  0
DIMSTYLE
105
18
102
{ACAD_REACTORS
330
104
330
110
330
11C
330
129
330
14C
330
168
330
173
330
17A
330
185
330
18C
330
197
330
1A3
102
}
330
9
100
AcDbSymbolTableRecord
100
AcDbDimStyleTableRecord
  2
STANDARD
 70
     0
340
17
  0
ENDTAB
  0
TABLE
  2
BLOCK_RECORD
  5
1
330
0
100
AcDbSymbolTable
 70
    21
  0
BLOCK_RECORD
  5
A
330
1
100
AcDbSymbolTableRecord
100
AcDbBlockTableRecord
  2
*MODEL_SPACE
340
1AE
  0
BLOCK_RECORD
  5
B
330
1
100
AcDbSymbolTableRecord
100
AcDbBlockTableRecord
  2
*PAPER_SPACE
340
1AF
  0
BLOCK_RECORD
  5
26
330
1
100
AcDbSymbolTableRecord
100
AcDbBlockTableRecord
  2
_EX_NORM
340
0
  0
BLOCK_RECORD
  5
27
330
1
100
AcDbSymbolTableRecord
100
AcDbBlockTableRecord
  2
_EX_BNORM
340
0
  0
BLOCK_RECORD
  5
28
330
1
100
AcDbSymbolTableRecord
100
AcDbBlockTableRecord
  2
_EX_BCIR
340
0
  0
BLOCK_RECORD
  5
29
330
1
100
AcDbSymbolTableRecord
100
AcDbBlockTableRecord
  2
_EX_RCIVIL
340
0
  0
BLOCK_RECORD
  5
2A
330
1
100
AcDbSymbolTableRecord
100
AcDbBlockTableRecord
  2
_EX_SLANT
340
0
  0
BLOCK_RECORD
  5
2B
330
1
100
AcDbSymbolTableRecord
100
AcDbBlockTableRecord
  2
_EX_NONE
340
0
  0
BLOCK_RECORD
  5
2C
330
1
100
AcDbSymbolTableRecord
100
AcDbBlockTableRecord
  2
_EX_CIVIL
340
0
  0
BLOCK_RECORD
  5
2D
330
1
100
AcDbSymbolTableRecord
100
AcDbBlockTableRecord
  2
_EX_WCIR
340
0
  0
BLOCK_RECORD
  5
2E
330
1
100
AcDbSymbolTableRecord
100
AcDbBlockTableRecord
  2
SYM-1
340
0
102
{BLKREFS
331
12A
102
}
  0
BLOCK_RECORD
  5
F9
330
1
100
AcDbSymbolTableRecord
100
AcDbBlockTableRecord
  2
*D9
340
0
  0
BLOCK_RECORD
  5
105
330
1
100
AcDbSymbolTableRecord
100
AcDbBlockTableRecord
  2
*D10
340
0
  0
BLOCK_RECORD
  5
111
330
1
100
AcDbSymbolTableRecord
100
AcDbBlockTableRecord
  2
*D11
340
0
  0
BLOCK_RECORD
  5
11E
330
1
100
AcDbSymbolTableRecord
100
AcDbBlockTableRecord
  2
*D12
340
0
  0
BLOCK_RECORD
  5
141
330
1
100
AcDbSymbolTableRecord
100
AcDbBlockTableRecord
  2
*D13
340
0
  0
BLOCK_RECORD
  5
15D
330
1
100
AcDbSymbolTableRecord
100
AcDbBlockTableRecord
  2
*D14
340
0
  0
BLOCK_RECORD
  5
169
330
1
100
AcDbSymbolTableRecord
100
AcDbBlockTableRecord
  2
*D15
340
0
  0
BLOCK_RECORD
  5
174
330
1
100
AcDbSymbolTableRecord
100
AcDbBlockTableRecord
  2
*D16
340
0
  0
BLOCK_RECORD
  5
17B
330
1
100
AcDbSymbolTableRecord
100
AcDbBlockTableRecord
  2
*D17
340
0
  0
BLOCK_RECORD
  5
186
330
1
100
AcDbSymbolTableRecord
100
AcDbBlockTableRecord
  2
*D18
340
0
  0
BLOCK_RECORD
  5
18D
330
1
100
AcDbSymbolTableRecord
100
AcDbBlockTableRecord
  2
*D19
340
0
  0
BLOCK_RECORD
  5
198
330
1
100
AcDbSymbolTableRecord
100
AcDbBlockTableRecord
  2
*D20
340
0
  0
ENDTAB
  0
ENDSEC
  0
SECTION
  2
BLOCKS
  0
BLOCK
  5
D
330
A
100
AcDbEntity
  8
0
100
AcDbBlockBegin
  2
*MODEL_SPACE
 70
     0
 10
0.0
 20
0.0
 30
0.0
  3
*MODEL_SPACE
  1

  0
ENDBLK
  5
E
330
A
100
AcDbEntity
  8
0
100
AcDbBlockEnd
  0
BLOCK
  5
F
330
B
100
AcDbEntity
 67
     1
  8
0
100
AcDbBlockBegin
  2
*PAPER_SPACE
 70
     0
 10
0.0
 20
0.0
 30
0.0
  3
*PAPER_SPACE
  1

  0
ENDBLK
  5
10
330
B
100
AcDbEntity
 67
     1
  8
0
100
AcDbBlockEnd
  0
BLOCK
  5
2F
330
26
100
AcDbEntity
  8
0
100
AcDbBlockBegin
  2
_EX_NORM
 70
     0
 10
0.0
 20
0.0
 30
0.0
  3
_EX_NORM
  1

  0
LINE
  5
30
330
26
100
AcDbEntity
  8
0
  6
Continuous
 62
     0
100
AcDbLine
 10
0.0
 20
0.0
 30
0.0
 11
-1.0
 21
0.0
 31
0.0
  0
LINE
  5
31
330
26
100
AcDbEntity
  8
0
  6
Continuous
 62
     0
100
AcDbLine
 10
0.0
 20
0.0
 30
0.0
 11
-0.9607689999999999
 21
0.27735
 31
0.0
  0
LINE
  5
32
330
26
100
AcDbEntity
  8
0
  6
Continuous
 62
     0
100
AcDbLine
 10
0.0
 20
0.0
 30
0.0
 11
-0.9607689999999999
 21
-0.27735
 31
0.0
  0
ENDBLK
  5
33
330
26
100
AcDbEntity
  8
0
100
AcDbBlockEnd
  0
BLOCK
  5
34
330
27
100
AcDbEntity
  8
0
100
AcDbBlockBegin
  2
_EX_BNORM
 70
     0
 10
0.0
 20
0.0
 30
0.0
  3
_EX_BNORM
  1

  0
LINE
  5
35
330
27
100
AcDbEntity
  8
0
  6
Continuous
 62
     0
100
AcDbLine
 10
0.0
 20
0.0
 30
0.0
 11
-1.0
 21
0.0
 31
0.0
  0
LINE
  5
36
330
27
100
AcDbEntity
  8
0
  6
Continuous
 62
     0
100
AcDbLine
 10
0.0
 20
0.0
 30
0.0
 11
-0.9607689999999999
 21
0.27735
 31
0.0
  0
LINE
  5
37
330
27
100
AcDbEntity
  8
0
  6
Continuous
 62
     0
100
AcDbLine
 10
0.0
 20
0.0
 30
0.0
 11
-0.9607689999999999
 21
-0.27735
 31
0.0
  0
LINE
  5
38
330
27
100
AcDbEntity
  8
0
  6
Continuous
 62
     0
100
AcDbLine
 10
0.0
 20
0.0
 30
0.0
 11
-0.9607689999999999
 21
0.138768
 31
0.0
  0
LINE
  5
39
330
27
100
AcDbEntity
  8
0
  6
Continuous
 62
     0
100
AcDbLine
 10
0.0
 20
0.0
 30
0.0
 11
-0.9607689999999999
 21
-0.138768
 31
0.0
  0
LINE
  5
3A
330
27
100
AcDbEntity
  8
0
  6
Continuous
 62
     0
100
AcDbLine
 10
-0.9607689999999999
 20
0.27735
 30
0.0
 11
-0.9607689999999999
 21
-0.27735
 31
0.0
  0
ENDBLK
  5
3B
330
27
100
AcDbEntity
  8
0
100
AcDbBlockEnd
  0
BLOCK
  5
3C
330
28
100
AcDbEntity
  8
0
100
AcDbBlockBegin
  2
_EX_BCIR
 70
     0
 10
0.0
 20
0.0
 30
0.0
  3
_EX_BCIR
  1

  0
LINE
  5
3D
330
28
100
AcDbEntity
  8
0
  6
Continuous
 62
     0
100
AcDbLine
 10
0.0
 20
0.0
 30
0.0
 11
-1.0
 21
0.0
 31
0.0
  0
CIRCLE
  5
3E
330
28
100
AcDbEntity
  8
0
  6
Continuous
 62
     0
100
AcDbCircle
 10
0.0
 20
0.0
 30
0.0
 40
0.5
  0
CIRCLE
  5
3F
330
28
100
AcDbEntity
  8
0
  6
Continuous
 62
     0
100
AcDbCircle
 10
0.0
 20
0.0
 30
0.0
 40
0.25
  0
ENDBLK
  5
40
330
28
100
AcDbEntity
  8
0
100
AcDbBlockEnd
  0
BLOCK
  5
41
330
29
100
AcDbEntity
  8
0
100
AcDbBlockBegin
  2
_EX_RCIVIL
 70
     0
 10
0.0
 20
0.0
 30
0.0
  3
_EX_RCIVIL
  1

  0
LINE
  5
42
330
29
100
AcDbEntity
  8
0
  6
Continuous
 62
     0
100
AcDbLine
 10
0.0
 20
0.0
 30
0.0
 11
-1.0
 21
0.0
 31
0.0
  0
LINE
  5
43
330
29
100
AcDbEntity
  8
0
  6
Continuous
 62
     0
100
AcDbLine
 10
-1.0
 20
-0.25
 30
0.0
 11
0.0
 21
-0.25
 31
0.0
  0
LINE
  5
44
330
29
100
AcDbEntity
  8
0
  6
Continuous
 62
     0
100
AcDbLine
 10
-1.0
 20
-0.125
 30
0.0
 11
0.0
 21
-0.125
 31
0.0
  0
ENDBLK
  5
45
330
29
100
AcDbEntity
  8
0
100
AcDbBlockEnd
  0
BLOCK
  5
46
330
2A
100
AcDbEntity
  8
0
100
AcDbBlockBegin
  2
_EX_SLANT
 70
     0
 10
0.0
 20
0.0
 30
0.0
  3
_EX_SLANT
  1

  0
LINE
  5
47
330
2A
100
AcDbEntity
  8
0
  6
Continuous
 62
     0
100
AcDbLine
 10
0.0
 20
0.0
 30
0.0
 11
-1.0
 21
0.0
 31
0.0
  0
LINE
  5
48
330
2A
100
AcDbEntity
  8
0
  6
Continuous
 62
     0
100
AcDbLine
 10
0.7071069999999999
 20
0.7071069999999999
 30
0.0
 11
-0.7071069999999999
 21
-0.7071069999999999
 31
0.0
  0
ENDBLK
  5
49
330
2A
100
AcDbEntity
  8
0
100
AcDbBlockEnd
  0
BLOCK
  5
4A
330
2B
100
AcDbEntity
  8
0
100
AcDbBlockBegin
  2
_EX_NONE
 70
     0
 10
0.0
 20
0.0
 30
0.0
  3
_EX_NONE
  1

  0
LINE
  5
4B
330
2B
100
AcDbEntity
  8
0
  6
Continuous
 62
     0
100
AcDbLine
 10
0.0
 20
0.0
 30
0.0
 11
-1.0
 21
0.0
 31
0.0
  0
ENDBLK
  5
4C
330
2B
100
AcDbEntity
  8
0
100
AcDbBlockEnd
  0
BLOCK
  5
4D
330
2C
100
AcDbEntity
  8
0
100
AcDbBlockBegin
  2
_EX_CIVIL
 70
     0
 10
0.0
 20
0.0
 30
0.0
  3
_EX_CIVIL
  1

  0
LINE
  5
4E
330
2C
100
AcDbEntity
  8
0
  6
Continuous
 62
     0
100
AcDbLine
 10
0.0
 20
0.0
 30
0.0
 11
-1.0
 21
0.0
 31
0.0
  0
LINE
  5
4F
330
2C
100
AcDbEntity
  8
0
  6
Continuous
 62
     0
100
AcDbLine
 10
-1.0
 20
0.25
 30
0.0
 11
0.0
 21
0.25
 31
0.0
  0
LINE
  5
50
330
2C
100
AcDbEntity
  8
0
  6
Continuous
 62
     0
100
AcDbLine
 10
-1.0
 20
0.125
 30
0.0
 11
0.0
 21
0.125
 31
0.0
  0
ENDBLK
  5
51
330
2C
100
AcDbEntity
  8
0
100
AcDbBlockEnd
  0
BLOCK
  5
52
330
2D
100
AcDbEntity
  8
0
100
AcDbBlockBegin
  2
_EX_WCIR
 70
     0
 10
0.0
 20
0.0
 30
0.0
  3
_EX_WCIR
  1

  0
LINE
  5
53
330
2D
100
AcDbEntity
  8
0
  6
Continuous
 62
     0
100
AcDbLine
 10
0.0
 20
0.0
 30
0.0
 11
-1.0
 21
0.0
 31
0.0
  0
CIRCLE
  5
54
330
2D
100
AcDbEntity
  8
0
  6
Continuous
 62
     0
100
AcDbCircle
 10
0.0
 20
0.0
 30
0.0
 40
0.5
  0
ENDBLK
  5
55
330
2D
100
AcDbEntity
  8
0
100
AcDbBlockEnd
  0
BLOCK
  5
56
330
2E
100
AcDbEntity
  8
0
100
AcDbBlockBegin
  2
SYM-1
 70
     0
 10
0.0
 20
0.0
 30
0.0
  3
SYM-1
  1

  0
POINT
  5
57
330
2E
100
AcDbEntity
  8
0
  6
Continuous
 62
     1
100
AcDbPoint
 10
-4.245292
 20
12.255101
 30
0.0
  0
POINT
  5
58
330
2E
100
AcDbEntity
  8
0
  6
Continuous
 62
     1
100
AcDbPoint
 10
-4.245292
 20
7.353061
 30
0.0
  0
POINT
  5
59
330
2E
100
AcDbEntity
  8
0
  6
Continuous
 62
     1
100
AcDbPoint
 10
0.0
 20
9.804081
 30
0.0
  0
LINE
  5
5A
330
2E
100
AcDbEntity
  8
0
  6
Continuous
 62
     1
100
AcDbLine
 10
0.0
 20
9.804081
 30
0.0
 11
-4.245292
 21
12.255101
 31
0.0
  0
LINE
  5
5B
330
2E
100
AcDbEntity
  8
0
  6
Continuous
 62
     1
100
AcDbLine
 10
-4.245292
 20
12.255101
 30
0.0
 11
-4.245292
 21
7.353061
 31
0.0
  0
LINE
  5
5C
330
2E
100
AcDbEntity
  8
0
  6
Continuous
 62
     1
100
AcDbLine
 10
-4.245292
 20
7.353061
 30
0.0
 11
0.0
 21
9.804081
 31
0.0
  0
POINT
  5
5D
330
2E
100
AcDbEntity
  8
0
  6
Continuous
 62
     1
100
AcDbPoint
 10
-4.245292
 20
7.353061
 30
0.0
  0
POINT
  5
5E
330
2E
100
AcDbEntity
  8
0
  6
Continuous
 62
     1
100
AcDbPoint
 10
-4.245292
 20
2.45102
 30
0.0
  0
POINT
  5
5F
330
2E
100
AcDbEntity
  8
0
  6
Continuous
 62
     1
100
AcDbPoint
 10
0.0
 20
4.90204
 30
0.0
  0
LINE
  5
60
330
2E
100
AcDbEntity
  8
0
  6
Continuous
 62
     1
100
AcDbLine
 10
0.0
 20
4.90204
 30
0.0
 11
-4.245292
 21
7.353061
 31
0.0
  0
LINE
  5
61
330
2E
100
AcDbEntity
  8
0
  6
Continuous
 62
     1
100
AcDbLine
 10
-4.245292
 20
7.353061
 30
0.0
 11
-4.245292
 21
2.45102
 31
0.0
  0
LINE
  5
62
330
2E
100
AcDbEntity
  8
0
  6
Continuous
 62
     1
100
AcDbLine
 10
-4.245292
 20
2.45102
 30
0.0
 11
0.0
 21
4.90204
 31
0.0
  0
POINT
  5
63
330
2E
100
AcDbEntity
  8
0
  6
Continuous
 62
     1
100
AcDbPoint
 10
-4.245292
 20
2.45102
 30
0.0
  0
POINT
  5
64
330
2E
100
AcDbEntity
  8
0
  6
Continuous
 62
     1
100
AcDbPoint
 10
-4.245292
 20
-2.45102
 30
0.0
  0
POINT
  5
65
330
2E
100
AcDbEntity
  8
0
  6
Continuous
 62
     1
100
AcDbPoint
 10
0.0
 20
0.0
 30
0.0
  0
LINE
  5
66
330
2E
100
AcDbEntity
  8
0
  6
Continuous
 62
     1
100
AcDbLine
 10
0.0
 20
0.0
 30
0.0
 11
-4.245292
 21
2.45102
 31
0.0
  0
LINE
  5
67
330
2E
100
AcDbEntity
  8
0
  6
Continuous
 62
     1
100
AcDbLine
 10
-4.245292
 20
2.45102
 30
0.0
 11
-4.245292
 21
-2.45102
 31
0.0
  0
LINE
  5
68
330
2E
100
AcDbEntity
  8
0
  6
Continuous
 62
     1
100
AcDbLine
 10
-4.245292
 20
-2.45102
 30
0.0
 11
0.0
 21
0.0
 31
0.0
  0
ENDBLK
  5
69
330
2E
100
AcDbEntity
  8
0
100
AcDbBlockEnd
  0
BLOCK
  5
FA
330
F9
100
AcDbEntity
  8
0
100
AcDbBlockBegin
  2
*D9
 70
     1
 10
0.0
 20
0.0
 30
0.0
  3
*D9
  1

  0
LINE
  5
FB
330
F9
100
AcDbEntity
  8
0
  6
Continuous
 62
     1
100
AcDbLine
 10
84.59999999999999
 20
60.85
 30
0.0
 11
84.59999999999999
 21
81.85
 31
0.0
  0
LINE
  5
FC
330
F9
100
AcDbEntity
  8
0
  6
Continuous
 62
     1
100
AcDbLine
 10
114.5999999999999
 20
62.35
 30
0.0
 11
114.5999999999999
 21
81.85
 31
0.0
  0
LINE
  5
FD
330
F9
100
AcDbEntity
  8
0
  6
Continuous
 62
     1
100
AcDbLine
 10
84.59999999999999
 20
81.09999999999997
 30
0.0
 11
114.5999999999999
 21
81.09999999999997
 31
0.0
  0
LINE
  5
FE
330
F9
100
AcDbEntity
  8
0
  6
Continuous
 62
     1
100
AcDbLine
 10
86.048889
 20
81.488229
 30
0.0
 11
84.59999999999999
 21
81.09999999999997
 31
0.0
  0
LINE
  5
FF
330
F9
100
AcDbEntity
  8
0
  6
Continuous
 62
     1
100
AcDbLine
 10
84.59999999999999
 20
81.09999999999997
 30
0.0
 11
86.048889
 21
80.71177099999998
 31
0.0
  0
LINE
  5
100
330
F9
100
AcDbEntity
  8
0
  6
Continuous
 62
     1
100
AcDbLine
 10
113.151111
 20
80.71177099999998
 30
0.0
 11
114.5999999999999
 21
81.09999999999997
 31
0.0
  0
LINE
  5
101
330
F9
100
AcDbEntity
  8
0
  6
Continuous
 62
     1
100
AcDbLine
 10
114.5999999999999
 20
81.09999999999997
 30
0.0
 11
113.151111
 21
81.488229
 31
0.0
  0
TEXT
  5
102
330
F9
100
AcDbEntity
  8
0
  6
Continuous
 62
     1
100
AcDbText
 10
98.1
 20
81.34999999999998
 30
0.0
 40
1.5
  1
30
  7
EXCADSTD
100
AcDbText
  0
ENDBLK
  5
103
330
F9
100
AcDbEntity
  8
0
100
AcDbBlockEnd
  0
BLOCK
  5
106
330
105
100
AcDbEntity
  8
0
100
AcDbBlockBegin
  2
*D10
 70
     1
 10
0.0
 20
0.0
 30
0.0
  3
*D10
  1

  0
LINE
  5
107
330
105
100
AcDbEntity
  8
0
  6
Continuous
 62
     1
100
AcDbLine
 10
115.3499999999999
 20
59.15
 30
0.0
 11
122.15
 21
59.15
 31
0.0
  0
LINE
  5
108
330
105
100
AcDbEntity
  8
0
  6
Continuous
 62
     1
100
AcDbLine
 10
115.3499999999999
 20
56.05
 30
0.0
 11
122.15
 21
56.05
 31
0.0
  0
LINE
  5
109
330
105
100
AcDbEntity
  8
0
  6
Continuous
 62
     1
100
AcDbLine
 10
121.4
 20
66.15000000000001
 30
0.0
 11
121.4
 21
53.55
 31
0.0
  0
LINE
  5
10A
330
105
100
AcDbEntity
  8
0
  6
Continuous
 62
     1
100
AcDbLine
 10
121.011771
 20
60.598889
 30
0.0
 11
121.4
 21
59.15
 31
0.0
  0
LINE
  5
10B
330
105
100
AcDbEntity
  8
0
  6
Continuous
 62
     1
100
AcDbLine
 10
121.4
 20
59.15
 30
0.0
 11
121.788229
 21
60.598889
 31
0.0
  0
LINE
  5
10C
330
105
100
AcDbEntity
  8
0
  6
Continuous
 62
     1
100
AcDbLine
 10
121.788229
 20
54.60111099999998
 30
0.0
 11
121.4
 21
56.05
 31
0.0
  0
LINE
  5
10D
330
105
100
AcDbEntity
  8
0
  6
Continuous
 62
     1
100
AcDbLine
 10
121.4
 20
56.05
 30
0.0
 11
121.011771
 21
54.60111099999998
 31
0.0
  0
TEXT
  5
10E
330
105
100
AcDbEntity
  8
0
  6
Continuous
 62
     1
100
AcDbText
 10
121.15
 20
62.14999999999999
 30
0.0
 40
1.5
  1
3.1
 50
90.0
  7
EXCADSTD
100
AcDbText
  0
ENDBLK
  5
10F
330
105
100
AcDbEntity
  8
0
100
AcDbBlockEnd
  0
BLOCK
  5
112
330
111
100
AcDbEntity
  8
0
100
AcDbBlockBegin
  2
*D11
 70
     1
 10
0.0
 20
0.0
 30
0.0
  3
*D11
  1

  0
LINE
  5
113
330
111
100
AcDbEntity
  8
0
  6
Continuous
 62
     1
100
AcDbLine
 10
93.84999999999999
 20
61.6
 30
0.0
 11
66.15000000000001
 21
61.6
 31
0.0
  0
LINE
  5
114
330
111
100
AcDbEntity
  8
0
  6
Continuous
 62
     1
100
AcDbLine
 10
93.84999999999999
 20
53.6
 30
0.0
 11
66.15000000000001
 21
53.6
 31
0.0
  0
LINE
  5
115
330
111
100
AcDbEntity
  8
0
  6
Continuous
 62
     1
100
AcDbLine
 10
66.90000000000001
 20
61.6
 30
0.0
 11
66.90000000000001
 21
53.6
 31
0.0
  0
LINE
  5
116
330
111
100
AcDbEntity
  8
0
  6
Continuous
 62
     1
100
AcDbLine
 10
67.288229
 20
60.151111
 30
0.0
 11
66.90000000000001
 21
61.6
 31
0.0
  0
LINE
  5
117
330
111
100
AcDbEntity
  8
0
  6
Continuous
 62
     1
100
AcDbLine
 10
66.90000000000001
 20
61.6
 30
0.0
 11
66.51177099999999
 21
60.151111
 31
0.0
  0
LINE
  5
118
330
111
100
AcDbEntity
  8
0
  6
Continuous
 62
     1
100
AcDbLine
 10
66.51177099999999
 20
55.048889
 30
0.0
 11
66.90000000000001
 21
53.6
 31
0.0
  0
LINE
  5
119
330
111
100
AcDbEntity
  8
0
  6
Continuous
 62
     1
100
AcDbLine
 10
66.90000000000001
 20
53.6
 30
0.0
 11
67.288229
 21
55.048889
 31
0.0
  0
TEXT
  5
11A
330
111
100
AcDbEntity
  8
0
  6
Continuous
 62
     1
100
AcDbText
 10
66.65
 20
57.6
 30
0.0
 40
1.5
  1
8
 50
90.0
  7
EXCADSTD
100
AcDbText
  0
ENDBLK
  5
11B
330
111
100
AcDbEntity
  8
0
100
AcDbBlockEnd
  0
BLOCK
  5
11F
330
11E
100
AcDbEntity
  8
0
100
AcDbBlockBegin
  2
*D12
 70
     1
 10
0.0
 20
0.0
 30
0.0
  3
*D12
  1

  0
LINE
  5
120
330
11E
100
AcDbEntity
  8
0
  6
Continuous
 62
     1
100
AcDbLine
 10
83.84999999999998
 20
60.1
 30
0.0
 11
71.55
 21
60.1
 31
0.0
  0
LINE
  5
121
330
11E
100
AcDbEntity
  8
0
  6
Continuous
 62
     1
100
AcDbLine
 10
83.84999999999998
 20
55.1
 30
0.0
 11
71.55
 21
55.1
 31
0.0
  0
LINE
  5
122
330
11E
100
AcDbEntity
  8
0
  6
Continuous
 62
     1
100
AcDbLine
 10
72.3
 20
60.1
 30
0.0
 11
72.3
 21
55.1
 31
0.0
  0
LINE
  5
123
330
11E
100
AcDbEntity
  8
0
  6
Continuous
 62
     1
100
AcDbLine
 10
72.688229
 20
58.651111
 30
0.0
 11
72.3
 21
60.1
 31
0.0
  0
LINE
  5
124
330
11E
100
AcDbEntity
  8
0
  6
Continuous
 62
     1
100
AcDbLine
 10
72.3
 20
60.1
 30
0.0
 11
71.911771
 21
58.651111
 31
0.0
  0
LINE
  5
125
330
11E
100
AcDbEntity
  8
0
  6
Continuous
 62
     1
100
AcDbLine
 10
71.911771
 20
56.548889
 30
0.0
 11
72.3
 21
55.1
 31
0.0
  0
LINE
  5
126
330
11E
100
AcDbEntity
  8
0
  6
Continuous
 62
     1
100
AcDbLine
 10
72.3
 20
55.1
 30
0.0
 11
72.688229
 21
56.548889
 31
0.0
  0
TEXT
  5
127
330
11E
100
AcDbEntity
  8
0
  6
Continuous
 62
     1
100
AcDbText
 10
72.05
 20
57.6
 30
0.0
 40
1.5
  1
5
 50
90.0
  7
EXCADSTD
100
AcDbText
  0
ENDBLK
  5
128
330
11E
100
AcDbEntity
  8
0
100
AcDbBlockEnd
  0
BLOCK
  5
142
330
141
100
AcDbEntity
  8
0
100
AcDbBlockBegin
  2
*D13
 70
     1
 10
0.0
 20
0.0
 30
0.0
  3
*D13
  1

  0
LINE
  5
143
330
141
100
AcDbEntity
  8
0
  6
Continuous
 62
     1
100
AcDbLine
 10
115.3499999999999
 20
54.6
 30
0.0
 11
127.55
 21
54.6
 31
0.0
  0
LINE
  5
144
330
141
100
AcDbEntity
  8
0
  6
Continuous
 62
     1
100
AcDbLine
 10
115.3499999999999
 20
60.6
 30
0.0
 11
127.55
 21
60.6
 31
0.0
  0
LINE
  5
145
330
141
100
AcDbEntity
  8
0
  6
Continuous
 62
     1
100
AcDbLine
 10
126.8
 20
54.6
 30
0.0
 11
126.8
 21
60.6
 31
0.0
  0
LINE
  5
146
330
141
100
AcDbEntity
  8
0
  6
Continuous
 62
     1
100
AcDbLine
 10
126.411771
 20
56.048889
 30
0.0
 11
126.8
 21
54.6
 31
0.0
  0
LINE
  5
147
330
141
100
AcDbEntity
  8
0
  6
Continuous
 62
     1
100
AcDbLine
 10
126.8
 20
54.6
 30
0.0
 11
127.188229
 21
56.048889
 31
0.0
  0
LINE
  5
148
330
141
100
AcDbEntity
  8
0
  6
Continuous
 62
     1
100
AcDbLine
 10
127.188229
 20
59.151111
 30
0.0
 11
126.8
 21
60.6
 31
0.0
  0
LINE
  5
149
330
141
100
AcDbEntity
  8
0
  6
Continuous
 62
     1
100
AcDbLine
 10
126.8
 20
60.6
 30
0.0
 11
126.411771
 21
59.151111
 31
0.0
  0
TEXT
  5
14A
330
141
100
AcDbEntity
  8
0
  6
Continuous
 62
     1
100
AcDbText
 10
126.55
 20
57.6
 30
0.0
 40
1.5
  1
6
 50
90.0
  7
EXCADSTD
100
AcDbText
  0
ENDBLK
  5
14B
330
141
100
AcDbEntity
  8
0
100
AcDbBlockEnd
  0
BLOCK
  5
15E
330
15D
100
AcDbEntity
  8
0
100
AcDbBlockBegin
  2
*D14
 70
     1
 10
0.0
 20
0.0
 30
0.0
  3
*D14
  1

  0
LINE
  5
15F
330
15D
100
AcDbEntity
  8
0
  6
Continuous
 62
     1
100
AcDbLine
 10
84.59999999999999
 20
60.85
 30
0.0
 11
84.59999999999999
 21
73.45
 31
0.0
  0
LINE
  5
160
330
15D
100
AcDbEntity
  8
0
  6
Continuous
 62
     1
100
AcDbLine
 10
89.59999999999999
 20
63.25
 30
0.0
 11
89.59999999999999
 21
73.45
 31
0.0
  0
LINE
  5
161
330
15D
100
AcDbEntity
  8
0
  6
Continuous
 62
     1
100
AcDbLine
 10
84.59999999999999
 20
72.7
 30
0.0
 11
89.59999999999999
 21
72.7
 31
0.0
  0
LINE
  5
162
330
15D
100
AcDbEntity
  8
0
  6
Continuous
 62
     1
100
AcDbLine
 10
86.048889
 20
73.088229
 30
0.0
 11
84.59999999999999
 21
72.7
 31
0.0
  0
LINE
  5
163
330
15D
100
AcDbEntity
  8
0
  6
Continuous
 62
     1
100
AcDbLine
 10
84.59999999999999
 20
72.7
 30
0.0
 11
86.048889
 21
72.311771
 31
0.0
  0
LINE
  5
164
330
15D
100
AcDbEntity
  8
0
  6
Continuous
 62
     1
100
AcDbLine
 10
88.15111100000001
 20
72.311771
 30
0.0
 11
89.59999999999999
 21
72.7
 31
0.0
  0
LINE
  5
165
330
15D
100
AcDbEntity
  8
0
  6
Continuous
 62
     1
100
AcDbLine
 10
89.59999999999999
 20
72.7
 30
0.0
 11
88.15111100000001
 21
73.088229
 31
0.0
  0
TEXT
  5
166
330
15D
100
AcDbEntity
  8
0
  6
Continuous
 62
     1
100
AcDbText
 10
86.34999999999998
 20
72.95
 30
0.0
 40
1.5
  1
5
  7
EXCADSTD
100
AcDbText
  0
ENDBLK
  5
167
330
15D
100
AcDbEntity
  8
0
100
AcDbBlockEnd
  0
BLOCK
  5
16A
330
169
100
AcDbEntity
  8
0
100
AcDbBlockBegin
  2
*D15
 70
     1
 10
0.0
 20
0.0
 30
0.0
  3
*D15
  1

  0
LINE
  5
16B
330
169
100
AcDbEntity
  8
0
  6
Continuous
 62
     1
100
AcDbLine
 10
94.59999999999999
 20
63.25
 30
0.0
 11
94.59999999999999
 21
73.45
 31
0.0
  0
LINE
  5
16C
330
169
100
AcDbEntity
  8
0
  6
Continuous
 62
     1
100
AcDbLine
 10
89.59999999999999
 20
72.7
 30
0.0
 11
94.59999999999999
 21
72.7
 31
0.0
  0
LINE
  5
16D
330
169
100
AcDbEntity
  8
0
  6
Continuous
 62
     1
100
AcDbLine
 10
91.048889
 20
73.088229
 30
0.0
 11
89.59999999999999
 21
72.7
 31
0.0
  0
LINE
  5
16E
330
169
100
AcDbEntity
  8
0
  6
Continuous
 62
     1
100
AcDbLine
 10
89.59999999999999
 20
72.7
 30
0.0
 11
91.048889
 21
72.311771
 31
0.0
  0
LINE
  5
16F
330
169
100
AcDbEntity
  8
0
  6
Continuous
 62
     1
100
AcDbLine
 10
93.15111100000001
 20
72.311771
 30
0.0
 11
94.59999999999999
 21
72.7
 31
0.0
  0
LINE
  5
170
330
169
100
AcDbEntity
  8
0
  6
Continuous
 62
     1
100
AcDbLine
 10
94.59999999999999
 20
72.7
 30
0.0
 11
93.15111100000001
 21
73.088229
 31
0.0
  0
TEXT
  5
171
330
169
100
AcDbEntity
  8
0
  6
Continuous
 62
     1
100
AcDbText
 10
91.34999999999999
 20
72.95
 30
0.0
 40
1.5
  1
5
  7
EXCADSTD
100
AcDbText
  0
ENDBLK
  5
172
330
169
100
AcDbEntity
  8
0
100
AcDbBlockEnd
  0
BLOCK
  5
175
330
174
100
AcDbEntity
  8
0
100
AcDbBlockBegin
  2
*D16
 70
     1
 10
0.0
 20
0.0
 30
0.0
  3
*D16
  1

  0
LINE
  5
176
330
174
100
AcDbEntity
  8
0
  6
Continuous
 62
     1
100
AcDbLine
 10
97.1
 20
63.25
 30
0.0
 11
97.1
 21
73.45
 31
0.0
  0
LINE
  5
177
330
174
100
AcDbEntity
  8
0
  6
Continuous
 62
     1
100
AcDbLine
 10
94.59999999999999
 20
72.7
 30
0.0
 11
97.1
 21
72.7
 31
0.0
  0
TEXT
  5
178
330
174
100
AcDbEntity
  8
0
  6
Continuous
 62
     1
100
AcDbText
 10
93.97499999999999
 20
72.95
 30
0.0
 40
1.5
  1
2.5
  7
EXCADSTD
100
AcDbText
  0
ENDBLK
  5
179
330
174
100
AcDbEntity
  8
0
100
AcDbBlockEnd
  0
BLOCK
  5
17C
330
17B
100
AcDbEntity
  8
0
100
AcDbBlockBegin
  2
*D17
 70
     1
 10
0.0
 20
0.0
 30
0.0
  3
*D17
  1

  0
LINE
  5
17D
330
17B
100
AcDbEntity
  8
0
  6
Continuous
 62
     1
100
AcDbLine
 10
101.6
 20
64.25
 30
0.0
 11
101.6
 21
73.45
 31
0.0
  0
LINE
  5
17E
330
17B
100
AcDbEntity
  8
0
  6
Continuous
 62
     1
100
AcDbLine
 10
97.1
 20
72.7
 30
0.0
 11
101.6
 21
72.7
 31
0.0
  0
LINE
  5
17F
330
17B
100
AcDbEntity
  8
0
  6
Continuous
 62
     1
100
AcDbLine
 10
98.548889
 20
73.088229
 30
0.0
 11
97.1
 21
72.7
 31
0.0
  0
LINE
  5
180
330
17B
100
AcDbEntity
  8
0
  6
Continuous
 62
     1
100
AcDbLine
 10
97.1
 20
72.7
 30
0.0
 11
98.548889
 21
72.311771
 31
0.0
  0
LINE
  5
181
330
17B
100
AcDbEntity
  8
0
  6
Continuous
 62
     1
100
AcDbLine
 10
100.151111
 20
72.311771
 30
0.0
 11
101.6
 21
72.7
 31
0.0
  0
LINE
  5
182
330
17B
100
AcDbEntity
  8
0
  6
Continuous
 62
     1
100
AcDbLine
 10
101.6
 20
72.7
 30
0.0
 11
100.151111
 21
73.088229
 31
0.0
  0
TEXT
  5
183
330
17B
100
AcDbEntity
  8
0
  6
Continuous
 62
     1
100
AcDbText
 10
97.475
 20
74.7
 30
0.0
 40
1.5
  1
4.5
  7
EXCADSTD
100
AcDbText
  0
ENDBLK
  5
184
330
17B
100
AcDbEntity
  8
0
100
AcDbBlockEnd
  0
BLOCK
  5
187
330
186
100
AcDbEntity
  8
0
100
AcDbBlockBegin
  2
*D18
 70
     1
 10
0.0
 20
0.0
 30
0.0
  3
*D18
  1

  0
LINE
  5
188
330
186
100
AcDbEntity
  8
0
  6
Continuous
 62
     1
100
AcDbLine
 10
104.6
 20
64.25
 30
0.0
 11
104.6
 21
73.45
 31
0.0
  0
LINE
  5
189
330
186
100
AcDbEntity
  8
0
  6
Continuous
 62
     1
100
AcDbLine
 10
101.6
 20
72.7
 30
0.0
 11
104.6
 21
72.7
 31
0.0
  0
TEXT
  5
18A
330
186
100
AcDbEntity
  8
0
  6
Continuous
 62
     1
100
AcDbText
 10
102.3499999999999
 20
72.95
 30
0.0
 40
1.5
  1
3
  7
EXCADSTD
100
AcDbText
  0
ENDBLK
  5
18B
330
186
100
AcDbEntity
  8
0
100
AcDbBlockEnd
  0
BLOCK
  5
18E
330
18D
100
AcDbEntity
  8
0
100
AcDbBlockBegin
  2
*D19
 70
     1
 10
0.0
 20
0.0
 30
0.0
  3
*D19
  1

  0
LINE
  5
18F
330
18D
100
AcDbEntity
  8
0
  6
Continuous
 62
     1
100
AcDbLine
 10
114.5999999999999
 20
61.35
 30
0.0
 11
114.5999999999999
 21
73.45
 31
0.0
  0
LINE
  5
190
330
18D
100
AcDbEntity
  8
0
  6
Continuous
 62
     1
100
AcDbLine
 10
104.6
 20
72.7
 30
0.0
 11
114.5999999999999
 21
72.7
 31
0.0
  0
LINE
  5
191
330
18D
100
AcDbEntity
  8
0
  6
Continuous
 62
     1
100
AcDbLine
 10
106.0488889999999
 20
73.088229
 30
0.0
 11
104.6
 21
72.7
 31
0.0
  0
LINE
  5
192
330
18D
100
AcDbEntity
  8
0
  6
Continuous
 62
     1
100
AcDbLine
 10
104.6
 20
72.7
 30
0.0
 11
106.0488889999999
 21
72.311771
 31
0.0
  0
LINE
  5
193
330
18D
100
AcDbEntity
  8
0
  6
Continuous
 62
     1
100
AcDbLine
 10
113.151111
 20
72.311771
 30
0.0
 11
114.5999999999999
 21
72.7
 31
0.0
  0
LINE
  5
194
330
18D
100
AcDbEntity
  8
0
  6
Continuous
 62
     1
100
AcDbLine
 10
114.5999999999999
 20
72.7
 30
0.0
 11
113.151111
 21
73.088229
 31
0.0
  0
TEXT
  5
195
330
18D
100
AcDbEntity
  8
0
  6
Continuous
 62
     1
100
AcDbText
 10
108.0999999999999
 20
72.95
 30
0.0
 40
1.5
  1
10
  7
EXCADSTD
100
AcDbText
  0
ENDBLK
  5
196
330
18D
100
AcDbEntity
  8
0
100
AcDbBlockEnd
  0
BLOCK
  5
199
330
198
100
AcDbEntity
  8
0
100
AcDbBlockBegin
  2
*D20
 70
     1
 10
0.0
 20
0.0
 30
0.0
  3
*D20
  1

  0
LINE
  5
19A
330
198
100
AcDbEntity
  8
0
  6
Continuous
 62
     1
100
AcDbLine
 10
105.3499999999999
 20
51.7
 30
0.0
 11
132.85
 21
51.7
 31
0.0
  0
LINE
  5
19B
330
198
100
AcDbEntity
  8
0
  6
Continuous
 62
     1
100
AcDbLine
 10
105.3499999999999
 20
63.5
 30
0.0
 11
132.85
 21
63.5
 31
0.0
  0
LINE
  5
19C
330
198
100
AcDbEntity
  8
0
  6
Continuous
 62
     1
100
AcDbLine
 10
132.0999999999999
 20
51.7
 30
0.0
 11
132.0999999999999
 21
63.5
 31
0.0
  0
LINE
  5
19D
330
198
100
AcDbEntity
  8
0
  6
Continuous
 62
     1
100
AcDbLine
 10
131.7117709999999
 20
53.148889
 30
0.0
 11
132.0999999999999
 21
51.7
 31
0.0
  0
LINE
  5
19E
330
198
100
AcDbEntity
  8
0
  6
Continuous
 62
     1
100
AcDbLine
 10
132.0999999999999
 20
51.7
 30
0.0
 11
132.4882289999999
 21
53.148889
 31
0.0
  0
LINE
  5
19F
330
198
100
AcDbEntity
  8
0
  6
Continuous
 62
     1
100
AcDbLine
 10
132.4882289999999
 20
62.05111099999999
 30
0.0
 11
132.0999999999999
 21
63.5
 31
0.0
  0
LINE
  5
1A0
330
198
100
AcDbEntity
  8
0
  6
Continuous
 62
     1
100
AcDbLine
 10
132.0999999999999
 20
63.5
 30
0.0
 11
131.7117709999999
 21
62.05111099999999
 31
0.0
  0
TEXT
  5
1A1
330
198
100
AcDbEntity
  8
0
  6
Continuous
 62
     1
100
AcDbText
 10
131.85
 20
55.725
 30
0.0
 40
1.5
  1
11.8
 50
90.0
  7
EXCADSTD
100
AcDbText
  0
ENDBLK
  5
1A2
330
198
100
AcDbEntity
  8
0
100
AcDbBlockEnd
  0
ENDSEC
  0
SECTION
  2
ENTITIES
  0
LINE
  5
A3
330
A
100
AcDbEntity
  8
LAY-1
  6
Continuous
 62
     3
100
AcDbLine
 10
142.9304169999998
 20
3.799999999999998
 30
0.0
 11
3.799999999999998
 21
3.799999999999998
 31
0.0
  0
LINE
  5
A4
330
A
100
AcDbEntity
  8
LAY-1
  6
Continuous
 62
     3
100
AcDbLine
 10
142.9304169999998
 20
3.799999999999998
 30
0.0
 11
142.9304169999998
 21
100.3000019999999
 31
0.0
  0
LINE
  5
A5
330
A
100
AcDbEntity
  8
LAY-1
  6
Continuous
 62
     3
100
AcDbLine
 10
3.799999999999998
 20
3.799999999999998
 30
0.0
 11
3.799999999999998
 21
100.3000019999999
 31
0.0
  0
LINE
  5
A6
330
A
100
AcDbEntity
  8
LAY-1
  6
Continuous
 62
     3
100
AcDbLine
 10
3.799999999999998
 20
100.3000019999999
 30
0.0
 11
142.9304169999998
 21
100.3000019999999
 31
0.0
  0
POINT
  5
A7
330
A
100
AcDbEntity
  8
LAY-1
  6
Continuous
 62
     5
100
AcDbPoint
 10
142.9304169999998
 20
3.799999999999998
 30
0.0
  0
POINT
  5
A8
330
A
100
AcDbEntity
  8
LAY-1
  6
Continuous
 62
     5
100
AcDbPoint
 10
142.9304169999998
 20
8.05
 30
0.0
  0
POINT
  5
A9
330
A
100
AcDbEntity
  8
LAY-1
  6
Continuous
 62
     5
100
AcDbPoint
 10
142.9304169999998
 20
3.799999999999998
 30
0.0
  0
POINT
  5
AA
330
A
100
AcDbEntity
  8
LAY-1
  6
Continuous
 62
     5
100
AcDbPoint
 10
142.9304169999998
 20
12.3
 30
0.0
  0
POINT
  5
AB
330
A
100
AcDbEntity
  8
LAY-1
  6
Continuous
 62
     5
100
AcDbPoint
 10
142.9304169999998
 20
3.799999999999998
 30
0.0
  0
POINT
  5
AC
330
A
100
AcDbEntity
  8
LAY-1
  6
Continuous
 62
     5
100
AcDbPoint
 10
142.9304169999998
 20
16.55
 30
0.0
  0
POINT
  5
AD
330
A
100
AcDbEntity
  8
LAY-1
  6
Continuous
 62
     5
100
AcDbPoint
 10
142.9304169999998
 20
3.799999999999998
 30
0.0
  0
POINT
  5
AE
330
A
100
AcDbEntity
  8
LAY-1
  6
Continuous
 62
     5
100
AcDbPoint
 10
74.930417
 20
3.800002999999998
 30
0.0
  0
POINT
  5
B7
330
A
100
AcDbEntity
  8
LAY-1
  6
Continuous
 62
     5
100
AcDbPoint
 10
142.9304169999998
 20
3.799999999999998
 30
0.0
  0
POINT
  5
B8
330
A
100
AcDbEntity
  8
LAY-1
  6
Continuous
 62
     5
100
AcDbPoint
 10
117.4304169999998
 20
3.799999999999998
 30
0.0
  0
POINT
  5
CE
330
A
100
AcDbEntity
  8
LAY-1
  6
Continuous
 62
     5
100
AcDbPoint
 10
70.948346
 20
3.79999
 30
0.0
  0
CIRCLE
  5
CF
330
A
100
AcDbEntity
  8
LAY-1
  6
Continuous
 62
     3
100
AcDbCircle
 10
53.0
 20
57.6
 30
0.0
 40
2.5
  0
CIRCLE
  5
D0
330
A
100
AcDbEntity
  8
LAY-1
  6
Continuous
 62
     3
100
AcDbCircle
 10
53.0
 20
57.6
 30
0.0
 40
2.0
  0
CIRCLE
  5
D1
330
A
100
AcDbEntity
  8
LAY-1
  6
Continuous
 62
     3
100
AcDbCircle
 10
53.0
 20
57.6
 30
0.0
 40
4.9
  0
POINT
  5
D2
330
A
100
AcDbEntity
  8
LAY-1
  6
Continuous
 62
     3
100
AcDbPoint
 10
84.59999999999999
 20
59.15
 30
0.0
  0
POINT
  5
D3
330
A
100
AcDbEntity
  8
LAY-1
  6
Continuous
 62
     3
100
AcDbPoint
 10
84.59999999999999
 20
56.05
 30
0.0
  0
LINE
  5
D4
330
A
100
AcDbEntity
  8
LAY-1
  6
DOT
 62
     1
100
AcDbLine
 10
84.59999999999999
 20
59.15
 30
0.0
 11
114.5999999999999
 21
59.15
 31
0.0
  0
LINE
  5
D5
330
A
100
AcDbEntity
  8
LAY-1
  6
DOT
 62
     1
100
AcDbLine
 10
84.59999999999999
 20
56.05
 30
0.0
 11
114.5999999999999
 21
56.05
 31
0.0
  0
LINE
  5
D6
330
A
100
AcDbEntity
  8
LAY-1
  6
DASHDOT
 62
     1
100
AcDbLine
 10
44.5
 20
57.6
 30
0.0
 11
116.7
 21
57.6
 31
0.0
  0
LINE
  5
D7
330
A
100
AcDbEntity
  8
LAY-1
  6
DASHDOT
 62
     1
100
AcDbLine
 10
53.0
 20
65.9
 30
0.0
 11
53.0
 21
49.5
 31
0.0
  0
POINT
  5
D8
330
A
100
AcDbEntity
  8
LAY-1
  6
Continuous
 62
     1
100
AcDbPoint
 10
84.59999999999999
 20
59.6
 30
0.0
  0
POINT
  5
D9
330
A
100
AcDbEntity
  8
LAY-1
  6
Continuous
 62
     1
100
AcDbPoint
 10
84.59999999999999
 20
55.6
 30
0.0
  0
LINE
  5
DA
330
A
100
AcDbEntity
  8
LAY-1
  6
Continuous
 62
     1
100
AcDbLine
 10
84.59999999999999
 20
59.6
 30
0.0
 11
88.1
 21
59.6
 31
0.0
  0
LINE
  5
DB
330
A
100
AcDbEntity
  8
LAY-1
  6
Continuous
 62
     1
100
AcDbLine
 10
84.59999999999999
 20
55.6
 30
0.0
 11
88.1
 21
55.6
 31
0.0
  0
LINE
  5
DC
330
A
100
AcDbEntity
  8
LAY-1
  6
Continuous
 62
     3
100
AcDbLine
 10
88.1
 20
59.6
 30
0.0
 11
88.1
 21
60.1
 31
0.0
  0
LINE
  5
DD
330
A
100
AcDbEntity
  8
LAY-1
  6
Continuous
 62
     3
100
AcDbLine
 10
88.1
 20
55.6
 30
0.0
 11
88.1
 21
55.1
 31
0.0
  0
LINE
  5
DE
330
A
100
AcDbEntity
  8
LAY-1
  6
Continuous
 62
     3
100
AcDbLine
 10
88.1
 20
55.6
 30
0.0
 11
89.59999999999999
 21
55.6
 31
0.0
  0
LINE
  5
DF
330
A
100
AcDbEntity
  8
LAY-1
  6
Continuous
 62
     3
100
AcDbLine
 10
88.1
 20
59.6
 30
0.0
 11
89.59999999999999
 21
59.6
 31
0.0
  0
LWPOLYLINE
  5
E0
330
A
100
AcDbEntity
  8
LAY-1
  6
Continuous
 62
     3
100
AcDbPolyline
 90
        3
 70
   128
 43
0.0
 10
88.1
 20
60.1
 10
84.59999999999999
 20
60.1
 10
84.59999999999999
 20
55.1
  0
LINE
  5
E5
330
A
100
AcDbEntity
  8
LAY-1
  6
Continuous
 62
     3
100
AcDbLine
 10
84.59999999999999
 20
55.1
 30
0.0
 11
88.1
 21
55.1
 31
0.0
  0
LINE
  5
E6
330
A
100
AcDbEntity
  8
LAY-1
  6
Continuous
 62
     3
100
AcDbLine
 10
89.59999999999999
 20
55.1
 30
0.0
 11
89.59999999999999
 21
60.1
 31
0.0
  0
POINT
  5
E7
330
A
100
AcDbEntity
  8
LAY-1
  6
Continuous
 62
     3
100
AcDbPoint
 10
94.59999999999999
 20
57.6
 30
0.0
  0
POINT
  5
E8
330
A
100
AcDbEntity
  8
LAY-1
  6
Continuous
 62
     3
100
AcDbPoint
 10
94.59999999999999
 20
61.6
 30
0.0
  0
POINT
  5
E9
330
A
100
AcDbEntity
  8
LAY-1
  6
Continuous
 62
     3
100
AcDbPoint
 10
97.1
 20
57.6
 30
0.0
  0
LINE
  5
EA
330
A
100
AcDbEntity
  8
LAY-1
  6
Continuous
 62
     3
100
AcDbLine
 10
94.59999999999999
 20
57.6
 30
0.0
 11
94.59999999999999
 21
62.5
 31
0.0
  0
LINE
  5
EB
330
A
100
AcDbEntity
  8
LAY-1
  6
Continuous
 62
     3
100
AcDbLine
 10
97.1
 20
57.6
 30
0.0
 11
97.1
 21
62.5
 31
0.0
  0
LINE
  5
EC
330
A
100
AcDbEntity
  8
LAY-1
  6
Continuous
 62
     3
100
AcDbLine
 10
94.59999999999999
 20
61.6
 30
0.0
 11
97.1
 21
61.6
 31
0.0
  0
LWPOLYLINE
  5
ED
330
A
100
AcDbEntity
  8
LAY-1
  6
Continuous
 62
     3
100
AcDbPolyline
 90
        3
 70
   128
 43
0.0
 10
94.59999999999999
 20
62.5
 10
89.59999999999999
 20
62.5
 10
89.59999999999999
 20
52.7
  0
POINT
  5
F2
330
A
100
AcDbEntity
  8
LAY-1
  6
Continuous
 62
     3
100
AcDbPoint
 10
94.59999999999999
 20
57.6
 30
0.0
  0
POINT
  5
F3
330
A
100
AcDbEntity
  8
LAY-1
  6
Continuous
 62
     3
100
AcDbPoint
 10
94.59999999999999
 20
53.6
 30
0.0
  0
POINT
  5
F4
330
A
100
AcDbEntity
  8
LAY-1
  6
Continuous
 62
     3
100
AcDbPoint
 10
97.1
 20
57.6
 30
0.0
  0
LINE
  5
F5
330
A
100
AcDbEntity
  8
LAY-1
  6
Continuous
 62
     3
100
AcDbLine
 10
94.59999999999999
 20
57.6
 30
0.0
 11
94.59999999999999
 21
52.7
 31
0.0
  0
LINE
  5
F6
330
A
100
AcDbEntity
  8
LAY-1
  6
Continuous
 62
     3
100
AcDbLine
 10
97.1
 20
57.6
 30
0.0
 11
97.1
 21
52.7
 31
0.0
  0
LINE
  5
F7
330
A
100
AcDbEntity
  8
LAY-1
  6
Continuous
 62
     3
100
AcDbLine
 10
94.59999999999999
 20
53.6
 30
0.0
 11
97.1
 21
53.6
 31
0.0
  0
LINE
  5
F8
330
A
100
AcDbEntity
  8
LAY-1
  6
Continuous
 62
     3
100
AcDbLine
 10
89.59999999999999
 20
52.7
 30
0.0
 11
94.59999999999999
 21
52.7
 31
0.0
  0
DIMENSION
  5
104
330
A
100
AcDbEntity
  8
LAY-1
  6
Continuous
 62
     1
100
AcDbDimension
  2
*D9
 10
114.5999999999999
 20
81.09999999999997
 30
0.0
 11
99.6
 21
82.09999999999999
 31
0.0
 70
    32
 71
     5
 42
-1.0
  3
STANDARD
100
AcDbAlignedDimension
 13
84.59999999999999
 23
60.1
 33
0.0
 14
114.5999999999999
 24
61.6
 34
0.0
100
AcDbRotatedDimension
1001
ACAD
1000
DSTYLE
1002
{
1070
     6
1000
_EX_NORM
1070
     7
1000
_EX_NORM
1070
    41
1040
1.5
1070
    42
1040
0.75
1070
    44
1040
0.75
1070
    73
1070
     0
1070
    74
1070
     0
1070
    75
1070
     0
1070
    76
1070
     0
1070
    77
1070
     1
1070
    78
1070
     8
1070
   140
1040
1.5
1070
   147
1040
0.25
1070
   173
1070
     1
1070
   176
1070
     1
1070
   177
1070
     1
1070
   178
1070
     1
1070
   271
1070
     3
1070
   280
1070
     0
1070
   287
1070
     3
1002
}
  0
DIMENSION
  5
110
330
A
100
AcDbEntity
  8
LAY-1
  6
Continuous
 62
     1
100
AcDbDimension
  2
*D10
 10
121.4
 20
56.05
 30
0.0
 11
120.4
 21
63.275
 31
0.0
 70
    32
 71
     5
 42
-1.0
  3
STANDARD
100
AcDbAlignedDimension
 13
114.5999999999999
 23
59.15
 33
0.0
 14
114.5999999999999
 24
56.05
 34
0.0
 50
90.0
100
AcDbRotatedDimension
1001
ACAD
1000
DSTYLE
1002
{
1070
     6
1000
_EX_NORM
1070
     7
1000
_EX_NORM
1070
    41
1040
1.5
1070
    42
1040
0.75
1070
    44
1040
0.75
1070
    73
1070
     0
1070
    74
1070
     0
1070
    75
1070
     0
1070
    76
1070
     0
1070
    77
1070
     1
1070
    78
1070
     8
1070
   140
1040
1.5
1070
   147
1040
0.25
1070
   173
1070
     1
1070
   176
1070
     1
1070
   177
1070
     1
1070
   178
1070
     1
1070
   271
1070
     3
1070
   280
1070
     1
1070
   287
1070
     3
1002
}
  0
DIMENSION
  5
11C
330
A
100
AcDbEntity
  8
LAY-1
  6
Continuous
 62
     1
100
AcDbDimension
  2
*D11
 10
66.90000000000001
 20
53.6
 30
0.0
 11
65.9
 21
57.6
 31
0.0
 70
    32
 71
     5
 42
-1.0
  3
STANDARD
100
AcDbAlignedDimension
 13
94.59999999999999
 23
61.6
 33
0.0
 14
94.59999999999999
 24
53.6
 34
0.0
 50
90.0
100
AcDbRotatedDimension
1001
ACAD
1000
DSTYLE
1002
{
1070
     6
1000
_EX_NORM
1070
     7
1000
_EX_NORM
1070
    41
1040
1.5
1070
    42
1040
0.75
1070
    44
1040
0.75
1070
    73
1070
     0
1070
    74
1070
     0
1070
    75
1070
     0
1070
    76
1070
     0
1070
    77
1070
     1
1070
    78
1070
     8
1070
   140
1040
1.5
1070
   147
1040
0.25
1070
   173
1070
     1
1070
   176
1070
     1
1070
   177
1070
     1
1070
   178
1070
     1
1070
   271
1070
     3
1070
   280
1070
     0
1070
   287
1070
     3
1002
}
  0
LINE
  5
11D
330
A
100
AcDbEntity
  8
LAY-1
  6
Continuous
 62
     3
100
AcDbLine
 10
88.1
 20
59.6
 30
0.0
 11
88.1
 21
55.6
 31
0.0
  0
DIMENSION
  5
129
330
A
100
AcDbEntity
  8
LAY-1
  6
Continuous
 62
     1
100
AcDbDimension
  2
*D12
 10
72.3
 20
55.1
 30
0.0
 11
71.29999999999999
 21
57.6
 31
0.0
 70
    32
 71
     5
 42
-1.0
  3
STANDARD
100
AcDbAlignedDimension
 13
84.59999999999999
 23
60.1
 33
0.0
 14
84.59999999999999
 24
55.1
 34
0.0
 50
90.0
100
AcDbRotatedDimension
1001
ACAD
1000
DSTYLE
1002
{
1070
     6
1000
_EX_NORM
1070
     7
1000
_EX_NORM
1070
    41
1040
1.5
1070
    42
1040
0.75
1070
    44
1040
0.75
1070
    73
1070
     0
1070
    74
1070
     0
1070
    75
1070
     0
1070
    76
1070
     0
1070
    77
1070
     1
1070
    78
1070
     8
1070
   140
1040
1.5
1070
   147
1040
0.25
1070
   173
1070
     1
1070
   176
1070
     1
1070
   177
1070
     1
1070
   178
1070
     1
1070
   271
1070
     3
1070
   280
1070
     0
1070
   287
1070
     3
1002
}
  0
INSERT
  5
12A
330
A
100
AcDbEntity
  8
LAY-1
  6
Continuous
 62
     0
100
AcDbBlockReference
  2
SYM-1
 10
74.59999999999998
 20
61.6
 30
0.0
 41
0.5
 42
0.5
 50
-90.0
  0
TEXT
  5
132
330
A
100
AcDbEntity
  8
LAY-1
  6
Continuous
 62
     1
100
AcDbText
 10
8.175822253753882
 20
37.0598673619305
 30
0.0
 40
2.5
  1
Use O-ring S-8  and
 41
0.5859374999999997
  7
EXCADSTD
 72
     5
 11
33.17582225375387
 21
37.0598673619305
 31
0.0
100
AcDbText
  0
TEXT
  5
133
330
A
100
AcDbEntity
  8
LAY-1
  6
Continuous
 62
     1
100
AcDbText
 10
7.875822253753881
 20
33.61986736193051
 30
0.0
 40
2.5
  1
thermal contraction tube NPM10-5-1
 41
0.5191212953388558
  7
EXCADSTD
 72
     5
 11
49.79486685236645
 21
33.61986736193051
 31
0.0
100
AcDbText
  0
TEXT
  5
134
330
A
100
AcDbEntity
  8
LAY-1
  6
Continuous
 62
     1
100
AcDbText
 10
68.17661812056154
 20
20.4
 30
0.0
 40
1.5
  1
finish 32mm long after attach fiber and fiber mount ring(105-219-107)
 41
0.6645044477800032
  7
EXCADSTD
 72
     5
 11
132.6999999999999
 21
20.4
 31
0.0
100
AcDbText
  0
LWPOLYLINE
  5
135
330
A
100
AcDbEntity
  8
LAY-1
  6
Continuous
 62
     3
100
AcDbPolyline
 90
        3
 70
   128
 43
0.0
 10
104.6
 20
61.6
 10
104.6
 20
60.6
 10
114.5999999999999
 20
60.6
  0
LWPOLYLINE
  5
13A
330
A
100
AcDbEntity
  8
LAY-1
  6
Continuous
 62
     3
100
AcDbPolyline
 90
        3
 70
   128
 43
0.0
 10
104.6
 20
53.6
 10
104.6
 20
54.6
 10
114.5999999999999
 20
54.6
  0
LINE
  5
13F
330
A
100
AcDbEntity
  8
LAY-1
  6
Continuous
 62
     3
100
AcDbLine
 10
114.5999999999999
 20
54.6
 30
0.0
 11
114.5999999999999
 21
60.6
 31
0.0
  0
LINE
  5
140
330
A
100
AcDbEntity
  8
LAY-1
  6
Continuous
 62
     3
100
AcDbLine
 10
104.6
 20
61.6
 30
0.0
 11
104.6
 21
53.6
 31
0.0
  0
DIMENSION
  5
14C
330
A
100
AcDbEntity
  8
LAY-1
  6
Continuous
 62
     1
100
AcDbDimension
  2
*D13
 10
126.8
 20
60.6
 30
0.0
 11
125.8
 21
57.6
 31
0.0
 70
    32
 71
     5
 42
-1.0
  3
STANDARD
100
AcDbAlignedDimension
 13
114.5999999999999
 23
54.6
 33
0.0
 14
114.5999999999999
 24
60.6
 34
0.0
 50
90.0
100
AcDbRotatedDimension
1001
ACAD
1000
DSTYLE
1002
{
1070
     6
1000
_EX_NORM
1070
     7
1000
_EX_NORM
1070
    41
1040
1.5
1070
    42
1040
0.75
1070
    44
1040
0.75
1070
    73
1070
     0
1070
    74
1070
     0
1070
    75
1070
     0
1070
    76
1070
     0
1070
    77
1070
     1
1070
    78
1070
     8
1070
   140
1040
1.5
1070
   147
1040
0.25
1070
   173
1070
     1
1070
   176
1070
     1
1070
   177
1070
     1
1070
   178
1070
     1
1070
   271
1070
     3
1070
   280
1070
     0
1070
   287
1070
     3
1002
}
  0
LWPOLYLINE
  5
14D
330
A
100
AcDbEntity
  8
LAY-1
  6
Continuous
 62
     3
100
AcDbPolyline
 90
        4
 70
   128
 43
0.0
 10
104.6
 20
62.5
 10
104.6
 20
63.5
 10
101.6
 20
63.5
 10
101.6
 20
62.5
  0
LWPOLYLINE
  5
153
330
A
100
AcDbEntity
  8
LAY-1
  6
Continuous
 62
     3
100
AcDbPolyline
 90
        4
 70
   128
 43
0.0
 10
104.6
 20
52.7
 10
104.6
 20
51.7
 10
101.6
 20
51.7
 10
101.6
 20
52.7
  0
LINE
  5
159
330
A
100
AcDbEntity
  8
LAY-1
  6
Continuous
 62
     3
100
AcDbLine
 10
101.6
 20
62.5
 30
0.0
 11
101.6
 21
52.7
 31
0.0
  0
LINE
  5
15A
330
A
100
AcDbEntity
  8
LAY-1
  6
Continuous
 62
     3
100
AcDbLine
 10
101.6
 20
62.5
 30
0.0
 11
97.1
 21
62.5
 31
0.0
  0
LINE
  5
15B
330
A
100
AcDbEntity
  8
LAY-1
  6
Continuous
 62
     3
100
AcDbLine
 10
97.1
 20
52.7
 30
0.0
 11
101.6
 21
52.7
 31
0.0
  0
LINE
  5
15C
330
A
100
AcDbEntity
  8
LAY-1
  6
Continuous
 62
     3
100
AcDbLine
 10
104.6
 20
52.7
 30
0.0
 11
104.6
 21
62.5
 31
0.0
  0
DIMENSION
  5
168
330
A
100
AcDbEntity
  8
LAY-1
  6
Continuous
 62
     1
100
AcDbDimension
  2
*D14
 10
89.59999999999999
 20
72.7
 30
0.0
 11
87.09999999999999
 21
73.7
 31
0.0
 70
    32
 71
     5
 42
-1.0
  3
STANDARD
100
AcDbAlignedDimension
 13
84.59999999999999
 23
60.1
 33
0.0
 14
89.59999999999999
 24
62.5
 34
0.0
100
AcDbRotatedDimension
1001
ACAD
1000
DSTYLE
1002
{
1070
     6
1000
_EX_NORM
1070
     7
1000
_EX_NORM
1070
    41
1040
1.5
1070
    42
1040
0.75
1070
    44
1040
0.75
1070
    73
1070
     0
1070
    74
1070
     0
1070
    75
1070
     0
1070
    76
1070
     0
1070
    77
1070
     1
1070
    78
1070
     8
1070
   140
1040
1.5
1070
   147
1040
0.25
1070
   173
1070
     1
1070
   176
1070
     1
1070
   177
1070
     1
1070
   178
1070
     1
1070
   271
1070
     3
1070
   280
1070
     0
1070
   287
1070
     3
1002
}
  0
DIMENSION
  5
173
330
A
100
AcDbEntity
  8
LAY-1
  6
Continuous
 62
     1
100
AcDbDimension
  2
*D15
 10
94.59999999999999
 20
72.7
 30
0.0
 11
92.09999999999999
 21
73.7
 31
0.0
 70
    32
 71
     5
 42
-1.0
  3
STANDARD
100
AcDbAlignedDimension
 13
89.59999999999999
 23
62.5
 33
0.0
 14
94.59999999999999
 24
62.5
 34
0.0
100
AcDbRotatedDimension
1001
ACAD
1000
DSTYLE
1002
{
1070
     6
1000
_EX_NORM
1070
     7
1000
_EX_NORM
1070
    41
1040
1.5
1070
    42
1040
0.75
1070
    44
1040
0.75
1070
    73
1070
     0
1070
    74
1070
     0
1070
    75
1070
     1
1070
    76
1070
     0
1070
    77
1070
     1
1070
    78
1070
     8
1070
   140
1040
1.5
1070
   147
1040
0.25
1070
   173
1070
     1
1070
   176
1070
     1
1070
   177
1070
     1
1070
   178
1070
     1
1070
   271
1070
     3
1070
   280
1070
     0
1070
   287
1070
     3
1002
}
  0
DIMENSION
  5
17A
330
A
100
AcDbEntity
  8
LAY-1
  6
Continuous
 62
     1
100
AcDbDimension
  2
*D16
 10
97.1
 20
72.7
 30
0.0
 11
95.84999999999999
 21
73.7
 31
0.0
 70
    32
 71
     5
 42
-1.0
  3
STANDARD
100
AcDbAlignedDimension
 13
94.59999999999999
 23
62.5
 33
0.0
 14
97.1
 24
62.5
 34
0.0
100
AcDbRotatedDimension
1001
ACAD
1000
DSTYLE
1002
{
1070
     6
1000
_EX_NONE
1070
     7
1000
_EX_NONE
1070
    41
1040
0.0
1070
    42
1040
0.75
1070
    44
1040
0.75
1070
    73
1070
     0
1070
    74
1070
     0
1070
    75
1070
     1
1070
    76
1070
     0
1070
    77
1070
     1
1070
    78
1070
     8
1070
   140
1040
1.5
1070
   147
1040
0.25
1070
   173
1070
     1
1070
   176
1070
     1
1070
   177
1070
     1
1070
   178
1070
     1
1070
   271
1070
     3
1070
   280
1070
     0
1070
   287
1070
     3
1002
}
  0
DIMENSION
  5
185
330
A
100
AcDbEntity
  8
LAY-1
  6
Continuous
 62
     1
100
AcDbDimension
  2
*D17
 10
101.6
 20
72.7
 30
0.0
 11
99.35
 21
75.45
 31
0.0
 70
    32
 71
     5
 42
-1.0
  3
STANDARD
100
AcDbAlignedDimension
 13
97.1
 23
62.5
 33
0.0
 14
101.6
 24
63.5
 34
0.0
100
AcDbRotatedDimension
1001
ACAD
1000
DSTYLE
1002
{
1070
     6
1000
_EX_NORM
1070
     7
1000
_EX_NORM
1070
    41
1040
1.5
1070
    42
1040
0.75
1070
    44
1040
0.75
1070
    73
1070
     0
1070
    74
1070
     0
1070
    75
1070
     1
1070
    76
1070
     0
1070
    77
1070
     1
1070
    78
1070
     8
1070
   140
1040
1.5
1070
   147
1040
2.0
1070
   173
1070
     1
1070
   176
1070
     1
1070
   177
1070
     1
1070
   178
1070
     1
1070
   271
1070
     3
1070
   280
1070
     0
1070
   287
1070
     3
1002
}
  0
DIMENSION
  5
18C
330
A
100
AcDbEntity
  8
LAY-1
  6
Continuous
 62
     1
100
AcDbDimension
  2
*D18
 10
104.6
 20
72.7
 30
0.0
 11
103.0999999999999
 21
73.7
 31
0.0
 70
    32
 71
     5
 42
-1.0
  3
STANDARD
100
AcDbAlignedDimension
 13
101.6
 23
63.5
 33
0.0
 14
104.6
 24
63.5
 34
0.0
100
AcDbRotatedDimension
1001
ACAD
1000
DSTYLE
1002
{
1070
     6
1000
_EX_NONE
1070
     7
1000
_EX_NONE
1070
    41
1040
0.0
1070
    42
1040
0.75
1070
    44
1040
0.75
1070
    73
1070
     0
1070
    74
1070
     0
1070
    75
1070
     1
1070
    76
1070
     0
1070
    77
1070
     1
1070
    78
1070
     8
1070
   140
1040
1.5
1070
   147
1040
0.25
1070
   173
1070
     1
1070
   176
1070
     1
1070
   177
1070
     1
1070
   178
1070
     1
1070
   271
1070
     3
1070
   280
1070
     0
1070
   287
1070
     3
1002
}
  0
DIMENSION
  5
197
330
A
100
AcDbEntity
  8
LAY-1
  6
Continuous
 62
     1
100
AcDbDimension
  2
*D19
 10
114.5999999999999
 20
72.7
 30
0.0
 11
109.5999999999999
 21
73.7
 31
0.0
 70
    32
 71
     5
 42
-1.0
  3
STANDARD
100
AcDbAlignedDimension
 13
104.6
 23
63.5
 33
0.0
 14
114.5999999999999
 24
60.6
 34
0.0
100
AcDbRotatedDimension
1001
ACAD
1000
DSTYLE
1002
{
1070
     6
1000
_EX_NORM
1070
     7
1000
_EX_NORM
1070
    41
1040
1.5
1070
    42
1040
0.75
1070
    44
1040
0.75
1070
    73
1070
     0
1070
    74
1070
     0
1070
    75
1070
     1
1070
    76
1070
     0
1070
    77
1070
     1
1070
    78
1070
     8
1070
   140
1040
1.5
1070
   147
1040
0.25
1070
   173
1070
     1
1070
   176
1070
     1
1070
   177
1070
     1
1070
   178
1070
     1
1070
   271
1070
     3
1070
   280
1070
     0
1070
   287
1070
     3
1002
}
  0
DIMENSION
  5
1A3
330
A
100
AcDbEntity
  8
LAY-1
  6
Continuous
 62
     1
100
AcDbDimension
  2
*D20
 10
132.0999999999999
 20
63.5
 30
0.0
 11
131.0999999999999
 21
57.6
 31
0.0
 70
    32
 71
     5
 42
-1.0
  3
STANDARD
100
AcDbAlignedDimension
 13
104.6
 23
51.7
 33
0.0
 14
104.6
 24
63.5
 34
0.0
 50
90.0
100
AcDbRotatedDimension
1001
ACAD
1000
DSTYLE
1002
{
1070
     6
1000
_EX_NORM
1070
     7
1000
_EX_NORM
1070
    41
1040
1.5
1070
    42
1040
0.75
1070
    44
1040
0.75
1070
    73
1070
     0
1070
    74
1070
     0
1070
    75
1070
     0
1070
    76
1070
     0
1070
    77
1070
     1
1070
    78
1070
     8
1070
   140
1040
1.5
1070
   147
1040
0.25
1070
   173
1070
     1
1070
   176
1070
     1
1070
   177
1070
     1
1070
   178
1070
     1
1070
   271
1070
     3
1070
   280
1070
     0
1070
   287
1070
     3
1002
}
  0
TEXT
  5
1B7
330
A
100
AcDbEntity
  8
LAY-1
  6
Continuous
 62
     1
100
AcDbText
 10
7.972780153985468
 20
30.31464621058284
 30
0.0
 40
2.5
  1
(West-Japan electric wire and cable CO, LTD.)
 41
0.3998637004637132
  7
EXCADSTD
 72
     5
 11
49.89182475259804
 21
30.31464621058284
 31
0.0
100
AcDbText
  0
MTEXT
  5
1D8
330
A
100
AcDbEntity
  8
LAY-1
  6
Continuous
100
AcDbMText
 10
4.761514695236683
 20
17.73861410392759
 30
0.0
 40
2.0
 41
56.0892
 71
     1
 72
     5
  1
MATERIAL :ALUMINIUM (A5056)\P16 REQUIRED
 73
     1
 44
1.0
  0
LINE
  5
1D9
330
A
100
AcDbEntity
  8
LAY-1
  6
Continuous
370
   100
100
AcDbLine
 10
142.9304168023841
 20
8.97160862453423
 30
0.0
 11
59.59708346905085
 21
8.97160533093881
 31
0.0
210
0.0
220
0.0
230
-1.0
  0
LINE
  5
1DA
330
A
100
AcDbEntity
  8
LAY-1
  6
Continuous
370
   100
100
AcDbLine
 10
142.9304166047683
 20
13.97160862453423
 30
0.0
 11
59.59708327143521
 21
13.9716053309388
 31
0.0
210
0.0
220
0.0
230
-1.0
  0
LINE
  5
1DB
330
A
100
AcDbEntity
  8
LAY-1
  6
Continuous
370
   100
100
AcDbLine
 10
142.9304164071528
 20
18.97160862453421
 30
0.0
 11
59.59708307381941
 21
18.97160533093878
 31
0.0
210
0.0
220
0.0
230
-1.0
  0
MTEXT
  5
1DC
330
A
100
AcDbEntity
  8
LAY-1
  6
Continuous
100
AcDbMText
 10
62.97637011482726
 20
13.70538054082234
 30
0.0
 40
1.5
 41
27.95764107276644
 71
     1
 72
     5
  1
{\fArial|b1|i0|c0|p34;PHENIX TOC IN TSUKUBA\P\fArial|b0|i0|c0|p34;\H0.6667x;Dept. of Physics , Tsukuba Univ.  Japan}
 73
     1
 44
1.0
  0
MTEXT
  5
1DD
330
A
100
AcDbEntity
  8
LAY-1
  6
Continuous
100
AcDbMText
 10
60.7575094886067
 20
8.236090204849245
 30
0.0
 40
1.25
 41
32.24744166666668
 71
     1
 72
     5
  1
{\fArial|b0|i0|c0|p34;JUL 31 2001\P\fArial|b1|i0|c0|p34;\H1.2x;CI \fMS UI Gothic|b1|i0|c0|p17; \fArial|b1|i0|c0|p34;INDUSTRIES, LTD. (JAPAN)}
 73
     1
 44
1.0
  0
MTEXT
  5
1DE
330
A
100
AcDbEntity
  8
LAY-1
  6
Continuous
100
AcDbMText
 10
76.91362215950515
 20
17.38063035580952
 30
0.0
 40
1.666666666666666
 41
8.333333331114664
 71
     1
 72
     5
  1
{\fMS UI Gothic|b0|i0|c0|p17;SCALE}
 73
     1
 44
1.0
  0
MTEXT
  5
1DF
330
A
100
AcDbEntity
  8
LAY-1
  6
Continuous
100
AcDbMText
 10
60.52729632332351
 20
17.23614382916132
 30
0.0
 40
1.666666666666666
 41
6.644938668709723
 71
     1
 72
     5
  1
UNIT
 73
     1
 44
1.0
  0
LINE
  5
1E0
330
A
100
AcDbEntity
  8
LAY-1
  6
Continuous
370
   100
100
AcDbLine
 10
59.59708307381941
 20
18.97160533093878
 30
0.0
 11
59.5970836666666
 21
3.971605330938805
 31
0.0
210
0.0
220
0.0
230
-1.0
  0
LINE
  5
1E2
330
A
100
AcDbEntity
  8
LAY-1
  6
Continuous
370
   100
100
AcDbLine
 10
76.26374974048609
 20
18.97160598965785
 30
0.0
 11
76.26374993810184
 21
13.97160598965788
 31
0.0
210
0.0
220
0.0
230
-1.0
  0
MTEXT
  5
1E3
330
A
100
AcDbEntity
  8
LAY-1
  6
Continuous
100
AcDbMText
 10
68.43017794563795
 20
15.32819702400207
 30
0.0
 40
0.833333333333333
 41
6.644941666666668
 71
     1
 72
     5
  1
{\fArial|b0|i0|c0|p34;MILLIMETERS}
 73
     1
 44
1.0
  0
MTEXT
  5
1E4
330
A
100
AcDbEntity
  8
LAY-1
  6
Continuous
100
AcDbMText
 10
69.94654299690751
 20
18.25053268843331
 30
0.0
 40
1.666666666666666
 41
6.644941666666668
 71
     1
 72
     5
  1
{\fArial|b1|i1|c0|p34;mm}
 73
     1
 44
1.0
  0
MTEXT
  5
1E5
330
A
100
AcDbEntity
  8
LAY-1
  6
Continuous
100
AcDbMText
 10
93.73974825813801
 20
13.39582810971577
 30
0.0
 40
1.5
 41
16.66666666666667
 71
     1
 72
     5
  1
PHENIX\PDRAWUNG NO.
 73
     1
 44
1.0
  0
MTEXT
  5
1E6
330
A
100
AcDbEntity
  8
LAY-1
  6
Continuous
100
AcDbMText
 10
93.70426648730465
 20
6.902847430839536
 30
0.0
 40
1.5
 41
15.948675
 71
     1
 72
     5
  1
DRAWING NO.
 73
     1
 44
1.0
  0
MTEXT
  5
1E7
330
A
100
AcDbEntity
  8
LAY-1
  6
Continuous
100
AcDbMText
 10
86.90067762011715
 20
17.1672447539711
 30
0.0
 40
1.666666666666666
 41
6.644999999999998
 71
     1
 72
     5
  1
{\fArial|b1|i0|c0|p34;2:1}
 73
     1
 44
1.0
  0
LINE
  5
1E8
330
A
100
AcDbEntity
  8
LAY-1
  6
Continuous
370
   100
100
AcDbLine
 10
84.59708307381943
 20
18.97160631901739
 30
0.0
 11
84.59708327143514
 21
13.97160631901742
 31
0.0
210
0.0
220
0.0
230
-1.0
  0
LINE
  5
1E9
330
A
100
AcDbEntity
  8
LAY-1
  6
Continuous
370
   100
100
AcDbLine
 10
92.9304164071528
 20
18.97160664837696
 30
0.0
 11
92.9304164071528
 21
3.971603124534241
 31
0.0
210
0.0
220
0.0
230
-1.0
  0
LINE
  5
1EA
330
A
100
AcDbEntity
  8
LAY-1
  6
Continuous
100
AcDbLine
 10
109.5970830738195
 20
18.97160664837696
 30
0.0
 11
109.5970830738195
 21
3.971603124534241
 31
0.0
210
0.0
220
0.0
230
-1.0
  0
MTEXT
  5
1EB
330
A
100
AcDbEntity
  8
LAY-1
  6
Continuous
100
AcDbMText
 10
95.95484504972324
 20
17.26438435091018
 30
0.0
 40
1.666666666666666
 41
16.66666666666667
 71
     1
 72
     5
  1
TITLE
 73
     1
 44
1.0
  0
MTEXT
  5
1EC
330
A
100
AcDbEntity
  8
LAY-1
  6
Continuous
100
AcDbMText
 10
115.6535958635253
 20
12.94045305424372
 30
0.0
 40
2.5
 41
23.29289999999999
 71
     1
 72
     5
  1
{\fArial|b1|i0|c0|p34;105-219-106}
 73
     1
 44
1.0
  0
MTEXT
  5
1ED
330
A
100
AcDbEntity
  8
LAY-1
  6
Continuous
100
AcDbMText
 10
112.4866277583828
 20
17.96628721770775
 30
0.0
 40
2.5
 41
28.4786
 71
     1
 72
     5
  1
{\fArial|b1|i0|c0|p34;fiber mount pipe}
 73
     1
 44
1.0
  0
MTEXT
  5
1EE
330
A
100
AcDbEntity
  8
LAY-1
  6
Continuous
100
AcDbMText
 10
120.8154051490071
 20
7.235392154986065
 30
0.0
 40
1.666666666666666
 41
8.989399999999998
 71
     1
 72
     5
  1
039
 73
     1
 44
1.0
  0
LINE
  5
1F2
330
A
100
AcDbEntity
  8
LAY-1
  6
Continuous
370
   100
100
AcDbLine
 10
67.93041622318077
 20
18.97160533093876
 30
0.0
 11
67.93041642079653
 21
13.9716053309388
 31
0.0
210
0.0
220
0.0
230
-1.0
  0
ENDSEC
  0
SECTION
  2
OBJECTS
  0
DICTIONARY
  5
19
330
0
100
AcDbDictionary
281
     1
  3
ACAD_GROUP
350
1A
  3
ACAD_LAYOUT
350
1AC
  3
ACAD_MLINESTYLE
350
1B
  3
ACAD_PLOTSETTINGS
350
1AD
  3
ACAD_PLOTSTYLENAME
350
1AA
  3
ASE_INDEX_DICTIONARY
350
1F4
  0
DICTIONARY
  5
1A
102
{ACAD_REACTORS
330
19
102
}
330
19
100
AcDbDictionary
281
     1
  0
DICTIONARY
  5
1AC
102
{ACAD_REACTORS
330
19
102
}
330
19
100
AcDbDictionary
281
     1
  3
Model
350
1AE
  3
ﾚｲｱｳﾄ1
350
1AF
  0
DICTIONARY
  5
1B
102
{ACAD_REACTORS
330
19
102
}
330
19
100
AcDbDictionary
281
     1
  3
STANDARD
350
1C
  0
DICTIONARY
  5
1AD
102
{ACAD_REACTORS
330
19
102
}
330
19
100
AcDbDictionary
281
     1
  0
ACDBDICTIONARYWDFLT
  5
1AA
102
{ACAD_REACTORS
330
19
102
}
330
19
100
AcDbDictionary
281
     1
  3
Normal
350
1AB
100
AcDbDictionaryWithDefault
340
1AB
  0
DICTIONARY
  5
1F4
102
{ACAD_REACTORS
330
19
102
}
330
19
100
AcDbDictionary
281
     1
  3
ASEBlockHierarchyIndexRecord
350
1F6
1001
DCO15
1040
1413151362.984
  0
LAYOUT
  5
1AE
102
{ACAD_REACTORS
330
1AC
102
}
330
1AC
100
AcDbPlotSettings
  1

  2
Tektronix Phaser 850DP
  4

  6

 40
0.0
 41
0.0
 42
0.0
 43
0.0
 44
0.0
 45
0.0
 46
0.0
 47
0.0
 48
0.0
 49
0.0
140
0.0
141
0.0
142
1.0
143
1.0
 70
  1712
 72
     0
 73
     0
 74
     0
  7

 75
     0
147
1.0
148
0.0
149
0.0
100
AcDbLayout
  1
Model
 70
     1
 71
     0
 10
0.0
 20
0.0
 11
12.0
 21
9.0
 12
0.0
 22
0.0
 32
0.0
 14
0.0
 24
0.0
 34
0.0
 15
0.0
 25
0.0
 35
0.0
146
0.0
 13
0.0
 23
0.0
 33
0.0
 16
1.0
 26
0.0
 36
0.0
 17
0.0
 27
1.0
 37
0.0
 76
     0
330
A
  0
LAYOUT
  5
1AF
102
{ACAD_REACTORS
330
1AC
102
}
330
1AC
100
AcDbPlotSettings
  1

  2
Tektronix Phaser 850DP
  4

  6

 40
0.0
 41
0.0
 42
0.0
 43
0.0
 44
0.0
 45
0.0
 46
0.0
 47
0.0
 48
0.0
 49
0.0
140
0.0
141
0.0
142
1.0
143
1.0
 70
   688
 72
     0
 73
     0
 74
     5
  7

 75
    16
147
1.0
148
0.0
149
0.0
100
AcDbLayout
  1
ﾚｲｱｳﾄ1
 70
     0
 71
     1
 10
0.0
 20
0.0
 11
12.0
 21
9.0
 12
0.0
 22
0.0
 32
0.0
 14
1.000000000000000E+20
 24
1.000000000000000E+20
 34
1.000000000000000E+20
 15
-1.000000000000000E+20
 25
-1.000000000000000E+20
 35
-1.000000000000000E+20
146
0.0
 13
0.0
 23
0.0
 33
0.0
 16
1.0
 26
0.0
 36
0.0
 17
0.0
 27
1.0
 37
0.0
 76
     0
330
B
  0
MLINESTYLE
  5
1C
102
{ACAD_REACTORS
330
1B
102
}
330
1B
100
AcDbMlineStyle
  2
STANDARD
 70
     0
  3

 62
     0
 51
90.0
 52
90.0
 71
     2
 49
0.5
 62
   256
  6
BYLAYER
 49
-0.5
 62
   256
  6
BYLAYER
  0
ACDBPLACEHOLDER
  5
1AB
102
{ACAD_REACTORS
330
1AA
102
}
330
1AA
  0
XRECORD
  5
1F6
102
{ACAD_REACTORS
330
1F4
102
}
330
1F4
100
AcDbXrecord
280
     1
330
12A
  0
ENDSEC
  0
EOF
