  0
SECTION
  2
HEADER
  9
$ACADVER
  1
AC1015
  9
$ACADMAINTVER
 70
    10
  9
$DWGCODEPAGE
  3
ANSI_932
  9
$INSBASE
 10
0.0
 20
0.0
 30
0.0
  9
$EXTMIN
 10
116.0
 20
91.99985599999999
 30
0.0
  9
$EXTMAX
 10
4832.0
 20
3427.999676
 30
0.0
  9
$LIMMIN
 10
0.0
 20
0.0
  9
$LIMMAX
 10
420.0
 20
297.0
  9
$ORTHOMODE
 70
     0
  9
$REGENMODE
 70
     1
  9
$FILLMODE
 70
     1
  9
$QTEXTMODE
 70
     0
  9
$MIRRTEXT
 70
     1
  9
$LTSCALE
 40
1.0
  9
$ATTMODE
 70
     1
  9
$TEXTSIZE
 40
0.0
  9
$TRACEWID
 40
0.05
  9
$TEXTSTYLE
  7
STANDARD
  9
$CLAYER
  8
LAY-1
  9
$CELTYPE
  6
CONTINUOUS
  9
$CECOLOR
 62
   256
  9
$CELTSCALE
 40
1.0
  9
$DISPSILH
 70
     0
  9
$DIMSCALE
 40
1.0
  9
$DIMASZ
 40
0.18
  9
$DIMEXO
 40
0.0625
  9
$DIMDLI
 40
0.38
  9
$DIMRND
 40
0.0
  9
$DIMDLE
 40
0.0
  9
$DIMEXE
 40
0.18
  9
$DIMTP
 40
0.0
  9
$DIMTM
 40
0.0
  9
$DIMTXT
 40
0.18
  9
$DIMCEN
 40
0.09
  9
$DIMTSZ
 40
0.0
  9
$DIMTOL
 70
     0
  9
$DIMLIM
 70
     0
  9
$DIMTIH
 70
     1
  9
$DIMTOH
 70
     1
  9
$DIMSE1
 70
     0
  9
$DIMSE2
 70
     0
  9
$DIMTAD
 70
     0
  9
$DIMZIN
 70
     0
  9
$DIMBLK
  1

  9
$DIMASO
 70
     1
  9
$DIMSHO
 70
     1
  9
$DIMPOST
  1

  9
$DIMAPOST
  1

  9
$DIMALT
 70
     0
  9
$DIMALTD
 70
     2
  9
$DIMALTF
 40
25.4
  9
$DIMLFAC
 40
1.0
  9
$DIMTOFL
 70
     0
  9
$DIMTVP
 40
0.0
  9
$DIMTIX
 70
     0
  9
$DIMSOXD
 70
     0
  9
$DIMSAH
 70
     0
  9
$DIMBLK1
  1

  9
$DIMBLK2
  1

  9
$DIMSTYLE
  2
STANDARD
  9
$DIMCLRD
 70
     0
  9
$DIMCLRE
 70
     0
  9
$DIMCLRT
 70
     0
  9
$DIMTFAC
 40
1.0
  9
$DIMGAP
 40
0.09
  9
$DIMJUST
 70
     0
  9
$DIMSD1
 70
     0
  9
$DIMSD2
 70
     0
  9
$DIMTOLJ
 70
     1
  9
$DIMTZIN
 70
     0
  9
$DIMALTZ
 70
     0
  9
$DIMALTTZ
 70
     0
  9
$DIMUPT
 70
     0
  9
$DIMDEC
 70
     4
  9
$DIMTDEC
 70
     4
  9
$DIMALTU
 70
     2
  9
$DIMALTTD
 70
     2
  9
$DIMTXSTY
  7
STANDARD
  9
$DIMAUNIT
 70
     0
  9
$DIMADEC
 70
     0
  9
$DIMALTRND
 40
0.0
  9
$DIMAZIN
 70
     0
  9
$DIMDSEP
 70
    46
  9
$DIMATFIT
 70
     3
  9
$DIMFRAC
 70
     0
  9
$DIMLDRBLK
  1

  9
$DIMLUNIT
 70
     2
  9
$DIMLWD
 70
    -2
  9
$DIMLWE
 70
    -2
  9
$DIMTMOVE
 70
     0
  9
$LUNITS
 70
     2
  9
$LUPREC
 70
     4
  9
$SKETCHINC
 40
0.1
  9
$FILLETRAD
 40
0.0
  9
$AUNITS
 70
     0
  9
$AUPREC
 70
     0
  9
$MENU
  1
acad
  9
$ELEVATION
 40
0.0
  9
$PELEVATION
 40
0.0
  9
$THICKNESS
 40
0.0
  9
$LIMCHECK
 70
     0
  9
$CHAMFERA
 40
0.0
  9
$CHAMFERB
 40
0.0
  9
$CHAMFERC
 40
0.0
  9
$CHAMFERD
 40
0.0
  9
$SKPOLY
 70
     0
  9
$TDCREATE
 40
2452142.427578333
  9
$TDUCREATE
 40
2452142.052578333
  9
$TDUPDATE
 40
2452159.139143692
  9
$TDUUPDATE
 40
2452158.764143692
  9
$TDINDWG
 40
0.0265733565
  9
$TDUSRTIMER
 40
0.0265733565
  9
$USRTIMER
 70
     1
  9
$ANGBASE
 50
0.0
  9
$ANGDIR
 70
     0
  9
$PDMODE
 70
     0
  9
$PDSIZE
 40
0.0
  9
$PLINEWID
 40
0.0
  9
$SPLFRAME
 70
     0
  9
$SPLINETYPE
 70
     6
  9
$SPLINESEGS
 70
     8
  9
$HANDSEED
  5
2E6
  9
$SURFTAB1
 70
     6
  9
$SURFTAB2
 70
     6
  9
$SURFTYPE
 70
     6
  9
$SURFU
 70
     6
  9
$SURFV
 70
     6
  9
$UCSBASE
  2

  9
$UCSNAME
  2

  9
$UCSORG
 10
0.0
 20
0.0
 30
0.0
  9
$UCSXDIR
 10
1.0
 20
0.0
 30
0.0
  9
$UCSYDIR
 10
0.0
 20
1.0
 30
0.0
  9
$UCSORTHOREF
  2

  9
$UCSORTHOVIEW
 70
     0
  9
$UCSORGTOP
 10
0.0
 20
0.0
 30
0.0
  9
$UCSORGBOTTOM
 10
0.0
 20
0.0
 30
0.0
  9
$UCSORGLEFT
 10
0.0
 20
0.0
 30
0.0
  9
$UCSORGRIGHT
 10
0.0
 20
0.0
 30
0.0
  9
$UCSORGFRONT
 10
0.0
 20
0.0
 30
0.0
  9
$UCSORGBACK
 10
0.0
 20
0.0
 30
0.0
  9
$PUCSBASE
  2

  9
$PUCSNAME
  2

  9
$PUCSORG
 10
0.0
 20
0.0
 30
0.0
  9
$PUCSXDIR
 10
1.0
 20
0.0
 30
0.0
  9
$PUCSYDIR
 10
0.0
 20
1.0
 30
0.0
  9
$PUCSORTHOREF
  2

  9
$PUCSORTHOVIEW
 70
     0
  9
$PUCSORGTOP
 10
0.0
 20
0.0
 30
0.0
  9
$PUCSORGBOTTOM
 10
0.0
 20
0.0
 30
0.0
  9
$PUCSORGLEFT
 10
0.0
 20
0.0
 30
0.0
  9
$PUCSORGRIGHT
 10
0.0
 20
0.0
 30
0.0
  9
$PUCSORGFRONT
 10
0.0
 20
0.0
 30
0.0
  9
$PUCSORGBACK
 10
0.0
 20
0.0
 30
0.0
  9
$USERI1
 70
     0
  9
$USERI2
 70
     0
  9
$USERI3
 70
     0
  9
$USERI4
 70
     0
  9
$USERI5
 70
     0
  9
$USERR1
 40
0.0
  9
$USERR2
 40
0.0
  9
$USERR3
 40
0.0
  9
$USERR4
 40
0.0
  9
$USERR5
 40
0.0
  9
$WORLDVIEW
 70
     1
  9
$SHADEDGE
 70
     3
  9
$SHADEDIF
 70
    70
  9
$TILEMODE
 70
     1
  9
$MAXACTVP
 70
    16
  9
$PINSBASE
 10
0.0
 20
0.0
 30
0.0
  9
$PLIMCHECK
 70
     0
  9
$PEXTMIN
 10
1.000000000000000E+20
 20
1.000000000000000E+20
 30
1.000000000000000E+20
  9
$PEXTMAX
 10
-1.000000000000000E+20
 20
-1.000000000000000E+20
 30
-1.000000000000000E+20
  9
$PLIMMIN
 10
0.0
 20
0.0
  9
$PLIMMAX
 10
12.0
 20
9.0
  9
$UNITMODE
 70
     0
  9
$VISRETAIN
 70
     0
  9
$PLINEGEN
 70
     1
  9
$PSLTSCALE
 70
     0
  9
$TREEDEPTH
 70
  3020
  9
$CMLSTYLE
  2
STANDARD
  9
$CMLJUST
 70
     0
  9
$CMLSCALE
 40
1.0
  9
$PROXYGRAPHICS
 70
     1
  9
$MEASUREMENT
 70
     0
  9
$CELWEIGHT
370
    -1
  9
$ENDCAPS
280
     0
  9
$JOINSTYLE
280
     0
  9
$LWDISPLAY
290
     0
  9
$INSUNITS
 70
     0
  9
$HYPERLINKBASE
  1

  9
$STYLESHEET
  1

  9
$XEDIT
290
     1
  9
$CEPSNTYPE
380
     0
  9
$PSTYLEMODE
290
     1
  9
$FINGERPRINTGUID
  2
{C2F29E97-7C51-442A-B897-D202A814AF7C}
  9
$VERSIONGUID
  2
{B08D7EEC-C242-42FC-8C9B-7697473472CC}
  9
$EXTNAMES
290
     1
  9
$PSVPSCALE
 40
0.0
  9
$OLESTARTUP
290
     0
  0
ENDSEC
  0
SECTION
  2
CLASSES
  0
CLASS
  1
LWPOLYLINE
  2
AcDbPolyline
  3
AutoCAD 2000
 90
    32768
280
     0
281
     1
  0
CLASS
  1
IMAGE
  2
AcDbRasterImage
  3
ISM
 90
    32895
280
     0
281
     1
  0
CLASS
  1
OLE2FRAME
  2
AcDbOle2Frame
  3
AutoCAD 2000
 90
    32768
280
     0
281
     1
  0
CLASS
  1
HATCH
  2
AcDbHatch
  3
AutoCAD 2000
 90
    32768
280
     0
281
     1
  0
CLASS
  1
DICTIONARYVAR
  2
AcDbDictionaryVar
  3
AutoCAD 2000
 90
    32768
280
     0
281
     0
  0
CLASS
  1
RASTERVARIABLES
  2
AcDbRasterVariables
  3
ISM
 90
    32768
280
     0
281
     0
  0
CLASS
  1
IMAGEDEF
  2
AcDbRasterImageDef
  3
ISM
 90
    32768
280
     0
281
     0
  0
CLASS
  1
IMAGEDEF_REACTOR
  2
AcDbRasterImageDefReactor
  3
ISM
 90
    32769
280
     0
281
     0
  0
CLASS
  1
IDBUFFER
  2
AcDbIdBuffer
  3
AutoCAD 2000
 90
    32768
280
     0
281
     0
  0
CLASS
  1
SPATIAL_FILTER
  2
AcDbSpatialFilter
  3
AutoCAD 2000
 90
    32768
280
     0
281
     0
  0
CLASS
  1
XRECORD
  2
AcDbXrecord
  3
AutoCAD 2000
 90
    32768
280
     0
281
     0
  0
CLASS
  1
SORTENTSTABLE
  2
AcDbSortentsTable
  3
AutoCAD 2000
 90
    32768
280
     0
281
     0
  0
CLASS
  1
LAYER_INDEX
  2
AcDbLayerIndex
  3
AutoCAD 2000
 90
    32768
280
     0
281
     0
  0
CLASS
  1
SPATIAL_INDEX
  2
AcDbSpatialIndex
  3
AutoCAD 2000
 90
    32768
280
     0
281
     0
  0
CLASS
  1
OBJECT_PTR
  2
CAseDLPNTableRecord
  3
ASE-LPNTableRecord
 90
    32769
280
     0
281
     0
  0
CLASS
  1
LAYOUT
  2
AcDbLayout
  3
AutoCAD 2000
 90
        0
280
     0
281
     0
  0
CLASS
  1
PLOTSETTINGS
  2
AcDbPlotSettings
  3
AutoCAD 2000
 90
    32768
280
     0
281
     0
  0
CLASS
  1
ACDBDICTIONARYWDFLT
  2
AcDbDictionaryWithDefault
  3
AutoCAD 2000
 90
        0
280
     0
281
     0
  0
CLASS
  1
ACDBPLACEHOLDER
  2
AcDbPlaceHolder
  3
AutoCAD 2000
 90
        0
280
     0
281
     0
  0
CLASS
  1
VBA_PROJECT
  2
AcDbVbaProject
  3
acadvba
 90
    32768
280
     0
281
     0
  0
CLASS
  1
WIPEOUT
  2
AcDbWipeout
  3
WipeOut|AutoCAD Express Tool|expresstools@autodesk.com
 90
    32768
280
     0
281
     1
  0
CLASS
  1
WIPEOUTVARIABLES
  2
AcDbWipeoutVariables
  3
WipeOut|AutoCAD Express Tool|expresstools@autodesk.com
 90
    32768
280
     0
281
     0
  0
CLASS
  1
RTEXT
  2
RText
  3
RText|AutoCAD Express Tool|expresstools@autodesk.com
 90
    32768
280
     0
281
     1
  0
CLASS
  1
ARCALIGNEDTEXT
  2
AcDbArcAlignedText
  3
ATEXT|AutoCAD Express Tool|expresstools@autodesk.com
 90
    32768
280
     0
281
     1
  0
ENDSEC
  0
SECTION
  2
TABLES
  0
TABLE
  2
VPORT
  5
7
330
0
100
AcDbSymbolTable
 70
     2
  0
VPORT
  5
2E5
330
7
100
AcDbSymbolTableRecord
100
AcDbViewportTableRecord
  2
*Active
 70
     0
 10
0.0
 20
0.0
 11
1.0
 21
1.0
 12
2475.866854585646
 22
1182.965307106478
 13
0.0
 23
0.0
 14
1.0
 24
1.0
 15
0.0
 25
0.0
 16
0.0
 26
0.0
 36
1.0
 17
0.0
 27
0.0
 37
0.0
 40
3040.368702754193
 41
1.76847290640394
 42
50.0
 43
0.0
 44
0.0
 50
0.0
 51
0.0
 71
     0
 72
   100
 73
     1
 74
     1
 75
     0
 76
     0
 77
     0
 78
     0
281
     0
 65
     1
110
0.0
120
0.0
130
0.0
111
1.0
121
0.0
131
0.0
112
0.0
122
1.0
132
0.0
 79
     0
146
0.0
  0
ENDTAB
  0
TABLE
  2
LTYPE
  5
4
330
0
100
AcDbSymbolTable
 70
     5
  0
LTYPE
  5
11
330
4
100
AcDbSymbolTableRecord
100
AcDbLinetypeTableRecord
  2
BYBLOCK
 70
     0
  3

 72
    65
 73
     0
 40
0.0
  0
LTYPE
  5
12
330
4
100
AcDbSymbolTableRecord
100
AcDbLinetypeTableRecord
  2
BYLAYER
 70
     0
  3

 72
    65
 73
     0
 40
0.0
  0
LTYPE
  5
13
330
4
100
AcDbSymbolTableRecord
100
AcDbLinetypeTableRecord
  2
CONTINUOUS
 70
     0
  3
実線
 72
    65
 73
     0
 40
0.0
  0
LTYPE
  5
1D
330
4
100
AcDbSymbolTableRecord
100
AcDbLinetypeTableRecord
  2
DASHED
 70
     0
  3
破線
 72
    65
 73
     2
 40
3.799999999999998
 49
3.0
 74
     0
 49
-0.8
 74
     0
  0
LTYPE
  5
1E
330
4
100
AcDbSymbolTableRecord
100
AcDbLinetypeTableRecord
  2
DOT
 70
     0
  3
点線
 72
    65
 73
     2
 40
2.0
 49
1.0
 74
     0
 49
-1.0
 74
     0
  0
LTYPE
  5
1F
330
4
100
AcDbSymbolTableRecord
100
AcDbLinetypeTableRecord
  2
DASHDOT
 70
     0
  3
一点鎖線
 72
    65
 73
     4
 40
25.6
 49
20.0
 74
     0
 49
-2.0
 74
     0
 49
1.6
 74
     0
 49
-2.0
 74
     0
  0
LTYPE
  5
20
330
4
100
AcDbSymbolTableRecord
100
AcDbLinetypeTableRecord
  2
DIVIDE
 70
     0
  3
二点鎖線
 72
    65
 73
     6
 40
31.2
 49
20.0
 74
     0
 49
-2.399999999999999
 74
     0
 49
2.0
 74
     0
 49
-2.399999999999999
 74
     0
 49
2.0
 74
     0
 49
-2.399999999999999
 74
     0
  0
ENDTAB
  0
TABLE
  2
LAYER
  5
2
330
0
100
AcDbSymbolTable
 70
     2
  0
LAYER
  5
14
330
2
100
AcDbSymbolTableRecord
100
AcDbLayerTableRecord
  2
0
 70
     0
 62
     7
  6
CONTINUOUS
370
    -3
390
247
  0
LAYER
  5
25
330
2
100
AcDbSymbolTableRecord
100
AcDbLayerTableRecord
  2
LAY-1
 70
     0
 62
     7
  6
CONTINUOUS
370
    -3
390
247
  0
ENDTAB
  0
TABLE
  2
STYLE
  5
3
330
0
100
AcDbSymbolTable
 70
     5
  0
STYLE
  5
17
330
3
100
AcDbSymbolTableRecord
100
AcDbTextStyleTableRecord
  2
STANDARD
 70
     0
 40
0.0
 41
1.0
 50
0.0
 71
     0
 42
0.0
  3
monotxt
  4

  0
STYLE
  5
21
330
3
100
AcDbSymbolTableRecord
100
AcDbTextStyleTableRecord
  2
EXCADSTD
 70
     0
 40
0.0
 41
1.0
 50
0.0
 71
     0
 42
0.2
  3
monotxt
  4
extfont
  0
STYLE
  5
22
330
3
100
AcDbSymbolTableRecord
100
AcDbTextStyleTableRecord
  2
EXCADVERT
 70
     4
 40
0.0
 41
1.0
 50
0.0
 71
     0
 42
0.286885
  3
monotxt
  4
extfont
  0
STYLE
  5
23
330
3
100
AcDbSymbolTableRecord
100
AcDbTextStyleTableRecord
  2
EXCADSTD2
 70
     0
 40
0.0
 41
1.0
 50
0.0
 71
     0
 42
0.2
  3
monotxt
  4
extfont
  0
STYLE
  5
24
330
3
100
AcDbSymbolTableRecord
100
AcDbTextStyleTableRecord
  2
EXCADVERT2
 70
     4
 40
0.0
 41
1.0
 50
0.0
 71
     0
 42
0.286885
  3
monotxt
  4
extfont
  0
ENDTAB
  0
TABLE
  2
VIEW
  5
5
330
0
100
AcDbSymbolTable
 70
     0
  0
ENDTAB
  0
TABLE
  2
UCS
  5
6
330
0
100
AcDbSymbolTable
 70
     0
  0
ENDTAB
  0
TABLE
  2
APPID
  5
8
330
0
100
AcDbSymbolTable
 70
     2
  0
APPID
  5
16
330
8
100
AcDbSymbolTableRecord
100
AcDbRegAppTableRecord
  2
ACAD
 70
     0
  0
APPID
  5
2CC
330
8
100
AcDbSymbolTableRecord
100
AcDbRegAppTableRecord
  2
DCO15
 70
     0
  0
ENDTAB
  0
TABLE
  2
DIMSTYLE
  5
9
330
0
100
AcDbSymbolTable
 70
     1
100
AcDbDimStyleTable
 71
     0
  0
DIMSTYLE
105
18
102
{ACAD_REACTORS
330
11A
330
126
330
132
330
13E
330
14A
330
156
330
162
330
16D
330
179
330
184
330
18F
330
19A
330
1A5
330
1D3
330
1DE
330
1E9
330
1F2
330
1FE
330
20A
330
223
330
22F
102
}
330
9
100
AcDbSymbolTableRecord
100
AcDbDimStyleTableRecord
  2
STANDARD
 70
     0
340
17
  0
ENDTAB
  0
TABLE
  2
BLOCK_RECORD
  5
1
330
0
100
AcDbSymbolTable
 70
    30
  0
BLOCK_RECORD
  5
A
330
1
100
AcDbSymbolTableRecord
100
AcDbBlockTableRecord
  2
*MODEL_SPACE
340
24A
  0
BLOCK_RECORD
  5
B
330
1
100
AcDbSymbolTableRecord
100
AcDbBlockTableRecord
  2
*PAPER_SPACE
340
24B
  0
BLOCK_RECORD
  5
26
330
1
100
AcDbSymbolTableRecord
100
AcDbBlockTableRecord
  2
_EX_NORM
340
0
  0
BLOCK_RECORD
  5
27
330
1
100
AcDbSymbolTableRecord
100
AcDbBlockTableRecord
  2
_EX_BNORM
340
0
  0
BLOCK_RECORD
  5
28
330
1
100
AcDbSymbolTableRecord
100
AcDbBlockTableRecord
  2
_EX_BCIR
340
0
  0
BLOCK_RECORD
  5
29
330
1
100
AcDbSymbolTableRecord
100
AcDbBlockTableRecord
  2
_EX_RCIVIL
340
0
  0
BLOCK_RECORD
  5
2A
330
1
100
AcDbSymbolTableRecord
100
AcDbBlockTableRecord
  2
_EX_SLANT
340
0
  0
BLOCK_RECORD
  5
2B
330
1
100
AcDbSymbolTableRecord
100
AcDbBlockTableRecord
  2
_EX_NONE
340
0
  0
BLOCK_RECORD
  5
2C
330
1
100
AcDbSymbolTableRecord
100
AcDbBlockTableRecord
  2
_EX_CIVIL
340
0
  0
BLOCK_RECORD
  5
2D
330
1
100
AcDbSymbolTableRecord
100
AcDbBlockTableRecord
  2
_EX_WCIR
340
0
  0
BLOCK_RECORD
  5
10F
330
1
100
AcDbSymbolTableRecord
100
AcDbBlockTableRecord
  2
*D8
340
0
  0
BLOCK_RECORD
  5
11B
330
1
100
AcDbSymbolTableRecord
100
AcDbBlockTableRecord
  2
*D9
340
0
  0
BLOCK_RECORD
  5
127
330
1
100
AcDbSymbolTableRecord
100
AcDbBlockTableRecord
  2
*D10
340
0
  0
BLOCK_RECORD
  5
133
330
1
100
AcDbSymbolTableRecord
100
AcDbBlockTableRecord
  2
*D11
340
0
  0
BLOCK_RECORD
  5
13F
330
1
100
AcDbSymbolTableRecord
100
AcDbBlockTableRecord
  2
*D12
340
0
  0
BLOCK_RECORD
  5
14B
330
1
100
AcDbSymbolTableRecord
100
AcDbBlockTableRecord
  2
*D13
340
0
  0
BLOCK_RECORD
  5
157
330
1
100
AcDbSymbolTableRecord
100
AcDbBlockTableRecord
  2
*D14
340
0
  0
BLOCK_RECORD
  5
163
330
1
100
AcDbSymbolTableRecord
100
AcDbBlockTableRecord
  2
*D15
340
0
  0
BLOCK_RECORD
  5
16E
330
1
100
AcDbSymbolTableRecord
100
AcDbBlockTableRecord
  2
*D16
340
0
  0
BLOCK_RECORD
  5
17A
330
1
100
AcDbSymbolTableRecord
100
AcDbBlockTableRecord
  2
*D17
340
0
  0
BLOCK_RECORD
  5
185
330
1
100
AcDbSymbolTableRecord
100
AcDbBlockTableRecord
  2
*D18
340
0
  0
BLOCK_RECORD
  5
190
330
1
100
AcDbSymbolTableRecord
100
AcDbBlockTableRecord
  2
*D19
340
0
  0
BLOCK_RECORD
  5
19B
330
1
100
AcDbSymbolTableRecord
100
AcDbBlockTableRecord
  2
*D20
340
0
  0
BLOCK_RECORD
  5
1CA
330
1
100
AcDbSymbolTableRecord
100
AcDbBlockTableRecord
  2
*D21
340
0
  0
BLOCK_RECORD
  5
1D4
330
1
100
AcDbSymbolTableRecord
100
AcDbBlockTableRecord
  2
*D22
340
0
  0
BLOCK_RECORD
  5
1DF
330
1
100
AcDbSymbolTableRecord
100
AcDbBlockTableRecord
  2
*D23
340
0
  0
BLOCK_RECORD
  5
1EA
330
1
100
AcDbSymbolTableRecord
100
AcDbBlockTableRecord
  2
*D24
340
0
  0
BLOCK_RECORD
  5
1F3
330
1
100
AcDbSymbolTableRecord
100
AcDbBlockTableRecord
  2
*D25
340
0
  0
BLOCK_RECORD
  5
1FF
330
1
100
AcDbSymbolTableRecord
100
AcDbBlockTableRecord
  2
*D26
340
0
  0
BLOCK_RECORD
  5
218
330
1
100
AcDbSymbolTableRecord
100
AcDbBlockTableRecord
  2
*D27
340
0
  0
BLOCK_RECORD
  5
224
330
1
100
AcDbSymbolTableRecord
100
AcDbBlockTableRecord
  2
*D28
340
0
  0
BLOCK_RECORD
  5
2A6
330
1
100
AcDbSymbolTableRecord
100
AcDbBlockTableRecord
  2
_ClosedBlank
340
0
  0
ENDTAB
  0
ENDSEC
  0
SECTION
  2
BLOCKS
  0
BLOCK
  5
D
330
A
100
AcDbEntity
  8
0
100
AcDbBlockBegin
  2
*MODEL_SPACE
 70
     0
 10
0.0
 20
0.0
 30
0.0
  3
*MODEL_SPACE
  1

  0
ENDBLK
  5
E
330
A
100
AcDbEntity
  8
0
100
AcDbBlockEnd
  0
BLOCK
  5
F
330
B
100
AcDbEntity
 67
     1
  8
0
100
AcDbBlockBegin
  2
*PAPER_SPACE
 70
     0
 10
0.0
 20
0.0
 30
0.0
  3
*PAPER_SPACE
  1

  0
ENDBLK
  5
10
330
B
100
AcDbEntity
 67
     1
  8
0
100
AcDbBlockEnd
  0
BLOCK
  5
2E
330
26
100
AcDbEntity
  8
0
100
AcDbBlockBegin
  2
_EX_NORM
 70
     0
 10
0.0
 20
0.0
 30
0.0
  3
_EX_NORM
  1

  0
LINE
  5
2F
330
26
100
AcDbEntity
  8
0
  6
Continuous
 62
     0
100
AcDbLine
 10
0.0
 20
0.0
 30
0.0
 11
-1.0
 21
0.0
 31
0.0
  0
LINE
  5
30
330
26
100
AcDbEntity
  8
0
  6
Continuous
 62
     0
100
AcDbLine
 10
0.0
 20
0.0
 30
0.0
 11
-0.9607689999999999
 21
0.27735
 31
0.0
  0
LINE
  5
31
330
26
100
AcDbEntity
  8
0
  6
Continuous
 62
     0
100
AcDbLine
 10
0.0
 20
0.0
 30
0.0
 11
-0.9607689999999999
 21
-0.27735
 31
0.0
  0
ENDBLK
  5
32
330
26
100
AcDbEntity
  8
0
100
AcDbBlockEnd
  0
BLOCK
  5
33
330
27
100
AcDbEntity
  8
0
100
AcDbBlockBegin
  2
_EX_BNORM
 70
     0
 10
0.0
 20
0.0
 30
0.0
  3
_EX_BNORM
  1

  0
LINE
  5
34
330
27
100
AcDbEntity
  8
0
  6
Continuous
 62
     0
100
AcDbLine
 10
0.0
 20
0.0
 30
0.0
 11
-1.0
 21
0.0
 31
0.0
  0
LINE
  5
35
330
27
100
AcDbEntity
  8
0
  6
Continuous
 62
     0
100
AcDbLine
 10
0.0
 20
0.0
 30
0.0
 11
-0.9607689999999999
 21
0.27735
 31
0.0
  0
LINE
  5
36
330
27
100
AcDbEntity
  8
0
  6
Continuous
 62
     0
100
AcDbLine
 10
0.0
 20
0.0
 30
0.0
 11
-0.9607689999999999
 21
-0.27735
 31
0.0
  0
LINE
  5
37
330
27
100
AcDbEntity
  8
0
  6
Continuous
 62
     0
100
AcDbLine
 10
0.0
 20
0.0
 30
0.0
 11
-0.9607689999999999
 21
0.138768
 31
0.0
  0
LINE
  5
38
330
27
100
AcDbEntity
  8
0
  6
Continuous
 62
     0
100
AcDbLine
 10
0.0
 20
0.0
 30
0.0
 11
-0.9607689999999999
 21
-0.138768
 31
0.0
  0
LINE
  5
39
330
27
100
AcDbEntity
  8
0
  6
Continuous
 62
     0
100
AcDbLine
 10
-0.9607689999999999
 20
0.27735
 30
0.0
 11
-0.9607689999999999
 21
-0.27735
 31
0.0
  0
ENDBLK
  5
3A
330
27
100
AcDbEntity
  8
0
100
AcDbBlockEnd
  0
BLOCK
  5
3B
330
28
100
AcDbEntity
  8
0
100
AcDbBlockBegin
  2
_EX_BCIR
 70
     0
 10
0.0
 20
0.0
 30
0.0
  3
_EX_BCIR
  1

  0
LINE
  5
3C
330
28
100
AcDbEntity
  8
0
  6
Continuous
 62
     0
100
AcDbLine
 10
0.0
 20
0.0
 30
0.0
 11
-1.0
 21
0.0
 31
0.0
  0
CIRCLE
  5
3D
330
28
100
AcDbEntity
  8
0
  6
Continuous
 62
     0
100
AcDbCircle
 10
0.0
 20
0.0
 30
0.0
 40
0.5
  0
CIRCLE
  5
3E
330
28
100
AcDbEntity
  8
0
  6
Continuous
 62
     0
100
AcDbCircle
 10
0.0
 20
0.0
 30
0.0
 40
0.25
  0
ENDBLK
  5
3F
330
28
100
AcDbEntity
  8
0
100
AcDbBlockEnd
  0
BLOCK
  5
40
330
29
100
AcDbEntity
  8
0
100
AcDbBlockBegin
  2
_EX_RCIVIL
 70
     0
 10
0.0
 20
0.0
 30
0.0
  3
_EX_RCIVIL
  1

  0
LINE
  5
41
330
29
100
AcDbEntity
  8
0
  6
Continuous
 62
     0
100
AcDbLine
 10
0.0
 20
0.0
 30
0.0
 11
-1.0
 21
0.0
 31
0.0
  0
LINE
  5
42
330
29
100
AcDbEntity
  8
0
  6
Continuous
 62
     0
100
AcDbLine
 10
-1.0
 20
-0.25
 30
0.0
 11
0.0
 21
-0.25
 31
0.0
  0
LINE
  5
43
330
29
100
AcDbEntity
  8
0
  6
Continuous
 62
     0
100
AcDbLine
 10
-1.0
 20
-0.125
 30
0.0
 11
0.0
 21
-0.125
 31
0.0
  0
ENDBLK
  5
44
330
29
100
AcDbEntity
  8
0
100
AcDbBlockEnd
  0
BLOCK
  5
45
330
2A
100
AcDbEntity
  8
0
100
AcDbBlockBegin
  2
_EX_SLANT
 70
     0
 10
0.0
 20
0.0
 30
0.0
  3
_EX_SLANT
  1

  0
LINE
  5
46
330
2A
100
AcDbEntity
  8
0
  6
Continuous
 62
     0
100
AcDbLine
 10
0.0
 20
0.0
 30
0.0
 11
-1.0
 21
0.0
 31
0.0
  0
LINE
  5
47
330
2A
100
AcDbEntity
  8
0
  6
Continuous
 62
     0
100
AcDbLine
 10
0.7071069999999999
 20
0.7071069999999999
 30
0.0
 11
-0.7071069999999999
 21
-0.7071069999999999
 31
0.0
  0
ENDBLK
  5
48
330
2A
100
AcDbEntity
  8
0
100
AcDbBlockEnd
  0
BLOCK
  5
49
330
2B
100
AcDbEntity
  8
0
100
AcDbBlockBegin
  2
_EX_NONE
 70
     0
 10
0.0
 20
0.0
 30
0.0
  3
_EX_NONE
  1

  0
LINE
  5
4A
330
2B
100
AcDbEntity
  8
0
  6
Continuous
 62
     0
100
AcDbLine
 10
0.0
 20
0.0
 30
0.0
 11
-1.0
 21
0.0
 31
0.0
  0
ENDBLK
  5
4B
330
2B
100
AcDbEntity
  8
0
100
AcDbBlockEnd
  0
BLOCK
  5
4C
330
2C
100
AcDbEntity
  8
0
100
AcDbBlockBegin
  2
_EX_CIVIL
 70
     0
 10
0.0
 20
0.0
 30
0.0
  3
_EX_CIVIL
  1

  0
LINE
  5
4D
330
2C
100
AcDbEntity
  8
0
  6
Continuous
 62
     0
100
AcDbLine
 10
0.0
 20
0.0
 30
0.0
 11
-1.0
 21
0.0
 31
0.0
  0
LINE
  5
4E
330
2C
100
AcDbEntity
  8
0
  6
Continuous
 62
     0
100
AcDbLine
 10
-1.0
 20
0.25
 30
0.0
 11
0.0
 21
0.25
 31
0.0
  0
LINE
  5
4F
330
2C
100
AcDbEntity
  8
0
  6
Continuous
 62
     0
100
AcDbLine
 10
-1.0
 20
0.125
 30
0.0
 11
0.0
 21
0.125
 31
0.0
  0
ENDBLK
  5
50
330
2C
100
AcDbEntity
  8
0
100
AcDbBlockEnd
  0
BLOCK
  5
51
330
2D
100
AcDbEntity
  8
0
100
AcDbBlockBegin
  2
_EX_WCIR
 70
     0
 10
0.0
 20
0.0
 30
0.0
  3
_EX_WCIR
  1

  0
LINE
  5
52
330
2D
100
AcDbEntity
  8
0
  6
Continuous
 62
     0
100
AcDbLine
 10
0.0
 20
0.0
 30
0.0
 11
-1.0
 21
0.0
 31
0.0
  0
CIRCLE
  5
53
330
2D
100
AcDbEntity
  8
0
  6
Continuous
 62
     0
100
AcDbCircle
 10
0.0
 20
0.0
 30
0.0
 40
0.5
  0
ENDBLK
  5
54
330
2D
100
AcDbEntity
  8
0
100
AcDbBlockEnd
  0
BLOCK
  5
110
330
10F
100
AcDbEntity
  8
0
100
AcDbBlockBegin
  2
*D8
 70
     1
 10
0.0
 20
0.0
 30
0.0
  3
*D8
  1

  0
LINE
  5
111
330
10F
100
AcDbEntity
  8
0
  6
Continuous
 62
     1
100
AcDbLine
 10
2349.0
 20
2623.0
 30
0.0
 11
2349.0
 21
3191.0
 31
0.0
  0
LINE
  5
112
330
10F
100
AcDbEntity
  8
0
  6
Continuous
 62
     1
100
AcDbLine
 10
549.0
 20
2623.0
 30
0.0
 11
549.0
 21
3191.0
 31
0.0
  0
LINE
  5
113
330
10F
100
AcDbEntity
  8
0
  6
Continuous
 62
     1
100
AcDbLine
 10
2349.0
 20
3173.0
 30
0.0
 11
549.0
 21
3173.0
 31
0.0
  0
LINE
  5
114
330
10F
100
AcDbEntity
  8
0
  6
Continuous
 62
     1
100
AcDbLine
 10
2314.22667
 20
3163.682514
 30
0.0
 11
2349.0
 21
3173.0
 31
0.0
  0
LINE
  5
115
330
10F
100
AcDbEntity
  8
0
  6
Continuous
 62
     1
100
AcDbLine
 10
2349.0
 20
3173.0
 30
0.0
 11
2314.22667
 21
3182.317486
 31
0.0
  0
LINE
  5
116
330
10F
100
AcDbEntity
  8
0
  6
Continuous
 62
     1
100
AcDbLine
 10
583.77333
 20
3182.317486
 30
0.0
 11
549.0
 21
3173.0
 31
0.0
  0
LINE
  5
117
330
10F
100
AcDbEntity
  8
0
  6
Continuous
 62
     1
100
AcDbLine
 10
549.0
 20
3173.0
 30
0.0
 11
583.77333
 21
3163.682514
 31
0.0
  0
TEXT
  5
118
330
10F
100
AcDbEntity
  8
0
  6
Continuous
 62
     1
100
AcDbText
 10
1377.0
 20
3179.0
 30
0.0
 40
36.0
  1
1800
  7
EXCADSTD
100
AcDbText
  0
ENDBLK
  5
119
330
10F
100
AcDbEntity
  8
0
100
AcDbBlockEnd
  0
BLOCK
  5
11C
330
11B
100
AcDbEntity
  8
0
100
AcDbBlockBegin
  2
*D9
 70
     1
 10
0.0
 20
0.0
 30
0.0
  3
*D9
  1

  0
LINE
  5
11D
330
11B
100
AcDbEntity
  8
0
  6
Continuous
 62
     1
100
AcDbLine
 10
3835.0
 20
2623.0
 30
0.0
 11
3835.0
 21
3197.0
 31
0.0
  0
LINE
  5
11E
330
11B
100
AcDbEntity
  8
0
  6
Continuous
 62
     1
100
AcDbLine
 10
2935.0
 20
2559.0
 30
0.0
 11
2935.0
 21
3197.0
 31
0.0
  0
LINE
  5
11F
330
11B
100
AcDbEntity
  8
0
  6
Continuous
 62
     1
100
AcDbLine
 10
3835.0
 20
3179.0
 30
0.0
 11
2935.0
 21
3179.0
 31
0.0
  0
LINE
  5
120
330
11B
100
AcDbEntity
  8
0
  6
Continuous
 62
     1
100
AcDbLine
 10
3800.22667
 20
3169.682514
 30
0.0
 11
3835.0
 21
3179.0
 31
0.0
  0
LINE
  5
121
330
11B
100
AcDbEntity
  8
0
  6
Continuous
 62
     1
100
AcDbLine
 10
3835.0
 20
3179.0
 30
0.0
 11
3800.22667
 21
3188.317486
 31
0.0
  0
LINE
  5
122
330
11B
100
AcDbEntity
  8
0
  6
Continuous
 62
     1
100
AcDbLine
 10
2969.77333
 20
3188.317486
 30
0.0
 11
2935.0
 21
3179.0
 31
0.0
  0
LINE
  5
123
330
11B
100
AcDbEntity
  8
0
  6
Continuous
 62
     1
100
AcDbLine
 10
2935.0
 20
3179.0
 30
0.0
 11
2969.77333
 21
3169.682514
 31
0.0
  0
TEXT
  5
124
330
11B
100
AcDbEntity
  8
0
  6
Continuous
 62
     1
100
AcDbText
 10
3331.0
 20
3185.0
 30
0.0
 40
36.0
  1
900
  7
EXCADSTD
100
AcDbText
  0
ENDBLK
  5
125
330
11B
100
AcDbEntity
  8
0
100
AcDbBlockEnd
  0
BLOCK
  5
128
330
127
100
AcDbEntity
  8
0
100
AcDbBlockBegin
  2
*D10
 70
     1
 10
0.0
 20
0.0
 30
0.0
  3
*D10
  1

  0
LINE
  5
129
330
127
100
AcDbEntity
  8
0
  6
Continuous
 62
     1
100
AcDbLine
 10
531.0
 20
1155.0
 30
0.0
 11
202.0
 21
1155.0
 31
0.0
  0
LINE
  5
12A
330
127
100
AcDbEntity
  8
0
  6
Continuous
 62
     1
100
AcDbLine
 10
531.0
 20
2605.0
 30
0.0
 11
202.0
 21
2605.0
 31
0.0
  0
LINE
  5
12B
330
127
100
AcDbEntity
  8
0
  6
Continuous
 62
     1
100
AcDbLine
 10
220.0
 20
1155.0
 30
0.0
 11
220.0
 21
2605.0
 31
0.0
  0
LINE
  5
12C
330
127
100
AcDbEntity
  8
0
  6
Continuous
 62
     1
100
AcDbLine
 10
210.682514
 20
1189.77333
 30
0.0
 11
220.0
 21
1155.0
 31
0.0
  0
LINE
  5
12D
330
127
100
AcDbEntity
  8
0
  6
Continuous
 62
     1
100
AcDbLine
 10
220.0
 20
1155.0
 30
0.0
 11
229.3174859999999
 21
1189.77333
 31
0.0
  0
LINE
  5
12E
330
127
100
AcDbEntity
  8
0
  6
Continuous
 62
     1
100
AcDbLine
 10
229.3174859999999
 20
2570.22667
 30
0.0
 11
220.0
 21
2605.0
 31
0.0
  0
LINE
  5
12F
330
127
100
AcDbEntity
  8
0
  6
Continuous
 62
     1
100
AcDbLine
 10
220.0
 20
2605.0
 30
0.0
 11
210.682514
 21
2570.22667
 31
0.0
  0
TEXT
  5
130
330
127
100
AcDbEntity
  8
0
  6
Continuous
 62
     1
100
AcDbText
 10
214.0
 20
1808.0
 30
0.0
 40
36.0
  1
1450
 50
90.0
  7
EXCADSTD
100
AcDbText
  0
ENDBLK
  5
131
330
127
100
AcDbEntity
  8
0
100
AcDbBlockEnd
  0
BLOCK
  5
134
330
133
100
AcDbEntity
  8
0
100
AcDbBlockBegin
  2
*D11
 70
     1
 10
0.0
 20
0.0
 30
0.0
  3
*D11
  1

  0
LINE
  5
135
330
133
100
AcDbEntity
  8
0
  6
Continuous
 62
     1
100
AcDbLine
 10
3835.0
 20
2623.0
 30
0.0
 11
3835.0
 21
2958.0
 31
0.0
  0
LINE
  5
136
330
133
100
AcDbEntity
  8
0
  6
Continuous
 62
     1
100
AcDbLine
 10
3435.0
 20
2623.0
 30
0.0
 11
3435.0
 21
2958.0
 31
0.0
  0
LINE
  5
137
330
133
100
AcDbEntity
  8
0
  6
Continuous
 62
     1
100
AcDbLine
 10
3835.0
 20
2940.0
 30
0.0
 11
3435.0
 21
2940.0
 31
0.0
  0
LINE
  5
138
330
133
100
AcDbEntity
  8
0
  6
Continuous
 62
     1
100
AcDbLine
 10
3800.22667
 20
2930.682514
 30
0.0
 11
3835.0
 21
2940.0
 31
0.0
  0
LINE
  5
139
330
133
100
AcDbEntity
  8
0
  6
Continuous
 62
     1
100
AcDbLine
 10
3835.0
 20
2940.0
 30
0.0
 11
3800.22667
 21
2949.317485999998
 31
0.0
  0
LINE
  5
13A
330
133
100
AcDbEntity
  8
0
  6
Continuous
 62
     1
100
AcDbLine
 10
3469.773329999998
 20
2949.317485999998
 30
0.0
 11
3435.0
 21
2940.0
 31
0.0
  0
LINE
  5
13B
330
133
100
AcDbEntity
  8
0
  6
Continuous
 62
     1
100
AcDbLine
 10
3435.0
 20
2940.0
 30
0.0
 11
3469.773329999998
 21
2930.682514
 31
0.0
  0
TEXT
  5
13C
330
133
100
AcDbEntity
  8
0
  6
Continuous
 62
     1
100
AcDbText
 10
3581.0
 20
2946.0
 30
0.0
 40
36.0
  1
400
  7
EXCADSTD
100
AcDbText
  0
ENDBLK
  5
13D
330
133
100
AcDbEntity
  8
0
100
AcDbBlockEnd
  0
BLOCK
  5
140
330
13F
100
AcDbEntity
  8
0
100
AcDbBlockBegin
  2
*D12
 70
     1
 10
0.0
 20
0.0
 30
0.0
  3
*D12
  1

  0
LINE
  5
141
330
13F
100
AcDbEntity
  8
0
  6
Continuous
 62
     1
100
AcDbLine
 10
3135.0
 20
2623.0
 30
0.0
 11
3135.0
 21
2958.0
 31
0.0
  0
LINE
  5
142
330
13F
100
AcDbEntity
  8
0
  6
Continuous
 62
     1
100
AcDbLine
 10
3435.0
 20
2623.0
 30
0.0
 11
3435.0
 21
2958.0
 31
0.0
  0
LINE
  5
143
330
13F
100
AcDbEntity
  8
0
  6
Continuous
 62
     1
100
AcDbLine
 10
3135.0
 20
2940.0
 30
0.0
 11
3435.0
 21
2940.0
 31
0.0
  0
LINE
  5
144
330
13F
100
AcDbEntity
  8
0
  6
Continuous
 62
     1
100
AcDbLine
 10
3169.773329999998
 20
2949.317485999998
 30
0.0
 11
3135.0
 21
2940.0
 31
0.0
  0
LINE
  5
145
330
13F
100
AcDbEntity
  8
0
  6
Continuous
 62
     1
100
AcDbLine
 10
3135.0
 20
2940.0
 30
0.0
 11
3169.773329999998
 21
2930.682514
 31
0.0
  0
LINE
  5
146
330
13F
100
AcDbEntity
  8
0
  6
Continuous
 62
     1
100
AcDbLine
 10
3400.22667
 20
2930.682514
 30
0.0
 11
3435.0
 21
2940.0
 31
0.0
  0
LINE
  5
147
330
13F
100
AcDbEntity
  8
0
  6
Continuous
 62
     1
100
AcDbLine
 10
3435.0
 20
2940.0
 30
0.0
 11
3400.22667
 21
2949.317485999998
 31
0.0
  0
TEXT
  5
148
330
13F
100
AcDbEntity
  8
0
  6
Continuous
 62
     1
100
AcDbText
 10
3231.0
 20
2946.0
 30
0.0
 40
36.0
  1
300
  7
EXCADSTD
100
AcDbText
  0
ENDBLK
  5
149
330
13F
100
AcDbEntity
  8
0
100
AcDbBlockEnd
  0
BLOCK
  5
14C
330
14B
100
AcDbEntity
  8
0
100
AcDbBlockBegin
  2
*D13
 70
     1
 10
0.0
 20
0.0
 30
0.0
  3
*D13
  1

  0
LINE
  5
14D
330
14B
100
AcDbEntity
  8
0
  6
Continuous
 62
     1
100
AcDbLine
 10
3435.0
 20
2623.0
 30
0.0
 11
3435.0
 21
3068.0
 31
0.0
  0
LINE
  5
14E
330
14B
100
AcDbEntity
  8
0
  6
Continuous
 62
     1
100
AcDbLine
 10
2935.0
 20
2559.0
 30
0.0
 11
2935.0
 21
3068.0
 31
0.0
  0
LINE
  5
14F
330
14B
100
AcDbEntity
  8
0
  6
Continuous
 62
     1
100
AcDbLine
 10
3435.0
 20
3050.0
 30
0.0
 11
2935.0
 21
3050.0
 31
0.0
  0
LINE
  5
150
330
14B
100
AcDbEntity
  8
0
  6
Continuous
 62
     1
100
AcDbLine
 10
3400.22667
 20
3040.682514
 30
0.0
 11
3435.0
 21
3050.0
 31
0.0
  0
LINE
  5
151
330
14B
100
AcDbEntity
  8
0
  6
Continuous
 62
     1
100
AcDbLine
 10
3435.0
 20
3050.0
 30
0.0
 11
3400.22667
 21
3059.317486
 31
0.0
  0
LINE
  5
152
330
14B
100
AcDbEntity
  8
0
  6
Continuous
 62
     1
100
AcDbLine
 10
2969.77333
 20
3059.317486
 30
0.0
 11
2935.0
 21
3050.0
 31
0.0
  0
LINE
  5
153
330
14B
100
AcDbEntity
  8
0
  6
Continuous
 62
     1
100
AcDbLine
 10
2935.0
 20
3050.0
 30
0.0
 11
2969.77333
 21
3040.682514
 31
0.0
  0
TEXT
  5
154
330
14B
100
AcDbEntity
  8
0
  6
Continuous
 62
     1
100
AcDbText
 10
3131.0
 20
3056.0
 30
0.0
 40
36.0
  1
500
  7
EXCADSTD
100
AcDbText
  0
ENDBLK
  5
155
330
14B
100
AcDbEntity
  8
0
100
AcDbBlockEnd
  0
BLOCK
  5
158
330
157
100
AcDbEntity
  8
0
100
AcDbBlockBegin
  2
*D14
 70
     1
 10
0.0
 20
0.0
 30
0.0
  3
*D14
  1

  0
LINE
  5
159
330
157
100
AcDbEntity
  8
0
  6
Continuous
 62
     1
100
AcDbLine
 10
549.0
 20
2623.0
 30
0.0
 11
549.0
 21
3039.0
 31
0.0
  0
LINE
  5
15A
330
157
100
AcDbEntity
  8
0
  6
Continuous
 62
     1
100
AcDbLine
 10
1449.0
 20
2732.0
 30
0.0
 11
1449.0
 21
3039.0
 31
0.0
  0
LINE
  5
15B
330
157
100
AcDbEntity
  8
0
  6
Continuous
 62
     1
100
AcDbLine
 10
549.0
 20
3021.0
 30
0.0
 11
1449.0
 21
3021.0
 31
0.0
  0
LINE
  5
15C
330
157
100
AcDbEntity
  8
0
  6
Continuous
 62
     1
100
AcDbLine
 10
583.77333
 20
3030.317485999998
 30
0.0
 11
549.0
 21
3021.0
 31
0.0
  0
LINE
  5
15D
330
157
100
AcDbEntity
  8
0
  6
Continuous
 62
     1
100
AcDbLine
 10
549.0
 20
3021.0
 30
0.0
 11
583.77333
 21
3011.682514
 31
0.0
  0
LINE
  5
15E
330
157
100
AcDbEntity
  8
0
  6
Continuous
 62
     1
100
AcDbLine
 10
1414.22667
 20
3011.682514
 30
0.0
 11
1449.0
 21
3021.0
 31
0.0
  0
LINE
  5
15F
330
157
100
AcDbEntity
  8
0
  6
Continuous
 62
     1
100
AcDbLine
 10
1449.0
 20
3021.0
 30
0.0
 11
1414.22667
 21
3030.317485999998
 31
0.0
  0
TEXT
  5
160
330
157
100
AcDbEntity
  8
0
  6
Continuous
 62
     1
100
AcDbText
 10
945.0
 20
3027.0
 30
0.0
 40
36.0
  1
900
  7
EXCADSTD
100
AcDbText
  0
ENDBLK
  5
161
330
157
100
AcDbEntity
  8
0
100
AcDbBlockEnd
  0
BLOCK
  5
164
330
163
100
AcDbEntity
  8
0
100
AcDbBlockBegin
  2
*D15
 70
     1
 10
0.0
 20
0.0
 30
0.0
  3
*D15
  1

  0
LINE
  5
165
330
163
100
AcDbEntity
  8
0
  6
Continuous
 62
     1
100
AcDbLine
 10
2349.0
 20
2623.0
 30
0.0
 11
2349.0
 21
3039.0
 31
0.0
  0
LINE
  5
166
330
163
100
AcDbEntity
  8
0
  6
Continuous
 62
     1
100
AcDbLine
 10
1449.0
 20
3021.0
 30
0.0
 11
2349.0
 21
3021.0
 31
0.0
  0
LINE
  5
167
330
163
100
AcDbEntity
  8
0
  6
Continuous
 62
     1
100
AcDbLine
 10
1483.77333
 20
3030.317485999998
 30
0.0
 11
1449.0
 21
3021.0
 31
0.0
  0
LINE
  5
168
330
163
100
AcDbEntity
  8
0
  6
Continuous
 62
     1
100
AcDbLine
 10
1449.0
 20
3021.0
 30
0.0
 11
1483.77333
 21
3011.682514
 31
0.0
  0
LINE
  5
169
330
163
100
AcDbEntity
  8
0
  6
Continuous
 62
     1
100
AcDbLine
 10
2314.22667
 20
3011.682514
 30
0.0
 11
2349.0
 21
3021.0
 31
0.0
  0
LINE
  5
16A
330
163
100
AcDbEntity
  8
0
  6
Continuous
 62
     1
100
AcDbLine
 10
2349.0
 20
3021.0
 30
0.0
 11
2314.22667
 21
3030.317485999998
 31
0.0
  0
TEXT
  5
16B
330
163
100
AcDbEntity
  8
0
  6
Continuous
 62
     1
100
AcDbText
 10
1845.0
 20
3027.0
 30
0.0
 40
36.0
  1
900
  7
EXCADSTD
100
AcDbText
  0
ENDBLK
  5
16C
330
163
100
AcDbEntity
  8
0
100
AcDbBlockEnd
  0
BLOCK
  5
16F
330
16E
100
AcDbEntity
  8
0
100
AcDbBlockBegin
  2
*D16
 70
     1
 10
0.0
 20
0.0
 30
0.0
  3
*D16
  1

  0
LINE
  5
170
330
16E
100
AcDbEntity
  8
0
  6
Continuous
 62
     1
100
AcDbLine
 10
531.0
 20
1155.0
 30
0.0
 11
313.0
 21
1155.0
 31
0.0
  0
LINE
  5
171
330
16E
100
AcDbEntity
  8
0
  6
Continuous
 62
     1
100
AcDbLine
 10
441.0
 20
2005.0
 30
0.0
 11
313.0
 21
2005.0
 31
0.0
  0
LINE
  5
172
330
16E
100
AcDbEntity
  8
0
  6
Continuous
 62
     1
100
AcDbLine
 10
331.0
 20
1155.0
 30
0.0
 11
331.0
 21
2005.0
 31
0.0
  0
LINE
  5
173
330
16E
100
AcDbEntity
  8
0
  6
Continuous
 62
     1
100
AcDbLine
 10
321.682514
 20
1189.77333
 30
0.0
 11
331.0
 21
1155.0
 31
0.0
  0
LINE
  5
174
330
16E
100
AcDbEntity
  8
0
  6
Continuous
 62
     1
100
AcDbLine
 10
331.0
 20
1155.0
 30
0.0
 11
340.317486
 21
1189.77333
 31
0.0
  0
LINE
  5
175
330
16E
100
AcDbEntity
  8
0
  6
Continuous
 62
     1
100
AcDbLine
 10
340.317486
 20
1970.226669999999
 30
0.0
 11
331.0
 21
2005.0
 31
0.0
  0
LINE
  5
176
330
16E
100
AcDbEntity
  8
0
  6
Continuous
 62
     1
100
AcDbLine
 10
331.0
 20
2005.0
 30
0.0
 11
321.682514
 21
1970.226669999999
 31
0.0
  0
TEXT
  5
177
330
16E
100
AcDbEntity
  8
0
  6
Continuous
 62
     1
100
AcDbText
 10
325.0
 20
1526.0
 30
0.0
 40
36.0
  1
850
 50
90.0
  7
EXCADSTD
100
AcDbText
  0
ENDBLK
  5
178
330
16E
100
AcDbEntity
  8
0
100
AcDbBlockEnd
  0
BLOCK
  5
17B
330
17A
100
AcDbEntity
  8
0
100
AcDbBlockBegin
  2
*D17
 70
     1
 10
0.0
 20
0.0
 30
0.0
  3
*D17
  1

  0
LINE
  5
17C
330
17A
100
AcDbEntity
  8
0
  6
Continuous
 62
     1
100
AcDbLine
 10
531.0
 20
2605.0
 30
0.0
 11
313.0
 21
2605.0
 31
0.0
  0
LINE
  5
17D
330
17A
100
AcDbEntity
  8
0
  6
Continuous
 62
     1
100
AcDbLine
 10
331.0
 20
2005.0
 30
0.0
 11
331.0
 21
2605.0
 31
0.0
  0
LINE
  5
17E
330
17A
100
AcDbEntity
  8
0
  6
Continuous
 62
     1
100
AcDbLine
 10
321.682514
 20
2039.77333
 30
0.0
 11
331.0
 21
2005.0
 31
0.0
  0
LINE
  5
17F
330
17A
100
AcDbEntity
  8
0
  6
Continuous
 62
     1
100
AcDbLine
 10
331.0
 20
2005.0
 30
0.0
 11
340.317486
 21
2039.77333
 31
0.0
  0
LINE
  5
180
330
17A
100
AcDbEntity
  8
0
  6
Continuous
 62
     1
100
AcDbLine
 10
340.317486
 20
2570.22667
 30
0.0
 11
331.0
 21
2605.0
 31
0.0
  0
LINE
  5
181
330
17A
100
AcDbEntity
  8
0
  6
Continuous
 62
     1
100
AcDbLine
 10
331.0
 20
2605.0
 30
0.0
 11
321.682514
 21
2570.22667
 31
0.0
  0
TEXT
  5
182
330
17A
100
AcDbEntity
  8
0
  6
Continuous
 62
     1
100
AcDbText
 10
325.0
 20
2251.0
 30
0.0
 40
36.0
  1
600
 50
90.0
  7
EXCADSTD
100
AcDbText
  0
ENDBLK
  5
183
330
17A
100
AcDbEntity
  8
0
100
AcDbBlockEnd
  0
BLOCK
  5
186
330
185
100
AcDbEntity
  8
0
100
AcDbBlockBegin
  2
*D18
 70
     1
 10
0.0
 20
0.0
 30
0.0
  3
*D18
  1

  0
LINE
  5
187
330
185
100
AcDbEntity
  8
0
  6
Continuous
 62
     1
100
AcDbLine
 10
2079.466494
 20
2369.0
 30
0.0
 11
984.810384
 21
1737.0
 31
0.0
  0
LINE
  5
188
330
185
100
AcDbEntity
  8
0
  6
Continuous
 62
     1
100
AcDbLine
 10
1887.733771999999
 20
2247.544156
 30
0.0
 11
1913.189616
 21
2273.0
 31
0.0
  0
LINE
  5
189
330
185
100
AcDbEntity
  8
0
  6
Continuous
 62
     1
100
AcDbLine
 10
1913.189616
 20
2273.0
 30
0.0
 11
1878.416287
 21
2263.682514
 31
0.0
  0
LINE
  5
18A
330
185
100
AcDbEntity
  8
0
  6
Continuous
 62
     1
100
AcDbLine
 10
1010.266228
 20
1762.455844
 30
0.0
 11
984.810384
 21
1737.0
 31
0.0
  0
LINE
  5
18B
330
185
100
AcDbEntity
  8
0
  6
Continuous
 62
     1
100
AcDbLine
 10
984.810384
 20
1737.0
 30
0.0
 11
1019.583713
 21
1746.317485999999
 31
0.0
  0
TEXT
  5
18C
330
185
100
AcDbEntity
  8
0
  6
Continuous
 62
     1
100
AcDbText
 10
1915.385769
 20
2281.196152
 30
0.0
 40
36.0
  1
φ
 50
30.0
  7
EXCADSTD
100
AcDbText
  0
TEXT
  5
18D
330
185
100
AcDbEntity
  8
0
  6
Continuous
 62
     1
100
AcDbText
 10
1946.562682999999
 20
2299.196151999999
 30
0.0
 40
36.0
  1
1072
 50
30.0
  7
EXCADSTD
100
AcDbText
  0
ENDBLK
  5
18E
330
185
100
AcDbEntity
  8
0
100
AcDbBlockEnd
  0
BLOCK
  5
191
330
190
100
AcDbEntity
  8
0
100
AcDbBlockBegin
  2
*D19
 70
     1
 10
0.0
 20
0.0
 30
0.0
  3
*D19
  1

  0
LINE
  5
192
330
190
100
AcDbEntity
  8
0
  6
Continuous
 62
     1
100
AcDbLine
 10
2308.097201
 20
1509.0
 30
0.0
 11
756.1796769999999
 21
2405.0
 31
0.0
  0
LINE
  5
193
330
190
100
AcDbEntity
  8
0
  6
Continuous
 62
     1
100
AcDbLine
 10
2107.046992999999
 20
1614.317486
 30
0.0
 11
2141.820323
 21
1605.0
 31
0.0
  0
LINE
  5
194
330
190
100
AcDbEntity
  8
0
  6
Continuous
 62
     1
100
AcDbLine
 10
2141.820323
 20
1605.0
 30
0.0
 11
2116.364479
 21
1630.455843999999
 31
0.0
  0
LINE
  5
195
330
190
100
AcDbEntity
  8
0
  6
Continuous
 62
     1
100
AcDbLine
 10
790.953007
 20
2395.682514
 30
0.0
 11
756.1796769999999
 21
2405.0
 31
0.0
  0
LINE
  5
196
330
190
100
AcDbEntity
  8
0
  6
Continuous
 62
     1
100
AcDbLine
 10
756.1796769999999
 20
2405.0
 30
0.0
 11
781.635521
 21
2379.544156
 31
0.0
  0
TEXT
  5
197
330
190
100
AcDbEntity
  8
0
  6
Continuous
 62
     1
100
AcDbText
 10
2150.016475
 20
1607.196152
 30
0.0
 40
36.0
  1
φ
 50
330.0
  7
EXCADSTD
100
AcDbText
  0
TEXT
  5
198
330
190
100
AcDbEntity
  8
0
  6
Continuous
 62
     1
100
AcDbText
 10
2181.19339
 20
1589.196152
 30
0.0
 40
36.0
  1
1600
 50
330.0
  7
EXCADSTD
100
AcDbText
  0
ENDBLK
  5
199
330
190
100
AcDbEntity
  8
0
100
AcDbBlockEnd
  0
BLOCK
  5
19C
330
19B
100
AcDbEntity
  8
0
100
AcDbBlockBegin
  2
*D20
 70
     1
 10
0.0
 20
0.0
 30
0.0
  3
*D20
  1

  0
LINE
  5
19D
330
19B
100
AcDbEntity
  8
0
  6
Continuous
 62
     1
100
AcDbLine
 10
1702.0
 20
2443.208853999999
 30
0.0
 11
1274.0
 21
1701.891108999999
 31
0.0
  0
LINE
  5
19E
330
19B
100
AcDbEntity
  8
0
  6
Continuous
 62
     1
100
AcDbLine
 10
1614.682514
 20
2273.335562
 30
0.0
 11
1624.0
 21
2308.108890999999
 31
0.0
  0
LINE
  5
19F
330
19B
100
AcDbEntity
  8
0
  6
Continuous
 62
     1
100
AcDbLine
 10
1624.0
 20
2308.108890999999
 30
0.0
 11
1598.544156
 21
2282.653046999999
 31
0.0
  0
LINE
  5
1A0
330
19B
100
AcDbEntity
  8
0
  6
Continuous
 62
     1
100
AcDbLine
 10
1283.317486
 20
1736.664437999999
 30
0.0
 11
1274.0
 21
1701.891108999999
 31
0.0
  0
LINE
  5
1A1
330
19B
100
AcDbEntity
  8
0
  6
Continuous
 62
     1
100
AcDbLine
 10
1274.0
 20
1701.891108999999
 30
0.0
 11
1299.455843999999
 21
1727.346953
 31
0.0
  0
TEXT
  5
1A2
330
19B
100
AcDbEntity
  8
0
  6
Continuous
 62
     1
100
AcDbText
 10
1621.803848
 20
2316.305044
 30
0.0
 40
36.0
  1
φ
 50
60.0
  7
EXCADSTD
100
AcDbText
  0
TEXT
  5
1A3
330
19B
100
AcDbEntity
  8
0
  6
Continuous
 62
     1
100
AcDbText
 10
1639.803848
 20
2347.481957999999
 30
0.0
 40
36.0
  1
700
 50
60.0
  7
EXCADSTD
100
AcDbText
  0
ENDBLK
  5
1A4
330
19B
100
AcDbEntity
  8
0
100
AcDbBlockEnd
  0
BLOCK
  5
1CB
330
1CA
100
AcDbEntity
  8
0
100
AcDbBlockBegin
  2
*D21
 70
     1
 10
0.0
 20
0.0
 30
0.0
  3
*D21
  1

  0
LINE
  5
1CC
330
1CA
100
AcDbEntity
  8
0
  6
Continuous
 62
     1
100
AcDbLine
 10
2935.0
 20
1137.0
 30
0.0
 11
2935.0
 21
913.0
 31
0.0
  0
LINE
  5
1CD
330
1CA
100
AcDbEntity
  8
0
  6
Continuous
 62
     1
100
AcDbLine
 10
3035.0
 20
1162.0
 30
0.0
 11
3035.0
 21
913.0
 31
0.0
  0
LINE
  5
1CE
330
1CA
100
AcDbEntity
  8
0
  6
Continuous
 62
     1
100
AcDbLine
 10
2875.0
 20
931.0
 30
0.0
 11
3035.0
 21
931.0
 31
0.0
  0
LINE
  5
1CF
330
1CA
100
AcDbEntity
  8
0
  6
Continuous
 62
     1
100
AcDbLine
 10
2900.22667
 20
921.682514
 30
0.0
 11
2935.0
 21
931.0
 31
0.0
  0
LINE
  5
1D0
330
1CA
100
AcDbEntity
  8
0
  6
Continuous
 62
     1
100
AcDbLine
 10
2935.0
 20
931.0
 30
0.0
 11
2900.22667
 21
940.317486
 31
0.0
  0
TEXT
  5
1D1
330
1CA
100
AcDbEntity
  8
0
  6
Continuous
 62
     1
100
AcDbText
 10
2931.0
 20
937.0
 30
0.0
 40
36.0
  1
100
  7
EXCADSTD
100
AcDbText
  0
ENDBLK
  5
1D2
330
1CA
100
AcDbEntity
  8
0
100
AcDbBlockEnd
  0
BLOCK
  5
1D5
330
1D4
100
AcDbEntity
  8
0
100
AcDbBlockBegin
  2
*D22
 70
     1
 10
0.0
 20
0.0
 30
0.0
  3
*D22
  1

  0
LINE
  5
1D6
330
1D4
100
AcDbEntity
  8
0
  6
Continuous
 62
     1
100
AcDbLine
 10
3385.0
 20
1162.0
 30
0.0
 11
3385.0
 21
913.0
 31
0.0
  0
LINE
  5
1D7
330
1D4
100
AcDbEntity
  8
0
  6
Continuous
 62
     1
100
AcDbLine
 10
3035.0
 20
931.0
 30
0.0
 11
3385.0
 21
931.0
 31
0.0
  0
LINE
  5
1D8
330
1D4
100
AcDbEntity
  8
0
  6
Continuous
 62
     1
100
AcDbLine
 10
3069.77333
 20
940.317486
 30
0.0
 11
3035.0
 21
931.0
 31
0.0
  0
LINE
  5
1D9
330
1D4
100
AcDbEntity
  8
0
  6
Continuous
 62
     1
100
AcDbLine
 10
3035.0
 20
931.0
 30
0.0
 11
3069.77333
 21
921.682514
 31
0.0
  0
LINE
  5
1DA
330
1D4
100
AcDbEntity
  8
0
  6
Continuous
 62
     1
100
AcDbLine
 10
3350.22667
 20
921.682514
 30
0.0
 11
3385.0
 21
931.0
 31
0.0
  0
LINE
  5
1DB
330
1D4
100
AcDbEntity
  8
0
  6
Continuous
 62
     1
100
AcDbLine
 10
3385.0
 20
931.0
 30
0.0
 11
3350.22667
 21
940.317486
 31
0.0
  0
TEXT
  5
1DC
330
1D4
100
AcDbEntity
  8
0
  6
Continuous
 62
     1
100
AcDbText
 10
3156.0
 20
937.0
 30
0.0
 40
36.0
  1
350
  7
EXCADSTD
100
AcDbText
  0
ENDBLK
  5
1DD
330
1D4
100
AcDbEntity
  8
0
100
AcDbBlockEnd
  0
BLOCK
  5
1E0
330
1DF
100
AcDbEntity
  8
0
100
AcDbBlockBegin
  2
*D23
 70
     1
 10
0.0
 20
0.0
 30
0.0
  3
*D23
  1

  0
LINE
  5
1E1
330
1DF
100
AcDbEntity
  8
0
  6
Continuous
 62
     1
100
AcDbLine
 10
3735.0
 20
1162.0
 30
0.0
 11
3735.0
 21
913.0
 31
0.0
  0
LINE
  5
1E2
330
1DF
100
AcDbEntity
  8
0
  6
Continuous
 62
     1
100
AcDbLine
 10
3385.0
 20
931.0
 30
0.0
 11
3735.0
 21
931.0
 31
0.0
  0
LINE
  5
1E3
330
1DF
100
AcDbEntity
  8
0
  6
Continuous
 62
     1
100
AcDbLine
 10
3419.773329999999
 20
940.317486
 30
0.0
 11
3385.0
 21
931.0
 31
0.0
  0
LINE
  5
1E4
330
1DF
100
AcDbEntity
  8
0
  6
Continuous
 62
     1
100
AcDbLine
 10
3385.0
 20
931.0
 30
0.0
 11
3419.773329999999
 21
921.682514
 31
0.0
  0
LINE
  5
1E5
330
1DF
100
AcDbEntity
  8
0
  6
Continuous
 62
     1
100
AcDbLine
 10
3700.226670000001
 20
921.682514
 30
0.0
 11
3735.0
 21
931.0
 31
0.0
  0
LINE
  5
1E6
330
1DF
100
AcDbEntity
  8
0
  6
Continuous
 62
     1
100
AcDbLine
 10
3735.0
 20
931.0
 30
0.0
 11
3700.226670000001
 21
940.317486
 31
0.0
  0
TEXT
  5
1E7
330
1DF
100
AcDbEntity
  8
0
  6
Continuous
 62
     1
100
AcDbText
 10
3506.0
 20
937.0
 30
0.0
 40
36.0
  1
350
  7
EXCADSTD
100
AcDbText
  0
ENDBLK
  5
1E8
330
1DF
100
AcDbEntity
  8
0
100
AcDbBlockEnd
  0
BLOCK
  5
1EB
330
1EA
100
AcDbEntity
  8
0
100
AcDbBlockBegin
  2
*D24
 70
     1
 10
0.0
 20
0.0
 30
0.0
  3
*D24
  1

  0
LINE
  5
1EC
330
1EA
100
AcDbEntity
  8
0
  6
Continuous
 62
     1
100
AcDbLine
 10
3835.0
 20
1137.0
 30
0.0
 11
3835.0
 21
913.0
 31
0.0
  0
LINE
  5
1ED
330
1EA
100
AcDbEntity
  8
0
  6
Continuous
 62
     1
100
AcDbLine
 10
3735.0
 20
931.0
 30
0.0
 11
3895.0
 21
931.0
 31
0.0
  0
LINE
  5
1EE
330
1EA
100
AcDbEntity
  8
0
  6
Continuous
 62
     1
100
AcDbLine
 10
3869.773329999999
 20
940.317486
 30
0.0
 11
3835.0
 21
931.0
 31
0.0
  0
LINE
  5
1EF
330
1EA
100
AcDbEntity
  8
0
  6
Continuous
 62
     1
100
AcDbLine
 10
3835.0
 20
931.0
 30
0.0
 11
3869.773329999999
 21
921.682514
 31
0.0
  0
TEXT
  5
1F0
330
1EA
100
AcDbEntity
  8
0
  6
Continuous
 62
     1
100
AcDbText
 10
3731.0
 20
937.0
 30
0.0
 40
36.0
  1
100
  7
EXCADSTD
100
AcDbText
  0
ENDBLK
  5
1F1
330
1EA
100
AcDbEntity
  8
0
100
AcDbBlockEnd
  0
BLOCK
  5
1F4
330
1F3
100
AcDbEntity
  8
0
100
AcDbBlockBegin
  2
*D25
 70
     1
 10
0.0
 20
0.0
 30
0.0
  3
*D25
  1

  0
LINE
  5
1F5
330
1F3
100
AcDbEntity
  8
0
  6
Continuous
 62
     1
100
AcDbLine
 10
2917.0
 20
1155.0
 30
0.0
 11
2703.0
 21
1155.0
 31
0.0
  0
LINE
  5
1F6
330
1F3
100
AcDbEntity
  8
0
  6
Continuous
 62
     1
100
AcDbLine
 10
2917.0
 20
1205.0
 30
0.0
 11
2703.0
 21
1205.0
 31
0.0
  0
LINE
  5
1F7
330
1F3
100
AcDbEntity
  8
0
  6
Continuous
 62
     1
100
AcDbLine
 10
2721.0
 20
1041.0
 30
0.0
 11
2721.0
 21
1265.0
 31
0.0
  0
LINE
  5
1F8
330
1F3
100
AcDbEntity
  8
0
  6
Continuous
 62
     1
100
AcDbLine
 10
2730.317486
 20
1120.22667
 30
0.0
 11
2721.0
 21
1155.0
 31
0.0
  0
LINE
  5
1F9
330
1F3
100
AcDbEntity
  8
0
  6
Continuous
 62
     1
100
AcDbLine
 10
2721.0
 20
1155.0
 30
0.0
 11
2711.682514
 21
1120.22667
 31
0.0
  0
LINE
  5
1FA
330
1F3
100
AcDbEntity
  8
0
  6
Continuous
 62
     1
100
AcDbLine
 10
2711.682514
 20
1239.77333
 30
0.0
 11
2721.0
 21
1205.0
 31
0.0
  0
LINE
  5
1FB
330
1F3
100
AcDbEntity
  8
0
  6
Continuous
 62
     1
100
AcDbLine
 10
2721.0
 20
1205.0
 30
0.0
 11
2730.317486
 21
1239.77333
 31
0.0
  0
TEXT
  5
1FC
330
1F3
100
AcDbEntity
  8
0
  6
Continuous
 62
     1
100
AcDbText
 10
2715.0
 20
1047.0
 30
0.0
 40
36.0
  1
50
 50
90.0
  7
EXCADSTD
100
AcDbText
  0
ENDBLK
  5
1FD
330
1F3
100
AcDbEntity
  8
0
100
AcDbBlockEnd
  0
BLOCK
  5
200
330
1FF
100
AcDbEntity
  8
0
100
AcDbBlockBegin
  2
*D26
 70
     1
 10
0.0
 20
0.0
 30
0.0
  3
*D26
  1

  0
LINE
  5
201
330
1FF
100
AcDbEntity
  8
0
  6
Continuous
 62
     1
100
AcDbLine
 10
2917.0
 20
1155.0
 30
0.0
 11
2805.0
 21
1155.0
 31
0.0
  0
LINE
  5
202
330
1FF
100
AcDbEntity
  8
0
  6
Continuous
 62
     1
100
AcDbLine
 10
3017.0
 20
1180.0
 30
0.0
 11
2805.0
 21
1180.0
 31
0.0
  0
LINE
  5
203
330
1FF
100
AcDbEntity
  8
0
  6
Continuous
 62
     1
100
AcDbLine
 10
2823.0
 20
1041.0
 30
0.0
 11
2823.0
 21
1240.0
 31
0.0
  0
LINE
  5
204
330
1FF
100
AcDbEntity
  8
0
  6
Continuous
 62
     1
100
AcDbLine
 10
2832.317485999999
 20
1120.22667
 30
0.0
 11
2823.0
 21
1155.0
 31
0.0
  0
LINE
  5
205
330
1FF
100
AcDbEntity
  8
0
  6
Continuous
 62
     1
100
AcDbLine
 10
2823.0
 20
1155.0
 30
0.0
 11
2813.682514
 21
1120.22667
 31
0.0
  0
LINE
  5
206
330
1FF
100
AcDbEntity
  8
0
  6
Continuous
 62
     1
100
AcDbLine
 10
2813.682514
 20
1214.77333
 30
0.0
 11
2823.0
 21
1180.0
 31
0.0
  0
LINE
  5
207
330
1FF
100
AcDbEntity
  8
0
  6
Continuous
 62
     1
100
AcDbLine
 10
2823.0
 20
1180.0
 30
0.0
 11
2832.317485999999
 21
1214.77333
 31
0.0
  0
TEXT
  5
208
330
1FF
100
AcDbEntity
  8
0
  6
Continuous
 62
     1
100
AcDbText
 10
2817.0
 20
1047.0
 30
0.0
 40
36.0
  1
25
 50
90.0
  7
EXCADSTD
100
AcDbText
  0
ENDBLK
  5
209
330
1FF
100
AcDbEntity
  8
0
100
AcDbBlockEnd
  0
BLOCK
  5
219
330
218
100
AcDbEntity
  8
0
100
AcDbBlockBegin
  2
*D27
 70
     1
 10
0.0
 20
0.0
 30
0.0
  3
*D27
  1

  0
LINE
  5
21A
330
218
100
AcDbEntity
  8
0
  6
Continuous
 62
     1
100
AcDbLine
 10
1328.085716999999
 20
1623.288411999999
 30
0.0
 11
1212.711706999999
 21
1654.202785
 31
0.0
  0
LINE
  5
21B
330
218
100
AcDbEntity
  8
0
  6
Continuous
 62
     1
100
AcDbLine
 10
1292.886326999999
 20
1491.9225
 30
0.0
 11
1177.512316999999
 21
1522.836873
 31
0.0
  0
LINE
  5
21C
330
218
100
AcDbEntity
  8
0
  6
Continuous
 62
     1
100
AcDbLine
 10
1230.098372
 20
1649.544042
 30
0.0
 11
1194.898981
 21
1518.17813
 31
0.0
  0
LINE
  5
21D
330
218
100
AcDbEntity
  8
0
  6
Continuous
 62
     1
100
AcDbLine
 10
1230.098372
 20
1613.544042
 30
0.0
 11
1230.098372
 21
1649.544042
 31
0.0
  0
LINE
  5
21E
330
218
100
AcDbEntity
  8
0
  6
Continuous
 62
     1
100
AcDbLine
 10
1230.098372
 20
1649.544042
 30
0.0
 11
1212.098372
 21
1618.367128
 31
0.0
  0
LINE
  5
21F
330
218
100
AcDbEntity
  8
0
  6
Continuous
 62
     1
100
AcDbLine
 10
1194.898981
 20
1554.17813
 30
0.0
 11
1194.898981
 21
1518.17813
 31
0.0
  0
LINE
  5
220
330
218
100
AcDbEntity
  8
0
  6
Continuous
 62
     1
100
AcDbLine
 10
1194.898981
 20
1518.17813
 30
0.0
 11
1212.898981
 21
1549.355045
 31
0.0
  0
TEXT
  5
221
330
218
100
AcDbEntity
  8
0
  6
Continuous
 62
     1
100
AcDbText
 10
1192.726893
 20
1533.254006
 30
0.0
 40
36.0
  1
136
 50
75.0
  7
EXCADSTD
100
AcDbText
  0
ENDBLK
  5
222
330
218
100
AcDbEntity
  8
0
100
AcDbBlockEnd
  0
BLOCK
  5
225
330
224
100
AcDbEntity
  8
0
100
AcDbBlockBegin
  2
*D28
 70
     1
 10
0.0
 20
0.0
 30
0.0
  3
*D28
  1

  0
LINE
  5
226
330
224
100
AcDbEntity
  8
0
  6
Continuous
 62
     1
100
AcDbLine
 10
870.5866529999997
 20
1452.042497
 30
0.0
 11
777.0866530000001
 21
1545.542497
 31
0.0
  0
LINE
  5
227
330
224
100
AcDbEntity
  8
0
  6
Continuous
 62
     1
100
AcDbLine
 10
799.875975
 20
1381.331819
 30
0.0
 11
706.375975
 21
1474.831819
 31
0.0
  0
LINE
  5
228
330
224
100
AcDbEntity
  8
0
  6
Continuous
 62
     1
100
AcDbLine
 10
789.814575
 20
1532.814575
 30
0.0
 11
719.103897
 21
1462.103897
 31
0.0
  0
LINE
  5
229
330
224
100
AcDbEntity
  8
0
  6
Continuous
 62
     1
100
AcDbLine
 10
771.8145749999997
 20
1501.637661
 30
0.0
 11
789.814575
 21
1532.814575
 31
0.0
  0
LINE
  5
22A
330
224
100
AcDbEntity
  8
0
  6
Continuous
 62
     1
100
AcDbLine
 10
789.814575
 20
1532.814575
 30
0.0
 11
758.637661
 21
1514.814575
 31
0.0
  0
LINE
  5
22B
330
224
100
AcDbEntity
  8
0
  6
Continuous
 62
     1
100
AcDbLine
 10
737.1038969999997
 20
1493.280810999999
 30
0.0
 11
719.103897
 21
1462.103897
 31
0.0
  0
LINE
  5
22C
330
224
100
AcDbEntity
  8
0
  6
Continuous
 62
     1
100
AcDbLine
 10
719.103897
 20
1462.103897
 30
0.0
 11
750.2808110000001
 21
1480.103897
 31
0.0
  0
TEXT
  5
22D
330
224
100
AcDbEntity
  8
0
  6
Continuous
 62
     1
100
AcDbText
 10
712.0328289999996
 20
1463.51811
 30
0.0
 40
36.0
  1
100
 50
45.0
  7
EXCADSTD
100
AcDbText
  0
ENDBLK
  5
22E
330
224
100
AcDbEntity
  8
0
100
AcDbBlockEnd
  0
BLOCK
  5
2AA
330
2A6
100
AcDbEntity
  8
0
100
AcDbBlockBegin
  2
_ClosedBlank
 70
     0
 10
0.0
 20
0.0
 30
0.0
  3
_ClosedBlank
  1

  0
LINE
  5
2A7
330
2A6
100
AcDbEntity
  8
0
  6
ByBlock
 62
     0
370
    -2
100
AcDbLine
 10
-1.0
 20
0.1666666666666666
 30
0.0
 11
0.0
 21
0.0
 31
0.0
  0
LINE
  5
2A8
330
2A6
100
AcDbEntity
  8
0
  6
ByBlock
 62
     0
370
    -2
100
AcDbLine
 10
0.0
 20
0.0
 30
0.0
 11
-1.0
 21
-0.1666666666666666
 31
0.0
  0
LINE
  5
2A9
330
2A6
100
AcDbEntity
  8
0
  6
ByBlock
 62
     0
370
    -2
100
AcDbLine
 10
-1.0
 20
0.1666666666666666
 30
0.0
 11
-1.0
 21
-0.1666666666666666
 31
0.0
  0
ENDBLK
  5
2AB
330
2A6
100
AcDbEntity
  8
0
100
AcDbBlockEnd
  0
ENDSEC
  0
SECTION
  2
ENTITIES
  0
LINE
  5
83
330
A
100
AcDbEntity
  8
LAY-1
  6
Continuous
 62
     3
100
AcDbLine
 10
4832.0
 20
92.00013199999999
 30
0.0
 11
4832.0
 21
3427.999676
 31
0.0
  0
LINE
  5
84
330
A
100
AcDbEntity
  8
LAY-1
  6
Continuous
 62
     3
100
AcDbLine
 10
4832.0
 20
3427.999676
 30
0.0
 11
116.0
 21
3427.999676
 31
0.0
  0
LINE
  5
85
330
A
100
AcDbEntity
  8
LAY-1
  6
Continuous
 62
     3
100
AcDbLine
 10
116.0
 20
3427.999676
 30
0.0
 11
116.0
 21
92.0
 31
0.0
  0
LINE
  5
86
330
A
100
AcDbEntity
  8
LAY-1
  6
Continuous
 62
     3
100
AcDbLine
 10
116.0
 20
92.0
 30
0.0
 11
4832.0
 21
92.0
 31
0.0
  0
POINT
  5
92
330
A
100
AcDbEntity
  8
LAY-1
  6
Continuous
 62
     5
100
AcDbPoint
 10
4832.0
 20
92.00013199999999
 30
0.0
  0
POINT
  5
93
330
A
100
AcDbEntity
  8
LAY-1
  6
Continuous
 62
     5
100
AcDbPoint
 10
4832.0
 20
212.0001319999999
 30
0.0
  0
POINT
  5
94
330
A
100
AcDbEntity
  8
LAY-1
  6
Continuous
 62
     5
100
AcDbPoint
 10
4832.0
 20
92.00013199999999
 30
0.0
  0
POINT
  5
95
330
A
100
AcDbEntity
  8
LAY-1
  6
Continuous
 62
     5
100
AcDbPoint
 10
4832.0
 20
332.000132
 30
0.0
  0
POINT
  5
96
330
A
100
AcDbEntity
  8
LAY-1
  6
Continuous
 62
     5
100
AcDbPoint
 10
4832.0
 20
92.00013199999999
 30
0.0
  0
POINT
  5
97
330
A
100
AcDbEntity
  8
LAY-1
  6
Continuous
 62
     5
100
AcDbPoint
 10
4832.0
 20
452.000132
 30
0.0
  0
POINT
  5
98
330
A
100
AcDbEntity
  8
LAY-1
  6
Continuous
 62
     5
100
AcDbPoint
 10
4832.0
 20
92.00013199999999
 30
0.0
  0
POINT
  5
99
330
A
100
AcDbEntity
  8
LAY-1
  6
Continuous
 62
     5
100
AcDbPoint
 10
2912.0
 20
92.00022800000001
 30
0.0
  0
POINT
  5
A2
330
A
100
AcDbEntity
  8
LAY-1
  6
Continuous
 62
     5
100
AcDbPoint
 10
4832.0
 20
92.00013199999999
 30
0.0
  0
POINT
  5
A3
330
A
100
AcDbEntity
  8
LAY-1
  6
Continuous
 62
     5
100
AcDbPoint
 10
4112.0
 20
92.00013199999999
 30
0.0
  0
POINT
  5
B9
330
A
100
AcDbEntity
  8
LAY-1
  6
Continuous
 62
     5
100
AcDbPoint
 10
2799.565184
 20
91.99985599999999
 30
0.0
  0
LINE
  5
BA
330
A
100
AcDbEntity
  8
LAY-1
  6
DASHDOT
 62
     1
100
AcDbLine
 10
459.0
 20
2005.0
 30
0.0
 11
4255.0
 21
2005.0
 31
0.0
  0
CIRCLE
  5
BB
330
A
100
AcDbEntity
  8
LAY-1
  6
Continuous
 62
     3
100
AcDbCircle
 10
1449.0
 20
2005.0
 30
0.0
 40
536.0
  0
CIRCLE
  5
BC
330
A
100
AcDbEntity
  8
LAY-1
  6
Continuous
 62
     3
100
AcDbCircle
 10
1449.0
 20
2005.0
 30
0.0
 40
350.0
  0
LWPOLYLINE
  5
BD
330
A
100
AcDbEntity
  8
LAY-1
  6
Continuous
 62
     3
100
AcDbPolyline
 90
        6
 70
   128
 43
0.0
 10
1449.0
 20
1205.0
 10
2349.0
 20
1205.0
 10
2349.0
 20
2605.0
 10
549.0
 20
2605.0
 10
549.0
 20
1205.0
 10
1449.0
 20
1205.0
  0
ARC
  5
C5
330
A
100
AcDbEntity
  8
LAY-1
  6
Continuous
 62
     3
100
AcDbCircle
 10
1449.0
 20
2005.0
 30
0.0
 40
800.0
100
AcDbArc
 50
131.4096219999999
 51
48.590378
  0
LINE
  5
C6
330
A
100
AcDbEntity
  8
LAY-1
  6
Continuous
 62
     3
100
AcDbLine
 10
676.2593389999997
 20
2212.055236
 30
0.0
 11
579.6667559999997
 21
2237.937141
 31
0.0
  0
LINE
  5
C7
330
A
100
AcDbEntity
  8
LAY-1
  6
Continuous
 62
     3
100
AcDbLine
 10
676.2593389999997
 20
1797.944764
 30
0.0
 11
579.6667559999997
 21
1772.062859
 31
0.0
  0
LINE
  5
C8
330
A
100
AcDbEntity
  8
LAY-1
  6
Continuous
 62
     3
100
AcDbLine
 10
883.3145749999996
 20
1439.314575
 30
0.0
 11
812.6038969999997
 21
1368.603897
 31
0.0
  0
LINE
  5
C9
330
A
100
AcDbEntity
  8
LAY-1
  6
Continuous
 62
     3
100
AcDbLine
 10
1049.0
 20
1312.179677
 30
0.0
 11
999.0
 21
1225.577137
 31
0.0
  0
LINE
  5
CA
330
A
100
AcDbEntity
  8
LAY-1
  6
Continuous
 62
     3
100
AcDbLine
 10
1166.157288
 20
2287.842712
 30
0.0
 11
1069.990765
 21
2384.009235
 31
0.0
  0
LINE
  5
CB
330
A
100
AcDbEntity
  8
LAY-1
  6
Continuous
 62
     3
100
AcDbLine
 10
1062.629669
 20
2108.527618
 30
0.0
 11
931.2637570000001
 21
2143.727007999999
 31
0.0
  0
LINE
  5
CC
330
A
100
AcDbEntity
  8
LAY-1
  6
Continuous
 62
     3
100
AcDbLine
 10
1062.629669
 20
1901.472382
 30
0.0
 11
931.2637570000001
 21
1866.272992
 31
0.0
  0
LINE
  5
CD
330
A
100
AcDbEntity
  8
LAY-1
  6
Continuous
 62
     3
100
AcDbLine
 10
1166.157288
 20
1722.157288
 30
0.0
 11
1069.990765
 21
1625.990765
 31
0.0
  0
LINE
  5
CE
330
A
100
AcDbEntity
  8
LAY-1
  6
Continuous
 62
     3
100
AcDbLine
 10
1345.472382
 20
1618.629668999999
 30
0.0
 11
1310.272992
 21
1487.263757
 31
0.0
  0
LINE
  5
CF
330
A
100
AcDbEntity
  8
LAY-1
  6
Continuous
 62
     3
100
AcDbLine
 10
1345.472382
 20
2391.370331
 30
0.0
 11
1310.272992
 21
2522.736243
 31
0.0
  0
LINE
  5
D0
330
A
100
AcDbEntity
  8
LAY-1
  6
Continuous
 62
     3
100
AcDbLine
 10
2221.740660999999
 20
2212.055236
 30
0.0
 11
2318.333244
 21
2237.937141
 31
0.0
  0
LINE
  5
D1
330
A
100
AcDbEntity
  8
LAY-1
  6
Continuous
 62
     3
100
AcDbLine
 10
2221.740660999999
 20
1797.944764
 30
0.0
 11
2318.333244
 21
1772.062859
 31
0.0
  0
LINE
  5
D2
330
A
100
AcDbEntity
  8
LAY-1
  6
Continuous
 62
     3
100
AcDbLine
 10
2014.685425
 20
1439.314575
 30
0.0
 11
2085.396103
 21
1368.603897
 31
0.0
  0
LINE
  5
D3
330
A
100
AcDbEntity
  8
LAY-1
  6
Continuous
 62
     3
100
AcDbLine
 10
1849.0
 20
1312.179677
 30
0.0
 11
1899.0
 21
1225.577137
 31
0.0
  0
LINE
  5
D4
330
A
100
AcDbEntity
  8
LAY-1
  6
Continuous
 62
     3
100
AcDbLine
 10
1731.842712
 20
2287.842712
 30
0.0
 11
1828.009235
 21
2384.009235
 31
0.0
  0
LINE
  5
D5
330
A
100
AcDbEntity
  8
LAY-1
  6
Continuous
 62
     3
100
AcDbLine
 10
1835.370331
 20
2108.527618
 30
0.0
 11
1966.736243
 21
2143.727007999999
 31
0.0
  0
LINE
  5
D6
330
A
100
AcDbEntity
  8
LAY-1
  6
Continuous
 62
     3
100
AcDbLine
 10
1835.370331
 20
1901.472382
 30
0.0
 11
1966.736243
 21
1866.272992
 31
0.0
  0
LINE
  5
D7
330
A
100
AcDbEntity
  8
LAY-1
  6
Continuous
 62
     3
100
AcDbLine
 10
1731.842712
 20
1722.157288
 30
0.0
 11
1828.009235
 21
1625.990765
 31
0.0
  0
LINE
  5
D8
330
A
100
AcDbEntity
  8
LAY-1
  6
Continuous
 62
     3
100
AcDbLine
 10
1552.527618
 20
1618.629668999999
 30
0.0
 11
1587.727008
 21
1487.263757
 31
0.0
  0
LINE
  5
D9
330
A
100
AcDbEntity
  8
LAY-1
  6
Continuous
 62
     3
100
AcDbLine
 10
1552.527618
 20
2391.370331
 30
0.0
 11
1587.727008
 21
2522.736243
 31
0.0
  0
LINE
  5
DA
330
A
100
AcDbEntity
  8
LAY-1
  6
Continuous
 62
     3
100
AcDbLine
 10
883.3145749999996
 20
2570.685425
 30
0.0
 11
849.0
 21
2605.0
 31
0.0
  0
LINE
  5
DB
330
A
100
AcDbEntity
  8
LAY-1
  6
Continuous
 62
     3
100
AcDbLine
 10
2014.685425
 20
2570.685425
 30
0.0
 11
2049.0
 21
2605.0
 31
0.0
  0
LWPOLYLINE
  5
DC
330
A
100
AcDbEntity
  8
LAY-1
  6
Continuous
 62
     3
100
AcDbPolyline
 90
        4
 70
   128
 43
0.0
 10
549.0
 20
1205.0
 10
549.0
 20
1155.0
 10
2349.0
 20
1155.0
 10
2349.0
 20
1205.0
  0
LWPOLYLINE
  5
E2
330
A
100
AcDbEntity
  8
LAY-1
  6
Continuous
 62
     3
100
AcDbPolyline
 90
        4
 70
   128
 43
0.0
 10
3435.0
 20
1155.0
 10
2935.0
 20
1155.0
 10
2935.0
 20
1205.0
 10
3435.0
 20
1205.0
  0
LWPOLYLINE
  5
E8
330
A
100
AcDbEntity
  8
LAY-1
  6
Continuous
 62
     3
100
AcDbPolyline
 90
        5
 70
   128
 43
0.0
 10
3485.0
 20
1205.0
 10
3785.0
 20
1205.0
 10
3785.0
 20
2555.0
 10
3485.0
 20
2555.0
 10
3485.0
 20
1205.0
  0
LWPOLYLINE
  5
EF
330
A
100
AcDbEntity
  8
LAY-1
  6
Continuous
 62
     3
100
AcDbPolyline
 90
        5
 70
   128
 43
0.0
 10
3435.0
 20
1155.0
 10
3835.0
 20
1155.0
 10
3835.0
 20
2605.0
 10
3435.0
 20
2605.0
 10
3435.0
 20
1205.0
  0
POINT
  5
F6
330
A
100
AcDbEntity
  8
LAY-1
  6
Continuous
 62
     3
100
AcDbPoint
 10
599.0
 20
2555.0
 30
0.0
  0
POINT
  5
F7
330
A
100
AcDbEntity
  8
LAY-1
  6
Continuous
 62
     3
100
AcDbPoint
 10
2299.0
 20
2555.0
 30
0.0
  0
LINE
  5
F8
330
A
100
AcDbEntity
  8
LAY-1
  6
DOT
 62
     3
100
AcDbLine
 10
599.0
 20
2555.0
 30
0.0
 11
599.0
 21
1205.0
 31
0.0
  0
LINE
  5
F9
330
A
100
AcDbEntity
  8
LAY-1
  6
DOT
 62
     3
100
AcDbLine
 10
599.0
 20
2555.0
 30
0.0
 11
2299.0
 21
2555.0
 31
0.0
  0
LINE
  5
FA
330
A
100
AcDbEntity
  8
LAY-1
  6
DOT
 62
     3
100
AcDbLine
 10
2299.0
 20
2555.0
 30
0.0
 11
2299.0
 21
1205.0
 31
0.0
  0
POINT
  5
FB
330
A
100
AcDbEntity
  8
LAY-1
  6
Continuous
 62
     3
100
AcDbPoint
 10
1799.0
 20
2555.0
 30
0.0
  0
POINT
  5
FC
330
A
100
AcDbEntity
  8
LAY-1
  6
Continuous
 62
     3
100
AcDbPoint
 10
1849.0
 20
2555.0
 30
0.0
  0
POINT
  5
FD
330
A
100
AcDbEntity
  8
LAY-1
  6
Continuous
 62
     3
100
AcDbPoint
 10
1099.0
 20
2555.0
 30
0.0
  0
POINT
  5
FE
330
A
100
AcDbEntity
  8
LAY-1
  6
Continuous
 62
     3
100
AcDbPoint
 10
1049.0
 20
2555.0
 30
0.0
  0
LINE
  5
FF
330
A
100
AcDbEntity
  8
LAY-1
  6
DOT
 62
     3
100
AcDbLine
 10
1049.0
 20
2555.0
 30
0.0
 11
1049.0
 21
1205.0
 31
0.0
  0
LINE
  5
100
330
A
100
AcDbEntity
  8
LAY-1
  6
DOT
 62
     3
100
AcDbLine
 10
1099.0
 20
2555.0
 30
0.0
 11
1099.0
 21
1205.0
 31
0.0
  0
LINE
  5
101
330
A
100
AcDbEntity
  8
LAY-1
  6
DOT
 62
     3
100
AcDbLine
 10
1799.0
 20
2555.0
 30
0.0
 11
1799.0
 21
1205.0
 31
0.0
  0
LINE
  5
102
330
A
100
AcDbEntity
  8
LAY-1
  6
DOT
 62
     3
100
AcDbLine
 10
1849.0
 20
2555.0
 30
0.0
 11
1849.0
 21
1205.0
 31
0.0
  0
POINT
  5
103
330
A
100
AcDbEntity
  8
LAY-1
  6
Continuous
 62
     3
100
AcDbPoint
 10
3135.0
 20
2605.0
 30
0.0
  0
LINE
  5
104
330
A
100
AcDbEntity
  8
LAY-1
  6
Continuous
 62
     3
100
AcDbLine
 10
3135.0
 20
2605.0
 30
0.0
 11
3135.0
 21
1205.0
 31
0.0
  0
LWPOLYLINE
  5
105
330
A
100
AcDbEntity
  8
LAY-1
  6
Continuous
 62
     3
100
AcDbPolyline
 90
        4
 70
   128
 43
0.0
 10
3135.0
 20
2541.0
 10
2935.0
 20
2541.0
 10
2935.0
 20
1469.0
 10
3135.0
 20
1469.0
  0
LINE
  5
10B
330
A
100
AcDbEntity
  8
LAY-1
  6
DOT
 62
     3
100
AcDbLine
 10
3135.0
 20
2541.0
 30
0.0
 11
3435.0
 21
2541.0
 31
0.0
  0
LINE
  5
10C
330
A
100
AcDbEntity
  8
LAY-1
  6
DOT
 62
     3
100
AcDbLine
 10
3135.0
 20
1469.0
 30
0.0
 11
3435.0
 21
1469.0
 31
0.0
  0
LINE
  5
10D
330
A
100
AcDbEntity
  8
LAY-1
  6
Continuous
 62
     3
100
AcDbLine
 10
3135.0
 20
2605.0
 30
0.0
 11
3435.0
 21
2605.0
 31
0.0
  0
LINE
  5
10E
330
A
100
AcDbEntity
  8
LAY-1
  6
DASHDOT
 62
     1
100
AcDbLine
 10
1449.0
 20
2714.0
 30
0.0
 11
1449.0
 21
959.0
 31
0.0
  0
DIMENSION
  5
11A
330
A
100
AcDbEntity
  8
LAY-1
  6
Continuous
 62
     1
100
AcDbDimension
  2
*D8
 10
549.0
 20
3173.0
 30
0.0
 11
1449.0
 21
3197.0
 31
0.0
 70
    32
 71
     5
 42
-1.0
  3
STANDARD
100
AcDbAlignedDimension
 13
2349.0
 23
2605.0
 33
0.0
 14
549.0
 24
2605.0
 34
0.0
100
AcDbRotatedDimension
1001
ACAD
1000
DSTYLE
1002
{
1070
     6
1000
_EX_NORM
1070
     7
1000
_EX_NORM
1070
    41
1040
36.0
1070
    42
1040
18.0
1070
    44
1040
18.0
1070
    73
1070
     0
1070
    74
1070
     0
1070
    75
1070
     0
1070
    76
1070
     0
1070
    77
1070
     1
1070
    78
1070
     8
1070
   140
1040
36.0
1070
   147
1040
6.0
1070
   173
1070
     1
1070
   176
1070
     1
1070
   177
1070
     1
1070
   178
1070
     1
1070
   271
1070
     3
1070
   280
1070
     0
1070
   287
1070
     3
1002
}
  0
DIMENSION
  5
126
330
A
100
AcDbEntity
  8
LAY-1
  6
Continuous
 62
     1
100
AcDbDimension
  2
*D9
 10
2935.0
 20
3179.0
 30
0.0
 11
3385.0
 21
3203.0
 31
0.0
 70
    32
 71
     5
 42
-1.0
  3
STANDARD
100
AcDbAlignedDimension
 13
3835.0
 23
2605.0
 33
0.0
 14
2935.0
 24
2541.0
 34
0.0
100
AcDbRotatedDimension
1001
ACAD
1000
DSTYLE
1002
{
1070
     6
1000
_EX_NORM
1070
     7
1000
_EX_NORM
1070
    41
1040
36.0
1070
    42
1040
18.0
1070
    44
1040
18.0
1070
    73
1070
     0
1070
    74
1070
     0
1070
    75
1070
     0
1070
    76
1070
     0
1070
    77
1070
     1
1070
    78
1070
     8
1070
   140
1040
36.0
1070
   147
1040
6.0
1070
   173
1070
     1
1070
   176
1070
     1
1070
   177
1070
     1
1070
   178
1070
     1
1070
   271
1070
     3
1070
   280
1070
     0
1070
   287
1070
     3
1002
}
  0
DIMENSION
  5
132
330
A
100
AcDbEntity
  8
LAY-1
  6
Continuous
 62
     1
100
AcDbDimension
  2
*D10
 10
220.0
 20
2605.0
 30
0.0
 11
196.0
 21
1880.0
 31
0.0
 70
    32
 71
     5
 42
-1.0
  3
STANDARD
100
AcDbAlignedDimension
 13
549.0
 23
1155.0
 33
0.0
 14
549.0
 24
2605.0
 34
0.0
 50
90.0
100
AcDbRotatedDimension
1001
ACAD
1000
DSTYLE
1002
{
1070
     6
1000
_EX_NORM
1070
     7
1000
_EX_NORM
1070
    41
1040
36.0
1070
    42
1040
18.0
1070
    44
1040
18.0
1070
    73
1070
     0
1070
    74
1070
     0
1070
    75
1070
     0
1070
    76
1070
     0
1070
    77
1070
     1
1070
    78
1070
     8
1070
   140
1040
36.0
1070
   147
1040
6.0
1070
   173
1070
     1
1070
   176
1070
     1
1070
   177
1070
     1
1070
   178
1070
     1
1070
   271
1070
     3
1070
   280
1070
     0
1070
   287
1070
     3
1002
}
  0
DIMENSION
  5
13E
330
A
100
AcDbEntity
  8
LAY-1
  6
Continuous
 62
     1
100
AcDbDimension
  2
*D11
 10
3435.0
 20
2940.0
 30
0.0
 11
3635.0
 21
2964.0
 31
0.0
 70
    32
 71
     5
 42
-1.0
  3
STANDARD
100
AcDbAlignedDimension
 13
3835.0
 23
2605.0
 33
0.0
 14
3435.0
 24
2605.0
 34
0.0
100
AcDbRotatedDimension
1001
ACAD
1000
DSTYLE
1002
{
1070
     6
1000
_EX_NORM
1070
     7
1000
_EX_NORM
1070
    41
1040
36.0
1070
    42
1040
18.0
1070
    44
1040
18.0
1070
    73
1070
     0
1070
    74
1070
     0
1070
    75
1070
     0
1070
    76
1070
     0
1070
    77
1070
     1
1070
    78
1070
     8
1070
   140
1040
36.0
1070
   147
1040
6.0
1070
   173
1070
     1
1070
   176
1070
     1
1070
   177
1070
     1
1070
   178
1070
     1
1070
   271
1070
     3
1070
   280
1070
     0
1070
   287
1070
     3
1002
}
  0
DIMENSION
  5
14A
330
A
100
AcDbEntity
  8
LAY-1
  6
Continuous
 62
     1
100
AcDbDimension
  2
*D12
 10
3435.0
 20
2940.0
 30
0.0
 11
3285.0
 21
2964.0
 31
0.0
 70
    32
 71
     5
 42
-1.0
  3
STANDARD
100
AcDbAlignedDimension
 13
3135.0
 23
2605.0
 33
0.0
 14
3435.0
 24
2605.0
 34
0.0
100
AcDbRotatedDimension
1001
ACAD
1000
DSTYLE
1002
{
1070
     6
1000
_EX_NORM
1070
     7
1000
_EX_NORM
1070
    41
1040
36.0
1070
    42
1040
18.0
1070
    44
1040
18.0
1070
    73
1070
     0
1070
    74
1070
     0
1070
    75
1070
     0
1070
    76
1070
     0
1070
    77
1070
     1
1070
    78
1070
     8
1070
   140
1040
36.0
1070
   147
1040
6.0
1070
   173
1070
     1
1070
   176
1070
     1
1070
   177
1070
     1
1070
   178
1070
     1
1070
   271
1070
     3
1070
   280
1070
     0
1070
   287
1070
     3
1002
}
  0
DIMENSION
  5
156
330
A
100
AcDbEntity
  8
LAY-1
  6
Continuous
 62
     1
100
AcDbDimension
  2
*D13
 10
2935.0
 20
3050.0
 30
0.0
 11
3185.0
 21
3074.0
 31
0.0
 70
    32
 71
     5
 42
-1.0
  3
STANDARD
100
AcDbAlignedDimension
 13
3435.0
 23
2605.0
 33
0.0
 14
2935.0
 24
2541.0
 34
0.0
100
AcDbRotatedDimension
1001
ACAD
1000
DSTYLE
1002
{
1070
     6
1000
_EX_NORM
1070
     7
1000
_EX_NORM
1070
    41
1040
36.0
1070
    42
1040
18.0
1070
    44
1040
18.0
1070
    73
1070
     0
1070
    74
1070
     0
1070
    75
1070
     0
1070
    76
1070
     0
1070
    77
1070
     1
1070
    78
1070
     8
1070
   140
1040
36.0
1070
   147
1040
6.0
1070
   173
1070
     1
1070
   176
1070
     1
1070
   177
1070
     1
1070
   178
1070
     1
1070
   271
1070
     3
1070
   280
1070
     0
1070
   287
1070
     3
1002
}
  0
DIMENSION
  5
162
330
A
100
AcDbEntity
  8
LAY-1
  6
Continuous
 62
     1
100
AcDbDimension
  2
*D14
 10
1449.0
 20
3021.0
 30
0.0
 11
999.0
 21
3045.0
 31
0.0
 70
    32
 71
     5
 42
-1.0
  3
STANDARD
100
AcDbAlignedDimension
 13
549.0
 23
2605.0
 33
0.0
 14
1449.0
 24
2714.0
 34
0.0
100
AcDbRotatedDimension
1001
ACAD
1000
DSTYLE
1002
{
1070
     6
1000
_EX_NORM
1070
     7
1000
_EX_NORM
1070
    41
1040
36.0
1070
    42
1040
18.0
1070
    44
1040
18.0
1070
    73
1070
     0
1070
    74
1070
     0
1070
    75
1070
     0
1070
    76
1070
     0
1070
    77
1070
     1
1070
    78
1070
     8
1070
   140
1040
36.0
1070
   147
1040
6.0
1070
   173
1070
     1
1070
   176
1070
     1
1070
   177
1070
     1
1070
   178
1070
     1
1070
   271
1070
     3
1070
   280
1070
     0
1070
   287
1070
     3
1002
}
  0
DIMENSION
  5
16D
330
A
100
AcDbEntity
  8
LAY-1
  6
Continuous
 62
     1
100
AcDbDimension
  2
*D15
 10
2349.0
 20
3021.0
 30
0.0
 11
1899.0
 21
3045.0
 31
0.0
 70
    32
 71
     5
 42
-1.0
  3
STANDARD
100
AcDbAlignedDimension
 13
1449.0
 23
2714.0
 33
0.0
 14
2349.0
 24
2605.0
 34
0.0
100
AcDbRotatedDimension
1001
ACAD
1000
DSTYLE
1002
{
1070
     6
1000
_EX_NORM
1070
     7
1000
_EX_NORM
1070
    41
1040
36.0
1070
    42
1040
18.0
1070
    44
1040
18.0
1070
    73
1070
     0
1070
    74
1070
     0
1070
    75
1070
     1
1070
    76
1070
     0
1070
    77
1070
     1
1070
    78
1070
     8
1070
   140
1040
36.0
1070
   147
1040
6.0
1070
   173
1070
     1
1070
   176
1070
     1
1070
   177
1070
     1
1070
   178
1070
     1
1070
   271
1070
     3
1070
   280
1070
     0
1070
   287
1070
     3
1002
}
  0
DIMENSION
  5
179
330
A
100
AcDbEntity
  8
LAY-1
  6
Continuous
 62
     1
100
AcDbDimension
  2
*D16
 10
331.0
 20
2005.0
 30
0.0
 11
307.0
 21
1580.0
 31
0.0
 70
    32
 71
     5
 42
-1.0
  3
STANDARD
100
AcDbAlignedDimension
 13
549.0
 23
1155.0
 33
0.0
 14
459.0
 24
2005.0
 34
0.0
 50
90.0
100
AcDbRotatedDimension
1001
ACAD
1000
DSTYLE
1002
{
1070
     6
1000
_EX_NORM
1070
     7
1000
_EX_NORM
1070
    41
1040
36.0
1070
    42
1040
18.0
1070
    44
1040
18.0
1070
    73
1070
     0
1070
    74
1070
     0
1070
    75
1070
     0
1070
    76
1070
     0
1070
    77
1070
     1
1070
    78
1070
     8
1070
   140
1040
36.0
1070
   147
1040
6.0
1070
   173
1070
     1
1070
   176
1070
     1
1070
   177
1070
     1
1070
   178
1070
     1
1070
   271
1070
     3
1070
   280
1070
     0
1070
   287
1070
     3
1002
}
  0
DIMENSION
  5
184
330
A
100
AcDbEntity
  8
LAY-1
  6
Continuous
 62
     1
100
AcDbDimension
  2
*D17
 10
331.0
 20
2605.0
 30
0.0
 11
307.0
 21
2305.0
 31
0.0
 70
    32
 71
     5
 42
-1.0
  3
STANDARD
100
AcDbAlignedDimension
 13
459.0
 23
2005.0
 33
0.0
 14
549.0
 24
2605.0
 34
0.0
 50
90.0
100
AcDbRotatedDimension
1001
ACAD
1000
DSTYLE
1002
{
1070
     6
1000
_EX_NORM
1070
     7
1000
_EX_NORM
1070
    41
1040
36.0
1070
    42
1040
18.0
1070
    44
1040
18.0
1070
    73
1070
     0
1070
    74
1070
     0
1070
    75
1070
     1
1070
    76
1070
     0
1070
    77
1070
     1
1070
    78
1070
     8
1070
   140
1040
36.0
1070
   147
1040
6.0
1070
   173
1070
     1
1070
   176
1070
     1
1070
   177
1070
     1
1070
   178
1070
     1
1070
   271
1070
     3
1070
   280
1070
     0
1070
   287
1070
     3
1002
}
  0
DIMENSION
  5
18F
330
A
100
AcDbEntity
  8
LAY-1
  6
Continuous
 62
     1
100
AcDbDimension
  2
*D18
 10
984.810384
 20
1737.0
 30
0.0
 11
1984.328055
 21
2341.78461
 31
0.0
 70
    35
 71
     5
 42
-1.0
  3
STANDARD
100
AcDbDiametricDimension
 15
1913.189616
 25
2273.0
 35
0.0
 40
0.0
1001
ACAD
1000
DSTYLE
1002
{
1070
     6
1000
_EX_NORM
1070
     7
1000
_EX_NORM
1070
    41
1040
36.0
1070
    73
1070
     0
1070
    74
1070
     0
1070
    77
1070
     1
1070
    78
1070
     8
1070
   140
1040
36.0
1070
   147
1040
6.0
1070
   173
1070
     1
1070
   176
1070
     1
1070
   177
1070
     1
1070
   178
1070
     1
1070
   271
1070
     3
1070
   280
1070
     1
1070
   287
1070
     3
1002
}
  0
DIMENSION
  5
19A
330
A
100
AcDbEntity
  8
LAY-1
  6
Continuous
 62
     1
100
AcDbDimension
  2
*D19
 10
756.1796769999999
 20
2405.0
 30
0.0
 11
2236.958761999999
 21
1577.78461
 31
0.0
 70
    35
 71
     5
 42
-1.0
  3
STANDARD
100
AcDbDiametricDimension
 15
2141.820323
 25
1605.0
 35
0.0
 40
0.0
1001
ACAD
1000
DSTYLE
1002
{
1070
     6
1000
_EX_NORM
1070
     7
1000
_EX_NORM
1070
    41
1040
36.0
1070
    73
1070
     0
1070
    74
1070
     0
1070
    77
1070
     1
1070
    78
1070
     8
1070
   140
1040
36.0
1070
   147
1040
6.0
1070
   173
1070
     1
1070
   176
1070
     1
1070
   177
1070
     1
1070
   178
1070
     1
1070
   271
1070
     3
1070
   280
1070
     1
1070
   287
1070
     3
1002
}
  0
DIMENSION
  5
1A5
330
A
100
AcDbEntity
  8
LAY-1
  6
Continuous
 62
     1
100
AcDbDimension
  2
*D20
 10
1274.0
 20
1701.891108999999
 30
0.0
 11
1642.21539
 21
2387.658872999999
 31
0.0
 70
    35
 71
     5
 42
-1.0
  3
STANDARD
100
AcDbDiametricDimension
 15
1624.0
 25
2308.108890999999
 35
0.0
 40
0.0
1001
ACAD
1000
DSTYLE
1002
{
1070
     6
1000
_EX_NORM
1070
     7
1000
_EX_NORM
1070
    41
1040
36.0
1070
    73
1070
     0
1070
    74
1070
     0
1070
    77
1070
     1
1070
    78
1070
     8
1070
   140
1040
36.0
1070
   147
1040
6.0
1070
   173
1070
     1
1070
   176
1070
     1
1070
   177
1070
     1
1070
   178
1070
     1
1070
   271
1070
     3
1070
   280
1070
     1
1070
   287
1070
     3
1002
}
  0
TEXT
  5
1A6
330
A
100
AcDbEntity
  8
LAY-1
  6
Continuous
 62
     1
100
AcDbText
 10
1970.585237657511
 20
2243.253523798248
 30
0.0
 40
36.0
  1
outside DIA.
 50
29.50928640156231
 41
0.5159862688078672
  7
EXCADSTD
 72
     5
 11
2141.942870572233
 21
2340.239674766971
 31
0.0
100
AcDbText
  0
TEXT
  5
1A7
330
A
100
AcDbEntity
  8
LAY-1
  6
Continuous
 62
     1
100
AcDbText
 10
1679.784946036969
 20
2302.699029849018
 30
0.0
 40
36.0
  1
thru
 50
58.80806244532903
 41
0.8807696863452511
  7
EXCADSTD
 72
     5
 11
1739.997599999999
 21
2402.15352
 31
0.0
100
AcDbText
  0
TEXT
  5
1A8
330
A
100
AcDbEntity
  8
LAY-1
  6
Continuous
 62
     1
100
AcDbText
 10
2149.623783967578
 20
1534.594850847131
 30
0.0
 40
36.0
  1
inside DIA.
 50
330.7484929604198
 41
0.5109311739157861
  7
EXCADSTD
 72
     5
 11
2303.684951912654
 21
1448.311128023291
 31
0.0
100
AcDbText
  0
POINT
  5
1A9
330
A
100
AcDbEntity
  8
LAY-1
  6
Continuous
 62
     3
100
AcDbPoint
 10
3035.0
 20
1180.0
 30
0.0
  0
POINT
  5
1AA
330
A
100
AcDbEntity
  8
LAY-1
  6
Continuous
 62
     3
100
AcDbPoint
 10
3385.0
 20
1180.0
 30
0.0
  0
POINT
  5
1AB
330
A
100
AcDbEntity
  8
LAY-1
  6
Continuous
 62
     3
100
AcDbPoint
 10
3735.0
 20
1180.0
 30
0.0
  0
POINT
  5
1AC
330
A
100
AcDbEntity
  8
LAY-1
  6
Continuous
 62
     1
100
AcDbPoint
 10
2940.0
 20
1205.0
 30
0.0
  0
POINT
  5
1AD
330
A
100
AcDbEntity
  8
LAY-1
  6
Continuous
 62
     1
100
AcDbPoint
 10
3830.0
 20
1160.0
 30
0.0
  0
POINT
  5
1AE
330
A
100
AcDbEntity
  8
LAY-1
  6
Continuous
 62
     1
100
AcDbPoint
 10
3440.0
 20
1205.0
 30
0.0
  0
POINT
  5
1AF
330
A
100
AcDbEntity
  8
LAY-1
  6
Continuous
 62
     1
100
AcDbPoint
 10
3830.0
 20
2600.0
 30
0.0
  0
POINT
  5
1B0
330
A
100
AcDbEntity
  8
LAY-1
  6
Continuous
 62
     1
100
AcDbPoint
 10
3440.0
 20
2600.0
 30
0.0
  0
POINT
  5
1B1
330
A
100
AcDbEntity
  8
LAY-1
  6
Continuous
 62
     1
100
AcDbPoint
 10
2344.0
 20
1205.0
 30
0.0
  0
POINT
  5
1B2
330
A
100
AcDbEntity
  8
LAY-1
  6
Continuous
 62
     1
100
AcDbPoint
 10
2344.0
 20
1160.0
 30
0.0
  0
POINT
  5
1B3
330
A
100
AcDbEntity
  8
LAY-1
  6
Continuous
 62
     1
100
AcDbPoint
 10
554.0
 20
1160.0
 30
0.0
  0
POINT
  5
1B4
330
A
100
AcDbEntity
  8
LAY-1
  6
Continuous
 62
     1
100
AcDbPoint
 10
554.0
 20
2600.0
 30
0.0
  0
POINT
  5
1B5
330
A
100
AcDbEntity
  8
LAY-1
  6
Continuous
 62
     1
100
AcDbPoint
 10
2344.0
 20
2600.0
 30
0.0
  0
POINT
  5
1B6
330
A
100
AcDbEntity
  8
LAY-1
  6
Continuous
 62
     1
100
AcDbPoint
 10
1804.0
 20
2555.0
 30
0.0
  0
POINT
  5
1B7
330
A
100
AcDbEntity
  8
LAY-1
  6
Continuous
 62
     1
100
AcDbPoint
 10
1094.0
 20
2555.0
 30
0.0
  0
LINE
  5
1B8
330
A
100
AcDbEntity
  8
LAY-1
  6
DOT
 62
     1
100
AcDbLine
 10
554.0
 20
2600.0
 30
0.0
 11
2344.0
 21
2600.0
 31
0.0
  0
LINE
  5
1B9
330
A
100
AcDbEntity
  8
LAY-1
  6
DOT
 62
     1
100
AcDbLine
 10
2344.0
 20
2600.0
 30
0.0
 11
2344.0
 21
1160.0
 31
0.0
  0
LINE
  5
1BA
330
A
100
AcDbEntity
  8
LAY-1
  6
DOT
 62
     1
100
AcDbLine
 10
2344.0
 20
1160.0
 30
0.0
 11
554.0
 21
1160.0
 31
0.0
  0
LINE
  5
1BB
330
A
100
AcDbEntity
  8
LAY-1
  6
DOT
 62
     1
100
AcDbLine
 10
554.0
 20
1160.0
 30
0.0
 11
554.0
 21
2600.0
 31
0.0
  0
LINE
  5
1BC
330
A
100
AcDbEntity
  8
LAY-1
  6
DOT
 62
     1
100
AcDbLine
 10
1099.0
 20
2555.0
 30
0.0
 11
1099.0
 21
2600.0
 31
0.0
  0
LINE
  5
1BD
330
A
100
AcDbEntity
  8
LAY-1
  6
DOT
 62
     1
100
AcDbLine
 10
1094.0
 20
2555.0
 30
0.0
 11
1094.0
 21
2600.0
 31
0.0
  0
LINE
  5
1BE
330
A
100
AcDbEntity
  8
LAY-1
  6
DOT
 62
     1
100
AcDbLine
 10
1094.0
 20
2555.0
 30
0.0
 11
1094.0
 21
1160.0
 31
0.0
  0
LINE
  5
1BF
330
A
100
AcDbEntity
  8
LAY-1
  6
DOT
 62
     1
100
AcDbLine
 10
1099.0
 20
1205.0
 30
0.0
 11
1099.0
 21
1160.0
 31
0.0
  0
LINE
  5
1C0
330
A
100
AcDbEntity
  8
LAY-1
  6
DOT
 62
     1
100
AcDbLine
 10
1799.0
 20
1205.0
 30
0.0
 11
1799.0
 21
1160.0
 31
0.0
  0
LINE
  5
1C1
330
A
100
AcDbEntity
  8
LAY-1
  6
DOT
 62
     1
100
AcDbLine
 10
1804.0
 20
2555.0
 30
0.0
 11
1804.0
 21
2600.0
 31
0.0
  0
LINE
  5
1C2
330
A
100
AcDbEntity
  8
LAY-1
  6
DOT
 62
     1
100
AcDbLine
 10
1799.0
 20
2555.0
 30
0.0
 11
1799.0
 21
2600.0
 31
0.0
  0
LINE
  5
1C3
330
A
100
AcDbEntity
  8
LAY-1
  6
DOT
 62
     1
100
AcDbLine
 10
1804.0
 20
2555.0
 30
0.0
 11
1804.0
 21
1160.0
 31
0.0
  0
LINE
  5
1C4
330
A
100
AcDbEntity
  8
LAY-1
  6
DOT
 62
     1
100
AcDbLine
 10
2940.0
 20
1205.0
 30
0.0
 11
2940.0
 21
1160.0
 31
0.0
  0
LINE
  5
1C5
330
A
100
AcDbEntity
  8
LAY-1
  6
DOT
 62
     1
100
AcDbLine
 10
2940.0
 20
1160.0
 30
0.0
 11
3830.0
 21
1160.0
 31
0.0
  0
LINE
  5
1C6
330
A
100
AcDbEntity
  8
LAY-1
  6
DOT
 62
     1
100
AcDbLine
 10
3830.0
 20
1160.0
 30
0.0
 11
3830.0
 21
2600.0
 31
0.0
  0
LINE
  5
1C7
330
A
100
AcDbEntity
  8
LAY-1
  6
DOT
 62
     1
100
AcDbLine
 10
3830.0
 20
2600.0
 30
0.0
 11
3440.0
 21
2600.0
 31
0.0
  0
LINE
  5
1C8
330
A
100
AcDbEntity
  8
LAY-1
  6
DOT
 62
     1
100
AcDbLine
 10
3440.0
 20
2600.0
 30
0.0
 11
3440.0
 21
1160.0
 31
0.0
  0
LINE
  5
1C9
330
A
100
AcDbEntity
  8
LAY-1
  6
DOT
 62
     1
100
AcDbLine
 10
3435.0
 20
1205.0
 30
0.0
 11
3435.0
 21
1160.0
 31
0.0
  0
DIMENSION
  5
1D3
330
A
100
AcDbEntity
  8
LAY-1
  6
Continuous
 62
     1
100
AcDbDimension
  2
*D21
 10
3035.0
 20
931.0
 30
0.0
 11
2985.0
 21
955.0
 31
0.0
 70
    32
 71
     5
 42
-1.0
  3
STANDARD
100
AcDbAlignedDimension
 13
2935.0
 23
1155.0
 33
0.0
 14
3035.0
 24
1180.0
 34
0.0
100
AcDbRotatedDimension
1001
ACAD
1000
DSTYLE
1002
{
1070
     6
1000
_EX_NORM
1070
     7
1000
_EX_NONE
1070
    41
1040
36.0
1070
    42
1040
18.0
1070
    44
1040
18.0
1070
    73
1070
     0
1070
    74
1070
     0
1070
    75
1070
     0
1070
    76
1070
     0
1070
    77
1070
     1
1070
    78
1070
     8
1070
   140
1040
36.0
1070
   147
1040
6.0
1070
   173
1070
     1
1070
   176
1070
     1
1070
   177
1070
     1
1070
   178
1070
     1
1070
   271
1070
     3
1070
   280
1070
     0
1070
   287
1070
     3
1002
}
  0
DIMENSION
  5
1DE
330
A
100
AcDbEntity
  8
LAY-1
  6
Continuous
 62
     1
100
AcDbDimension
  2
*D22
 10
3385.0
 20
931.0
 30
0.0
 11
3210.0
 21
955.0
 31
0.0
 70
    32
 71
     5
 42
-1.0
  3
STANDARD
100
AcDbAlignedDimension
 13
3035.0
 23
1180.0
 33
0.0
 14
3385.0
 24
1180.0
 34
0.0
100
AcDbRotatedDimension
1001
ACAD
1000
DSTYLE
1002
{
1070
     6
1000
_EX_NORM
1070
     7
1000
_EX_NORM
1070
    41
1040
36.0
1070
    42
1040
18.0
1070
    44
1040
18.0
1070
    73
1070
     0
1070
    74
1070
     0
1070
    75
1070
     1
1070
    76
1070
     0
1070
    77
1070
     1
1070
    78
1070
     8
1070
   140
1040
36.0
1070
   147
1040
6.0
1070
   173
1070
     1
1070
   176
1070
     1
1070
   177
1070
     1
1070
   178
1070
     1
1070
   271
1070
     3
1070
   280
1070
     0
1070
   287
1070
     3
1002
}
  0
DIMENSION
  5
1E9
330
A
100
AcDbEntity
  8
LAY-1
  6
Continuous
 62
     1
100
AcDbDimension
  2
*D23
 10
3735.0
 20
931.0
 30
0.0
 11
3560.0
 21
955.0
 31
0.0
 70
    32
 71
     5
 42
-1.0
  3
STANDARD
100
AcDbAlignedDimension
 13
3385.0
 23
1180.0
 33
0.0
 14
3735.0
 24
1180.0
 34
0.0
100
AcDbRotatedDimension
1001
ACAD
1000
DSTYLE
1002
{
1070
     6
1000
_EX_NORM
1070
     7
1000
_EX_NORM
1070
    41
1040
36.0
1070
    42
1040
18.0
1070
    44
1040
18.0
1070
    73
1070
     0
1070
    74
1070
     0
1070
    75
1070
     1
1070
    76
1070
     0
1070
    77
1070
     1
1070
    78
1070
     8
1070
   140
1040
36.0
1070
   147
1040
6.0
1070
   173
1070
     1
1070
   176
1070
     1
1070
   177
1070
     1
1070
   178
1070
     1
1070
   271
1070
     3
1070
   280
1070
     0
1070
   287
1070
     3
1002
}
  0
DIMENSION
  5
1F2
330
A
100
AcDbEntity
  8
LAY-1
  6
Continuous
 62
     1
100
AcDbDimension
  2
*D24
 10
3835.0
 20
931.0
 30
0.0
 11
3785.0
 21
955.0
 31
0.0
 70
    32
 71
     5
 42
-1.0
  3
STANDARD
100
AcDbAlignedDimension
 13
3735.0
 23
1180.0
 33
0.0
 14
3835.0
 24
1155.0
 34
0.0
100
AcDbRotatedDimension
1001
ACAD
1000
DSTYLE
1002
{
1070
     6
1000
_EX_NONE
1070
     7
1000
_EX_NORM
1070
    41
1040
0.0
1070
    42
1040
18.0
1070
    44
1040
18.0
1070
    73
1070
     0
1070
    74
1070
     0
1070
    75
1070
     1
1070
    76
1070
     0
1070
    77
1070
     1
1070
    78
1070
     8
1070
   140
1040
36.0
1070
   147
1040
6.0
1070
   173
1070
     1
1070
   176
1070
     1
1070
   177
1070
     1
1070
   178
1070
     1
1070
   271
1070
     3
1070
   280
1070
     0
1070
   287
1070
     3
1002
}
  0
DIMENSION
  5
1FE
330
A
100
AcDbEntity
  8
LAY-1
  6
Continuous
 62
     1
100
AcDbDimension
  2
*D25
 10
2721.0
 20
1205.0
 30
0.0
 11
2697.0
 21
1083.0
 31
0.0
 70
    32
 71
     5
 42
-1.0
  3
STANDARD
100
AcDbAlignedDimension
 13
2935.0
 23
1155.0
 33
0.0
 14
2935.0
 24
1205.0
 34
0.0
 50
90.0
100
AcDbRotatedDimension
1001
ACAD
1000
DSTYLE
1002
{
1070
     6
1000
_EX_NORM
1070
     7
1000
_EX_NORM
1070
    41
1040
36.0
1070
    42
1040
18.0
1070
    44
1040
18.0
1070
    73
1070
     0
1070
    74
1070
     0
1070
    75
1070
     0
1070
    76
1070
     0
1070
    77
1070
     1
1070
    78
1070
     8
1070
   140
1040
36.0
1070
   147
1040
6.0
1070
   173
1070
     1
1070
   176
1070
     1
1070
   177
1070
     1
1070
   178
1070
     1
1070
   271
1070
     3
1070
   280
1070
     1
1070
   287
1070
     3
1002
}
  0
DIMENSION
  5
20A
330
A
100
AcDbEntity
  8
LAY-1
  6
Continuous
 62
     1
100
AcDbDimension
  2
*D26
 10
2823.0
 20
1180.0
 30
0.0
 11
2799.0
 21
1083.0
 31
0.0
 70
    32
 71
     5
 42
-1.0
  3
STANDARD
100
AcDbAlignedDimension
 13
2935.0
 23
1155.0
 33
0.0
 14
3035.0
 24
1180.0
 34
0.0
 50
90.0
100
AcDbRotatedDimension
1001
ACAD
1000
DSTYLE
1002
{
1070
     6
1000
_EX_NORM
1070
     7
1000
_EX_NORM
1070
    41
1040
36.0
1070
    42
1040
18.0
1070
    44
1040
18.0
1070
    73
1070
     0
1070
    74
1070
     0
1070
    75
1070
     0
1070
    76
1070
     0
1070
    77
1070
     1
1070
    78
1070
     8
1070
   140
1040
36.0
1070
   147
1040
6.0
1070
   173
1070
     1
1070
   176
1070
     1
1070
   177
1070
     1
1070
   178
1070
     1
1070
   271
1070
     3
1070
   280
1070
     1
1070
   287
1070
     3
1002
}
  0
CIRCLE
  5
20B
330
A
100
AcDbEntity
  8
LAY-1
  6
Continuous
 62
     3
100
AcDbCircle
 10
3035.0
 20
1180.0
 30
0.0
 40
6.0
  0
CIRCLE
  5
20C
330
A
100
AcDbEntity
  8
LAY-1
  6
Continuous
 62
     3
100
AcDbCircle
 10
3385.0
 20
1180.0
 30
0.0
 40
6.0
  0
CIRCLE
  5
20D
330
A
100
AcDbEntity
  8
LAY-1
  6
Continuous
 62
     3
100
AcDbCircle
 10
3735.0
 20
1180.0
 30
0.0
 40
6.0
  0
TEXT
  5
20E
330
A
100
AcDbEntity
  8
LAY-1
  6
Continuous
 62
     1
100
AcDbText
 10
208.7656757292751
 20
907.9578910338296
 30
0.0
 40
36.0
  1
1.6ｔ base board
 50
0.0344309001797455
 41
0.7967900634393338
  7
EXCADSTD
 72
     5
 11
612.260091
 21
908.2003639999999
 31
0.0
100
AcDbText
  0
LEADER
  5
20F
330
A
100
AcDbEntity
  8
LAY-1
  6
Continuous
 62
     1
100
AcDbLeader
  3
STANDARD
 76
     3
 10
757.0
 20
1266.0
 30
0.0
 10
659.5201809999998
 20
902.2003640000001
 30
0.0
 10
162.8170792495875
 20
902.2003640000001
 30
0.0
1001
ACAD
1000
DSTYLE
1002
{
1070
    41
1040
36.0
1070
     5
1000
_EX_NORM
1070
     6
1000
_EX_NORM
1070
     7
1000
_EX_NORM
1002
}
  0
TEXT
  5
210
330
A
100
AcDbEntity
  8
LAY-1
  6
Continuous
 62
     1
100
AcDbText
 10
2232.517327
 20
968.163601
 30
0.0
 40
36.0
  1
1.6ｔ
 41
1.111111111111111
  7
EXCADSTD
 72
     5
 11
2376.517327
 21
968.163601
 31
0.0
100
AcDbText
  0
LEADER
  5
211
330
A
100
AcDbEntity
  8
LAY-1
  6
Continuous
 62
     1
100
AcDbLeader
  3
STANDARD
 76
     3
 10
1929.318824
 20
1365.239242
 30
0.0
 10
2162.034654
 20
962.1636009999999
 30
0.0
 10
2447.0
 20
962.1636009999999
 30
0.0
1001
ACAD
1000
DSTYLE
1002
{
1070
    41
1040
36.0
1070
     5
1000
_EX_NORM
1070
     6
1000
_EX_NORM
1070
     7
1000
_EX_NORM
1002
}
  0
TEXT
  5
212
330
A
100
AcDbEntity
  8
LAY-1
  6
Continuous
 62
     1
100
AcDbText
 10
1828.283005
 20
768.792678
 30
0.0
 40
36.0
  1
1.6ｔ
 41
1.111111111111104
  7
EXCADSTD
 72
     5
 11
1972.283004999999
 21
768.792678
 31
0.0
100
AcDbText
  0
LEADER
  5
213
330
A
100
AcDbEntity
  8
LAY-1
  6
Continuous
 62
     1
100
AcDbLeader
  3
STANDARD
 76
     3
 10
1558.31948
 20
1480.266494999999
 30
0.0
 10
1750.56601
 20
762.792678
 30
0.0
 10
2050.0
 20
762.792678
 30
0.0
1001
ACAD
1000
DSTYLE
1002
{
1070
    41
1040
36.0
1070
     5
1000
_EX_NORM
1070
     6
1000
_EX_NORM
1070
     7
1000
_EX_NORM
1002
}
  0
DIMENSION
  5
223
330
A
100
AcDbEntity
  8
LAY-1
  6
Continuous
 62
     1
100
AcDbDimension
  2
*D27
 10
1194.898981
 20
1518.17813
 30
0.0
 11
1189.316457
 21
1590.072743
 31
0.0
 70
    33
 71
     5
 42
-1.0
  3
STANDARD
100
AcDbAlignedDimension
 13
1345.472382
 23
1618.629668999999
 33
0.0
 14
1310.272992
 24
1487.263757
 34
0.0
1001
ACAD
1000
DSTYLE
1002
{
1070
     6
1000
_EX_NORM
1070
     7
1000
_EX_NORM
1070
    41
1040
36.0
1070
    42
1040
18.0
1070
    44
1040
18.0
1070
    73
1070
     0
1070
    74
1070
     0
1070
    75
1070
     0
1070
    76
1070
     0
1070
    77
1070
     1
1070
    78
1070
     8
1070
   140
1040
36.0
1070
   147
1040
6.0
1070
   173
1070
     1
1070
   176
1070
     1
1070
   177
1070
     1
1070
   178
1070
     1
1070
   271
1070
     3
1070
   280
1070
     0
1070
   287
1070
     3
1002
}
  0
DIMENSION
  5
22F
330
A
100
AcDbEntity
  8
LAY-1
  6
Continuous
 62
     1
100
AcDbDimension
  2
*D28
 10
719.103897
 20
1462.103897
 30
0.0
 11
737.488673
 21
1514.429799
 31
0.0
 70
    33
 71
     5
 42
-1.0
  3
STANDARD
100
AcDbAlignedDimension
 13
883.3145749999996
 23
1439.314575
 33
0.0
 14
812.6038969999997
 24
1368.603897
 34
0.0
1001
ACAD
1000
DSTYLE
1002
{
1070
     6
1000
_EX_NORM
1070
     7
1000
_EX_NORM
1070
    41
1040
36.0
1070
    42
1040
18.0
1070
    44
1040
18.0
1070
    73
1070
     0
1070
    74
1070
     0
1070
    75
1070
     0
1070
    76
1070
     0
1070
    77
1070
     1
1070
    78
1070
     8
1070
   140
1040
36.0
1070
   147
1040
6.0
1070
   173
1070
     1
1070
   176
1070
     1
1070
   177
1070
     1
1070
   178
1070
     1
1070
   271
1070
     3
1070
   280
1070
     0
1070
   287
1070
     3
1002
}
  0
TEXT
  5
230
330
A
100
AcDbEntity
  8
LAY-1
  6
Continuous
 62
     1
100
AcDbText
 10
2691.75
 20
2882.5
 30
0.0
 40
36.0
  1
R100
 41
1.090909090909091
  7
EXCADSTD
 72
     5
 11
2835.75
 21
2882.5
 31
0.0
100
AcDbText
  0
LEADER
  5
231
330
A
100
AcDbEntity
  8
LAY-1
  6
Continuous
 62
     1
100
AcDbLeader
  3
STANDARD
 76
     3
 10
3135.0
 20
2605.0
 30
0.0
 10
2863.5
 20
2876.5
 30
0.0
 10
2664.0
 20
2876.5
 30
0.0
1001
ACAD
1000
DSTYLE
1002
{
1070
    41
1040
36.0
1070
     5
1000
_EX_NORM
1070
     6
1000
_EX_NORM
1070
     7
1000
_EX_NORM
1002
}
  0
TEXT
  5
232
330
A
100
AcDbEntity
  8
LAY-1
  6
Continuous
 62
     1
100
AcDbText
 10
4009.166025
 20
949.3320499999999
 30
0.0
 40
36.0
  1
2*3 - φ12 thru ( both side )
 50
0.1247292629103541
 41
0.7236647815525386
  7
EXCADSTD
 72
     5
 11
4653.515619688342
 21
950.734760245734
 31
0.0
100
AcDbText
  0
LEADER
  5
233
330
A
100
AcDbEntity
  8
LAY-1
  6
Continuous
 62
     1
100
AcDbLeader
  3
STANDARD
 76
     3
 10
3739.992302
 20
1176.671798999997
 30
0.0
 10
3973.332049999998
 20
943.33205
 30
0.0
 10
4683.310429948826
 20
943.33205
 30
0.0
1001
ACAD
1000
DSTYLE
1002
{
1070
    41
1040
36.0
1070
     5
1000
_EX_NORM
1070
     6
1000
_EX_NORM
1070
     7
1000
_EX_NORM
1002
}
  0
TEXT
  5
234
330
A
100
AcDbEntity
  8
LAY-1
  6
Continuous
 62
     1
100
AcDbText
 10
2242.0
 20
905.0
 30
0.0
 40
36.0
  1
outer ring
 41
0.7370498335168965
  7
EXCADSTD
 72
     5
 11
2487.879824461237
 21
905.0
 31
0.0
100
AcDbText
  0
TEXT
  5
235
330
A
100
AcDbEntity
  8
LAY-1
  6
Continuous
 62
     1
100
AcDbText
 10
1838.0
 20
710.0
 30
0.0
 40
36.0
  1
inner ring
 41
0.7883750633482054
  7
EXCADSTD
 72
     5
 11
2101.001921132961
 21
710.0
 31
0.0
100
AcDbText
  0
TEXT
  5
23D
330
A
100
AcDbEntity
  8
LAY-1
  6
Continuous
 62
     1
100
AcDbText
 10
3931.632846160795
 20
2419.240429617546
 30
0.0
 40
60.0
  1
4t*50 use L-angle
 41
0.8193277310924365
  7
EXCADSTD
 72
     5
 11
4711.632846160795
 21
2419.240429617546
 31
0.0
100
AcDbText
  0
TEXT
  5
23E
330
A
100
AcDbEntity
  8
LAY-1
  6
Continuous
 62
     1
100
AcDbText
 10
627.1170333057161
 20
578.4842722085921
 30
0.0
 40
60.0
  1
outer ring 1.6t width=300  angle 277 degrees
 41
0.5898249428228591
  7
EXCADSTD
 72
     5
 11
2073.367793107368
 21
578.4842722085921
 31
0.0
100
AcDbText
  0
TEXT
  5
23F
330
A
100
AcDbEntity
  8
LAY-1
  6
Continuous
 62
     1
100
AcDbText
 10
621.117033305716
 20
478.4842722085922
 30
0.0
 40
60.0
  1
inner ring 1.6t width=500
 41
0.596590909090909
  7
EXCADSTD
 72
     5
 11
1461.117033305716
 21
478.4842722085922
 31
0.0
100
AcDbText
  0
MTEXT
  5
27D
330
A
100
AcDbEntity
  8
LAY-1
  6
Continuous
100
AcDbMText
 10
1478.293792724609
 20
275.4164652824401
 30
0.0
 40
36.0
 41
1356.5984
 71
     1
 72
     5
  1
105-219-305   inner ring support
 73
     1
 44
1.0
  0
MTEXT
  5
27E
330
A
100
AcDbEntity
  8
LAY-1
  6
Continuous
100
AcDbMText
 10
1476.71270751953
 20
216.4780793190002
 30
0.0
 40
36.0
 41
1356.5984
 71
     1
 72
     5
  1
105-219-306   outer ring support
 73
     1
 44
1.0
  0
LINE
  5
27F
330
A
100
AcDbEntity
  8
LAY-1
  6
Continuous
100
AcDbLine
 10
2831.999985771668
 20
292.0001841632462
 30
0.0
 11
831.9999857716684
 21
292.0001841632462
 31
0.0
  0
LINE
  5
280
330
A
100
AcDbEntity
  8
LAY-1
  6
Continuous
100
AcDbLine
 10
2831.999985771668
 20
232.000184163246
 30
0.0
 11
831.9999857716684
 21
232.000184163246
 31
0.0
  0
LINE
  5
281
330
A
100
AcDbEntity
  8
LAY-1
  6
Continuous
100
AcDbLine
 10
2831.999985771668
 20
172.0001841632464
 30
0.0
 11
831.9999857716684
 21
172.0001841632464
 31
0.0
  0
MTEXT
  5
282
330
A
100
AcDbEntity
  8
LAY-1
  6
Continuous
100
AcDbMText
 10
151.3471369565249
 20
367.1794976536837
 30
0.0
 40
40.0
 41
1153.467721254726
 71
     1
 72
     5
  1
MATERIAL : BRASS (SUS304)
 73
     1
 44
1.0
  0
LINE
  5
284
330
A
100
AcDbEntity
  8
LAY-1
  6
Continuous
370
   100
100
AcDbLine
 10
831.9999857716684
 20
292.0001841632462
 30
0.0
 11
831.9999857716684
 21
92.00013199999999
 31
0.0
  0
MTEXT
  5
285
330
A
100
AcDbEntity
  8
LAY-1
  6
Continuous
100
AcDbMText
 10
1206.532287597656
 20
164.994776725769
 30
0.0
 40
24.0
 41
178.9649999999999
 71
     1
 72
     5
  1
NUMBER\P{\fMS UI Gothic|b0|i0|c0|p17;REQD}
 73
     1
 44
1.0
  0
MTEXT
  5
286
330
A
100
AcDbEntity
  8
LAY-1
  6
Continuous
100
AcDbMText
 10
1255.140014648437
 20
218.0118660926817
 30
0.0
 40
40.0
 41
99.425
 71
     1
 72
     5
  1
10
 73
     1
 44
1.0
  0
MTEXT
  5
287
330
A
100
AcDbEntity
  8
LAY-1
  6
Continuous
100
AcDbMText
 10
903.8385009765624
 20
165.0229887962341
 30
0.0
 40
24.0
 41
178.9649225917726
 71
     1
 72
     5
  1
ITEM\PNUMBER
 73
     1
 44
1.0
  0
MTEXT
  5
288
330
A
100
AcDbEntity
  8
LAY-1
  6
Continuous
100
AcDbMText
 10
950.2368164062501
 20
218.0118737220764
 30
0.0
 40
40.0
 41
99.425
 71
     1
 72
     5
  1
1
 73
     1
 44
1.0
  0
MTEXT
  5
289
330
A
100
AcDbEntity
  8
LAY-1
  6
Continuous
100
AcDbMText
 10
950.2368164062501
 20
282.0400762557981
 30
0.0
 40
40.0
 41
99.425
 71
     1
 72
     5
  1
2
 73
     1
 44
1.0
  0
LINE
  5
28A
330
A
100
AcDbEntity
  8
LAY-1
  6
Continuous
100
AcDbLine
 10
1131.999985771668
 20
292.0001841632462
 30
0.0
 11
1131.999985771668
 21
92.00013199999999
 31
0.0
  0
LINE
  5
28B
330
A
100
AcDbEntity
  8
LAY-1
  6
Continuous
100
AcDbLine
 10
1431.999985771668
 20
292.0001841632462
 30
0.0
 11
1431.999985771668
 21
92.00013199999999
 31
0.0
  0
MTEXT
  5
28C
330
A
100
AcDbEntity
  8
LAY-1
  6
Continuous
100
AcDbMText
 10
1257.349426269531
 20
279.8322114944458
 30
0.0
 40
40.0
 41
99.425
 71
     1
 72
     5
  1
12
 73
     1
 44
1.0
  0
MTEXT
  5
28D
330
A
100
AcDbEntity
  8
LAY-1
  6
Continuous
100
AcDbMText
 10
1918.196014404296
 20
142.1635680198669
 30
0.0
 40
24.0
 41
397.4769999999998
 71
     1
 72
     5
  1
{\fMS UI Gothic|b0|i0|c0|p17;DESCRIPTION}
 73
     1
 44
1.0
  0
MTEXT
  5
28E
330
A
100
AcDbEntity
  8
LAY-1
  6
Continuous
100
AcDbMText
 10
3651.423980712891
 20
318.1815319061279
 30
0.0
 40
36.0
 41
400.0
 71
     1
 72
     5
  1
PHENIX\PDRAWUNG NO.
 73
     1
 44
1.0
  0
MTEXT
  5
28F
330
A
100
AcDbEntity
  8
LAY-1
  6
Continuous
100
AcDbMText
 10
3650.572387695312
 20
162.3499951362608
 30
0.0
 40
36.0
 41
382.7681999999996
 71
     1
 72
     5
  1
DRAWING NO.
 73
     1
 44
1.0
  0
LINE
  5
290
330
A
100
AcDbEntity
  8
LAY-1
  6
Continuous
370
   100
100
AcDbLine
 10
4831.999995257223
 20
212.0002639999998
 30
0.0
 11
2831.999995257222
 21
212.0001849537096
 31
0.0
210
0.0
220
0.0
230
-1.0
  0
LINE
  5
291
330
A
100
AcDbEntity
  8
LAY-1
  6
Continuous
370
   100
100
AcDbLine
 10
4831.999990514443
 20
332.000263999999
 30
0.0
 11
2831.999990514446
 21
332.0001849537093
 31
0.0
210
0.0
220
0.0
230
-1.0
  0
LINE
  5
292
330
A
100
AcDbEntity
  8
LAY-1
  6
Continuous
370
   100
100
AcDbLine
 10
4831.999985771669
 20
452.0002639999994
 30
0.0
 11
2831.999985771668
 21
452.0001849537094
 31
0.0
210
0.0
220
0.0
230
-1.0
  0
MTEXT
  5
293
330
A
100
AcDbEntity
  8
LAY-1
  6
Continuous
100
AcDbMText
 10
3080.387023925781
 20
434.6944408416748
 30
0.0
 40
40.0
 41
159.4785999999999
 71
     1
 72
     5
  1
{\fArial|b1|i1|c0|p34;mm}
 73
     1
 44
1.0
  0
MTEXT
  5
294
330
A
100
AcDbEntity
  8
LAY-1
  6
Continuous
100
AcDbMText
 10
3043.994262695312
 20
364.5583844184875
 30
0.0
 40
20.0
 41
159.4785999999999
 71
     1
 72
     5
  1
{\fArial|b0|i0|c0|p34;MILLIMETERS}
 73
     1
 44
1.0
  0
MTEXT
  5
295
330
A
100
AcDbEntity
  8
LAY-1
  6
Continuous
100
AcDbMText
 10
2859.850219726562
 20
194.3478212356565
 30
0.0
 40
30.0
 41
773.9385999999996
 71
     1
 72
     5
  1
{\fArial|b0|i0|c0|p34;JUL 31 2001\P\fArial|b1|i0|c0|p34;\H1.2x;CI \fMS UI Gothic|b1|i0|c0|p17; \fArial|b1|i0|c0|p34;INDUSTRIES, LTD. (JAPAN)}
 73
     1
 44
1.0
  0
MTEXT
  5
296
330
A
100
AcDbEntity
  8
LAY-1
  6
Continuous
100
AcDbMText
 10
2913.102874755859
 20
325.6107897758484
 30
0.0
 40
36.0
 41
670.9833857463942
 71
     1
 72
     5
  1
{\fArial|b1|i0|c0|p34;PHENIX TOC IN TSUKUBA\P\fArial|b0|i0|c0|p34;\H0.6667x;Dept. of Physics , Tsukuba Univ.  Japan}
 73
     1
 44
1.0
  0
LINE
  5
297
330
A
100
AcDbEntity
  8
LAY-1
  6
Continuous
370
   100
100
AcDbLine
 10
3031.999985771668
 20
452.0001928583381
 30
0.0
 11
3031.999990514444
 21
332.000192858338
 31
0.0
210
0.0
220
0.0
230
-1.0
  0
LINE
  5
298
330
A
100
AcDbEntity
  8
LAY-1
  6
Continuous
370
   100
100
AcDbLine
 10
2831.999985771668
 20
452.0001849537091
 30
0.0
 11
2832.0
 21
92.00018495370954
 31
0.0
210
0.0
220
0.0
230
-1.0
  0
MTEXT
  5
299
330
A
100
AcDbEntity
  8
LAY-1
  6
Continuous
100
AcDbMText
 10
2854.325103759765
 20
410.3491086959839
 30
0.0
 40
40.0
 41
159.4785280490333
 71
     1
 72
     5
  1
UNIT
 73
     1
 44
1.0
  0
MTEXT
  5
29A
330
A
100
AcDbEntity
  8
LAY-1
  6
Continuous
100
AcDbMText
 10
3487.286224365234
 20
408.6955299377441
 30
0.0
 40
40.0
 41
159.4786
 71
     1
 72
     5
  1
{\fArial|b1|i0|c0|p34;1:12}
 73
     1
 44
1.0
  0
LINE
  5
29B
330
A
100
AcDbEntity
  8
LAY-1
  6
Continuous
370
   100
100
AcDbLine
 10
3431.999985771668
 20
452.0002086675956
 30
0.0
 11
3431.999990514443
 21
332.0002086675961
 31
0.0
210
0.0
220
0.0
230
-1.0
  0
LINE
  5
29C
330
A
100
AcDbEntity
  8
LAY-1
  6
Continuous
370
   100
100
AcDbLine
 10
3231.999985771668
 20
452.0002007629669
 30
0.0
 11
3231.999990514444
 21
332.0002007629672
 31
0.0
210
0.0
220
0.0
230
-1.0
  0
MTEXT
  5
29D
330
A
100
AcDbEntity
  8
LAY-1
  6
Continuous
100
AcDbMText
 10
3247.596923828125
 20
413.8167853355406
 30
0.0
 40
40.0
 41
199.9999999467519
 71
     1
 72
     5
  1
{\fMS UI Gothic|b0|i0|c0|p17;SCALE}
 73
     1
 44
1.0
  0
LINE
  5
29E
330
A
100
AcDbEntity
  8
LAY-1
  6
Continuous
370
   100
100
AcDbLine
 10
3631.999985771669
 20
452.0002165722252
 30
0.0
 11
3631.999985771669
 21
92.00013199999999
 31
0.0
210
0.0
220
0.0
230
-1.0
  0
MTEXT
  5
29F
330
A
100
AcDbEntity
  8
LAY-1
  6
Continuous
100
AcDbMText
 10
3704.586242675781
 20
411.0268807411193
 30
0.0
 40
40.0
 41
400.0
 71
     1
 72
     5
  1
TITLE
 73
     1
 44
1.0
  0
MTEXT
  5
2A0
330
A
100
AcDbEntity
  8
LAY-1
  6
Continuous
100
AcDbMText
 10
4042.041348034721
 20
427.8725571632385
 30
0.0
 40
60.0
 41
795.9010337650619
 71
     1
 72
     5
  1
{\fArial|b1|i0|c0|p34;nosecone mockup}
 73
     1
 44
1.0
  0
MTEXT
  5
2A1
330
A
100
AcDbEntity
  8
LAY-1
  6
Continuous
100
AcDbMText
 10
4177.356262207031
 20
307.2525300979613
 30
0.0
 40
60.0
 41
559.0285999999998
 71
     1
 72
     5
  1
{\fArial|b1|i0|c0|p34;105-219-303}
 73
     1
 44
1.0
  0
LINE
  5
2A2
330
A
100
AcDbEntity
  8
LAY-1
  6
Continuous
100
AcDbLine
 10
4031.999985771668
 20
452.0002165722252
 30
0.0
 11
4031.999985771668
 21
92.00013199999999
 31
0.0
210
0.0
220
0.0
230
-1.0
  0
MTEXT
  5
2A3
330
A
100
AcDbEntity
  8
LAY-1
  6
Continuous
100
AcDbMText
 10
4301.239715576172
 20
170.3310675621031
 30
0.0
 40
40.0
 41
215.7442
 71
     1
 72
     5
  1
032
 73
     1
 44
1.0
  0
LEADER
  5
2A4
330
A
100
AcDbEntity
  8
LAY-1
  6
Continuous
 62
     1
100
AcDbLeader
  3
STANDARD
 73
     0
 40
0.18
 76
     3
 10
3803.26469577737
 20
2182.531208313581
 30
0.0
 10
3913.801235622237
 20
2392.401028258848
 30
0.0
 10
4737.298494918847
 20
2392.401028258848
 30
0.0
340
2A5
213
0.0
223
-0.09
233
0.0
1001
ACAD
1000
DSTYLE
1002
{
1070
   341
1005
0
1070
   176
1070
     1
1070
    41
1040
500.0
1070
   147
1040
0.09
1070
    77
1070
     0
1002
}
  0
MTEXT
  5
2A5
102
{ACAD_REACTORS
330
2A4
102
}
330
A
100
AcDbEntity
  8
LAY-1
  6
Continuous
100
AcDbMText
 10
4737.388494918847
 20
2392.49102825885
 30
0.0
 40
0.18
 41
0.0
 71
     1
 72
     1
  1

 73
     1
 44
1.0
  0
MTEXT
  5
2BD
330
A
100
AcDbEntity
  8
LAY-1
  6
Continuous
100
AcDbMText
 10
922.7882108551565
 20
2791.003278676071
 30
0.0
 40
40.0
 41
35.7229
 71
     1
 72
     5
  1
2
 73
     1
 44
1.0
  0
CIRCLE
  5
2BE
330
A
100
AcDbEntity
  8
LAY-1
  6
Continuous
100
AcDbCircle
 10
940.2363510922553
 20
2773.567568284823
 30
0.0
 40
58.16046745698987
  0
LEADER
  5
2BF
330
A
100
AcDbEntity
  8
LAY-1
  6
Continuous
100
AcDbLeader
  3
STANDARD
 40
40.0
 41
20.0
 76
     3
 10
1316.092912114369
 20
2458.735766081969
 30
0.0
 10
1061.76274551689
 20
2773.567568284823
 30
0.0
 10
998.3968185492447
 20
2773.567568284823
 30
0.0
213
0.0
223
-20.0
233
0.0
1001
ACAD
1000
DSTYLE
1002
{
1070
   147
1040
0.09
1070
    77
1070
     0
1002
}
  0
MTEXT
  5
2C7
330
A
100
AcDbEntity
  8
LAY-1
  6
Continuous
100
AcDbMText
 10
2453.850968823366
 20
2398.844371288461
 30
0.0
 40
40.0
 41
35.7229
 71
     1
 72
     5
  1
1
 73
     1
 44
1.0
  0
CIRCLE
  5
2C8
330
A
100
AcDbEntity
  8
LAY-1
  6
Continuous
100
AcDbCircle
 10
2471.299109060463
 20
2381.408660897214
 30
0.0
 40
58.16046745698987
  0
LEADER
  5
2C9
330
A
100
AcDbEntity
  8
LAY-1
  6
Continuous
100
AcDbLeader
  3
STANDARD
 40
40.0
 41
20.0
 76
     3
 10
2247.381316744942
 20
2230.299169446074
 30
0.0
 10
2375.334337756432
 20
2381.408660897214
 30
0.0
 10
2413.138641603474
 20
2381.408660897214
 30
0.0
213
0.0
223
-20.0
233
0.0
1001
ACAD
1000
DSTYLE
1002
{
1070
   147
1040
0.09
1070
    77
1070
     0
1002
}
  0
ENDSEC
  0
SECTION
  2
OBJECTS
  0
DICTIONARY
  5
19
330
0
100
AcDbDictionary
281
     1
  3
ACAD_GROUP
350
1A
  3
ACAD_LAYOUT
350
248
  3
ACAD_MLINESTYLE
350
1B
  3
ACAD_PLOTSETTINGS
350
249
  3
ACAD_PLOTSTYLENAME
350
246
  3
ASE_INDEX_DICTIONARY
350
2CB
  0
DICTIONARY
  5
1A
102
{ACAD_REACTORS
330
19
102
}
330
19
100
AcDbDictionary
281
     1
  0
DICTIONARY
  5
248
102
{ACAD_REACTORS
330
19
102
}
330
19
100
AcDbDictionary
281
     1
  3
Model
350
24A
  3
ﾚｲｱｳﾄ1
350
24B
  0
DICTIONARY
  5
1B
102
{ACAD_REACTORS
330
19
102
}
330
19
100
AcDbDictionary
281
     1
  3
STANDARD
350
1C
  0
DICTIONARY
  5
249
102
{ACAD_REACTORS
330
19
102
}
330
19
100
AcDbDictionary
281
     1
  0
ACDBDICTIONARYWDFLT
  5
246
102
{ACAD_REACTORS
330
19
102
}
330
19
100
AcDbDictionary
281
     1
  3
Normal
350
247
100
AcDbDictionaryWithDefault
340
247
  0
DICTIONARY
  5
2CB
102
{ACAD_REACTORS
330
19
102
}
330
19
100
AcDbDictionary
281
     1
  3
ASEBlockHierarchyIndexRecord
350
2CD
1001
DCO15
1040
1413152118.015
  0
LAYOUT
  5
24A
102
{ACAD_REACTORS
330
248
102
}
330
248
100
AcDbPlotSettings
  1

  2
Tektronix Phaser 850DP
  4

  6

 40
0.0
 41
0.0
 42
0.0
 43
0.0
 44
0.0
 45
0.0
 46
0.0
 47
0.0
 48
0.0
 49
0.0
140
0.0
141
0.0
142
1.0
143
1.0
 70
  1712
 72
     0
 73
     0
 74
     0
  7

 75
     0
147
1.0
148
0.0
149
0.0
100
AcDbLayout
  1
Model
 70
     1
 71
     0
 10
0.0
 20
0.0
 11
12.0
 21
9.0
 12
0.0
 22
0.0
 32
0.0
 14
0.0
 24
0.0
 34
0.0
 15
0.0
 25
0.0
 35
0.0
146
0.0
 13
0.0
 23
0.0
 33
0.0
 16
1.0
 26
0.0
 36
0.0
 17
0.0
 27
1.0
 37
0.0
 76
     0
330
A
  0
LAYOUT
  5
24B
102
{ACAD_REACTORS
330
248
102
}
330
248
100
AcDbPlotSettings
  1

  2
Tektronix Phaser 850DP
  4

  6

 40
0.0
 41
0.0
 42
0.0
 43
0.0
 44
0.0
 45
0.0
 46
0.0
 47
0.0
 48
0.0
 49
0.0
140
0.0
141
0.0
142
1.0
143
1.0
 70
   688
 72
     0
 73
     0
 74
     5
  7

 75
    16
147
1.0
148
0.0
149
0.0
100
AcDbLayout
  1
ﾚｲｱｳﾄ1
 70
     0
 71
     1
 10
0.0
 20
0.0
 11
12.0
 21
9.0
 12
0.0
 22
0.0
 32
0.0
 14
1.000000000000000E+20
 24
1.000000000000000E+20
 34
1.000000000000000E+20
 15
-1.000000000000000E+20
 25
-1.000000000000000E+20
 35
-1.000000000000000E+20
146
0.0
 13
0.0
 23
0.0
 33
0.0
 16
1.0
 26
0.0
 36
0.0
 17
0.0
 27
1.0
 37
0.0
 76
     0
330
B
  0
MLINESTYLE
  5
1C
102
{ACAD_REACTORS
330
1B
102
}
330
1B
100
AcDbMlineStyle
  2
STANDARD
 70
     0
  3

 62
     0
 51
90.0
 52
90.0
 71
     2
 49
0.5
 62
   256
  6
BYLAYER
 49
-0.5
 62
   256
  6
BYLAYER
  0
ACDBPLACEHOLDER
  5
247
102
{ACAD_REACTORS
330
246
102
}
330
246
  0
XRECORD
  5
2CD
102
{ACAD_REACTORS
330
2CB
102
}
330
2CB
100
AcDbXrecord
280
     1
  0
ENDSEC
  0
EOF
