  0
SECTION
  2
HEADER
  9
$ACADVER
  1
AC1015
  9
$ACADMAINTVER
 70
    10
  9
$DWGCODEPAGE
  3
ANSI_932
  9
$INSBASE
 10
0.0
 20
0.0
 30
0.0
  9
$EXTMIN
 10
87.0
 20
65.99984
 30
0.0
  9
$EXTMAX
 10
2313.086672
 20
1610.000032
 30
0.0
  9
$LIMMIN
 10
0.0
 20
0.0
  9
$LIMMAX
 10
297.0
 20
210.0
  9
$ORTHOMODE
 70
     0
  9
$REGENMODE
 70
     1
  9
$FILLMODE
 70
     1
  9
$QTEXTMODE
 70
     0
  9
$MIRRTEXT
 70
     1
  9
$LTSCALE
 40
1.0
  9
$ATTMODE
 70
     1
  9
$TEXTSIZE
 40
0.0
  9
$TRACEWID
 40
0.05
  9
$TEXTSTYLE
  7
STANDARD
  9
$CLAYER
  8
LAY-1
  9
$CELTYPE
  6
CONTINUOUS
  9
$CECOLOR
 62
   256
  9
$CELTSCALE
 40
1.0
  9
$DISPSILH
 70
     0
  9
$DIMSCALE
 40
1.0
  9
$DIMASZ
 40
0.18
  9
$DIMEXO
 40
0.0625
  9
$DIMDLI
 40
0.38
  9
$DIMRND
 40
0.0
  9
$DIMDLE
 40
0.0
  9
$DIMEXE
 40
0.18
  9
$DIMTP
 40
0.0
  9
$DIMTM
 40
0.0
  9
$DIMTXT
 40
0.18
  9
$DIMCEN
 40
0.09
  9
$DIMTSZ
 40
0.0
  9
$DIMTOL
 70
     0
  9
$DIMLIM
 70
     0
  9
$DIMTIH
 70
     1
  9
$DIMTOH
 70
     1
  9
$DIMSE1
 70
     0
  9
$DIMSE2
 70
     0
  9
$DIMTAD
 70
     0
  9
$DIMZIN
 70
     0
  9
$DIMBLK
  1

  9
$DIMASO
 70
     1
  9
$DIMSHO
 70
     1
  9
$DIMPOST
  1

  9
$DIMAPOST
  1

  9
$DIMALT
 70
     0
  9
$DIMALTD
 70
     2
  9
$DIMALTF
 40
25.4
  9
$DIMLFAC
 40
1.0
  9
$DIMTOFL
 70
     0
  9
$DIMTVP
 40
0.0
  9
$DIMTIX
 70
     0
  9
$DIMSOXD
 70
     0
  9
$DIMSAH
 70
     0
  9
$DIMBLK1
  1

  9
$DIMBLK2
  1

  9
$DIMSTYLE
  2
STANDARD
  9
$DIMCLRD
 70
     0
  9
$DIMCLRE
 70
     0
  9
$DIMCLRT
 70
     0
  9
$DIMTFAC
 40
1.0
  9
$DIMGAP
 40
0.09
  9
$DIMJUST
 70
     0
  9
$DIMSD1
 70
     0
  9
$DIMSD2
 70
     0
  9
$DIMTOLJ
 70
     1
  9
$DIMTZIN
 70
     0
  9
$DIMALTZ
 70
     0
  9
$DIMALTTZ
 70
     0
  9
$DIMUPT
 70
     0
  9
$DIMDEC
 70
     4
  9
$DIMTDEC
 70
     4
  9
$DIMALTU
 70
     2
  9
$DIMALTTD
 70
     2
  9
$DIMTXSTY
  7
STANDARD
  9
$DIMAUNIT
 70
     0
  9
$DIMADEC
 70
     0
  9
$DIMALTRND
 40
0.0
  9
$DIMAZIN
 70
     0
  9
$DIMDSEP
 70
    46
  9
$DIMATFIT
 70
     3
  9
$DIMFRAC
 70
     0
  9
$DIMLDRBLK
  1

  9
$DIMLUNIT
 70
     2
  9
$DIMLWD
 70
    -2
  9
$DIMLWE
 70
    -2
  9
$DIMTMOVE
 70
     0
  9
$LUNITS
 70
     2
  9
$LUPREC
 70
     4
  9
$SKETCHINC
 40
0.1
  9
$FILLETRAD
 40
0.0
  9
$AUNITS
 70
     0
  9
$AUPREC
 70
     0
  9
$MENU
  1
acad
  9
$ELEVATION
 40
0.0
  9
$PELEVATION
 40
0.0
  9
$THICKNESS
 40
0.0
  9
$LIMCHECK
 70
     0
  9
$CHAMFERA
 40
0.0
  9
$CHAMFERB
 40
0.0
  9
$CHAMFERC
 40
0.0
  9
$CHAMFERD
 40
0.0
  9
$SKPOLY
 70
     0
  9
$TDCREATE
 40
2452142.430257523
  9
$TDUCREATE
 40
2452142.055257523
  9
$TDUPDATE
 40
2452159.045997349
  9
$TDUUPDATE
 40
2452158.670997349
  9
$TDINDWG
 40
0.0173430208
  9
$TDUSRTIMER
 40
0.0173430208
  9
$USRTIMER
 70
     1
  9
$ANGBASE
 50
0.0
  9
$ANGDIR
 70
     0
  9
$PDMODE
 70
     0
  9
$PDSIZE
 40
0.0
  9
$PLINEWID
 40
0.0
  9
$SPLFRAME
 70
     0
  9
$SPLINETYPE
 70
     6
  9
$SPLINESEGS
 70
     8
  9
$HANDSEED
  5
281
  9
$SURFTAB1
 70
     6
  9
$SURFTAB2
 70
     6
  9
$SURFTYPE
 70
     6
  9
$SURFU
 70
     6
  9
$SURFV
 70
     6
  9
$UCSBASE
  2

  9
$UCSNAME
  2

  9
$UCSORG
 10
0.0
 20
0.0
 30
0.0
  9
$UCSXDIR
 10
1.0
 20
0.0
 30
0.0
  9
$UCSYDIR
 10
0.0
 20
1.0
 30
0.0
  9
$UCSORTHOREF
  2

  9
$UCSORTHOVIEW
 70
     0
  9
$UCSORGTOP
 10
0.0
 20
0.0
 30
0.0
  9
$UCSORGBOTTOM
 10
0.0
 20
0.0
 30
0.0
  9
$UCSORGLEFT
 10
0.0
 20
0.0
 30
0.0
  9
$UCSORGRIGHT
 10
0.0
 20
0.0
 30
0.0
  9
$UCSORGFRONT
 10
0.0
 20
0.0
 30
0.0
  9
$UCSORGBACK
 10
0.0
 20
0.0
 30
0.0
  9
$PUCSBASE
  2

  9
$PUCSNAME
  2

  9
$PUCSORG
 10
0.0
 20
0.0
 30
0.0
  9
$PUCSXDIR
 10
1.0
 20
0.0
 30
0.0
  9
$PUCSYDIR
 10
0.0
 20
1.0
 30
0.0
  9
$PUCSORTHOREF
  2

  9
$PUCSORTHOVIEW
 70
     0
  9
$PUCSORGTOP
 10
0.0
 20
0.0
 30
0.0
  9
$PUCSORGBOTTOM
 10
0.0
 20
0.0
 30
0.0
  9
$PUCSORGLEFT
 10
0.0
 20
0.0
 30
0.0
  9
$PUCSORGRIGHT
 10
0.0
 20
0.0
 30
0.0
  9
$PUCSORGFRONT
 10
0.0
 20
0.0
 30
0.0
  9
$PUCSORGBACK
 10
0.0
 20
0.0
 30
0.0
  9
$USERI1
 70
     0
  9
$USERI2
 70
     0
  9
$USERI3
 70
     0
  9
$USERI4
 70
     0
  9
$USERI5
 70
     0
  9
$USERR1
 40
0.0
  9
$USERR2
 40
0.0
  9
$USERR3
 40
0.0
  9
$USERR4
 40
0.0
  9
$USERR5
 40
0.0
  9
$WORLDVIEW
 70
     1
  9
$SHADEDGE
 70
     3
  9
$SHADEDIF
 70
    70
  9
$TILEMODE
 70
     1
  9
$MAXACTVP
 70
    16
  9
$PINSBASE
 10
0.0
 20
0.0
 30
0.0
  9
$PLIMCHECK
 70
     0
  9
$PEXTMIN
 10
1.000000000000000E+20
 20
1.000000000000000E+20
 30
1.000000000000000E+20
  9
$PEXTMAX
 10
-1.000000000000000E+20
 20
-1.000000000000000E+20
 30
-1.000000000000000E+20
  9
$PLIMMIN
 10
0.0
 20
0.0
  9
$PLIMMAX
 10
12.0
 20
9.0
  9
$UNITMODE
 70
     0
  9
$VISRETAIN
 70
     0
  9
$PLINEGEN
 70
     1
  9
$PSLTSCALE
 70
     0
  9
$TREEDEPTH
 70
  3020
  9
$CMLSTYLE
  2
STANDARD
  9
$CMLJUST
 70
     0
  9
$CMLSCALE
 40
1.0
  9
$PROXYGRAPHICS
 70
     1
  9
$MEASUREMENT
 70
     0
  9
$CELWEIGHT
370
    -1
  9
$ENDCAPS
280
     0
  9
$JOINSTYLE
280
     0
  9
$LWDISPLAY
290
     0
  9
$INSUNITS
 70
     0
  9
$HYPERLINKBASE
  1

  9
$STYLESHEET
  1

  9
$XEDIT
290
     1
  9
$CEPSNTYPE
380
     0
  9
$PSTYLEMODE
290
     1
  9
$FINGERPRINTGUID
  2
{A33BD720-D933-4530-824B-98FBE631DC3F}
  9
$VERSIONGUID
  2
{0A61B2FF-E4F5-47FF-8A3C-D7E41D972097}
  9
$EXTNAMES
290
     1
  9
$PSVPSCALE
 40
0.0
  9
$OLESTARTUP
290
     0
  0
ENDSEC
  0
SECTION
  2
CLASSES
  0
CLASS
  1
LWPOLYLINE
  2
AcDbPolyline
  3
AutoCAD 2000
 90
    32768
280
     0
281
     1
  0
CLASS
  1
IMAGE
  2
AcDbRasterImage
  3
ISM
 90
    32895
280
     0
281
     1
  0
CLASS
  1
OLE2FRAME
  2
AcDbOle2Frame
  3
AutoCAD 2000
 90
    32768
280
     0
281
     1
  0
CLASS
  1
HATCH
  2
AcDbHatch
  3
AutoCAD 2000
 90
    32768
280
     0
281
     1
  0
CLASS
  1
DICTIONARYVAR
  2
AcDbDictionaryVar
  3
AutoCAD 2000
 90
    32768
280
     0
281
     0
  0
CLASS
  1
RASTERVARIABLES
  2
AcDbRasterVariables
  3
ISM
 90
    32768
280
     0
281
     0
  0
CLASS
  1
IMAGEDEF
  2
AcDbRasterImageDef
  3
ISM
 90
    32768
280
     0
281
     0
  0
CLASS
  1
IMAGEDEF_REACTOR
  2
AcDbRasterImageDefReactor
  3
ISM
 90
    32769
280
     0
281
     0
  0
CLASS
  1
IDBUFFER
  2
AcDbIdBuffer
  3
AutoCAD 2000
 90
    32768
280
     0
281
     0
  0
CLASS
  1
SPATIAL_FILTER
  2
AcDbSpatialFilter
  3
AutoCAD 2000
 90
    32768
280
     0
281
     0
  0
CLASS
  1
XRECORD
  2
AcDbXrecord
  3
AutoCAD 2000
 90
    32768
280
     0
281
     0
  0
CLASS
  1
SORTENTSTABLE
  2
AcDbSortentsTable
  3
AutoCAD 2000
 90
    32768
280
     0
281
     0
  0
CLASS
  1
LAYER_INDEX
  2
AcDbLayerIndex
  3
AutoCAD 2000
 90
    32768
280
     0
281
     0
  0
CLASS
  1
SPATIAL_INDEX
  2
AcDbSpatialIndex
  3
AutoCAD 2000
 90
    32768
280
     0
281
     0
  0
CLASS
  1
OBJECT_PTR
  2
CAseDLPNTableRecord
  3
ASE-LPNTableRecord
 90
    32769
280
     0
281
     0
  0
CLASS
  1
LAYOUT
  2
AcDbLayout
  3
AutoCAD 2000
 90
        0
280
     0
281
     0
  0
CLASS
  1
PLOTSETTINGS
  2
AcDbPlotSettings
  3
AutoCAD 2000
 90
    32768
280
     0
281
     0
  0
CLASS
  1
ACDBDICTIONARYWDFLT
  2
AcDbDictionaryWithDefault
  3
AutoCAD 2000
 90
        0
280
     0
281
     0
  0
CLASS
  1
ACDBPLACEHOLDER
  2
AcDbPlaceHolder
  3
AutoCAD 2000
 90
        0
280
     0
281
     0
  0
CLASS
  1
VBA_PROJECT
  2
AcDbVbaProject
  3
acadvba
 90
    32768
280
     0
281
     0
  0
CLASS
  1
WIPEOUT
  2
AcDbWipeout
  3
WipeOut|AutoCAD Express Tool|expresstools@autodesk.com
 90
    32768
280
     0
281
     1
  0
CLASS
  1
WIPEOUTVARIABLES
  2
AcDbWipeoutVariables
  3
WipeOut|AutoCAD Express Tool|expresstools@autodesk.com
 90
    32768
280
     0
281
     0
  0
CLASS
  1
RTEXT
  2
RText
  3
RText|AutoCAD Express Tool|expresstools@autodesk.com
 90
    32768
280
     0
281
     1
  0
CLASS
  1
ARCALIGNEDTEXT
  2
AcDbArcAlignedText
  3
ATEXT|AutoCAD Express Tool|expresstools@autodesk.com
 90
    32768
280
     0
281
     1
  0
ENDSEC
  0
SECTION
  2
TABLES
  0
TABLE
  2
VPORT
  5
7
330
0
100
AcDbSymbolTable
 70
     2
  0
VPORT
  5
280
330
7
100
AcDbSymbolTableRecord
100
AcDbViewportTableRecord
  2
*Active
 70
     0
 10
0.0
 20
0.0
 11
1.0
 21
1.0
 12
1200.043335999999
 22
837.9999359999997
 13
0.0
 23
0.0
 14
1.0
 24
1.0
 15
0.0
 25
0.0
 16
0.0
 26
0.0
 36
1.0
 17
0.0
 27
0.0
 37
0.0
 40
1559.187079134425
 41
1.76847290640394
 42
50.0
 43
0.0
 44
0.0
 50
0.0
 51
0.0
 71
     0
 72
   100
 73
     1
 74
     1
 75
     0
 76
     0
 77
     0
 78
     0
281
     0
 65
     1
110
0.0
120
0.0
130
0.0
111
1.0
121
0.0
131
0.0
112
0.0
122
1.0
132
0.0
 79
     0
146
0.0
  0
ENDTAB
  0
TABLE
  2
LTYPE
  5
4
330
0
100
AcDbSymbolTable
 70
     5
  0
LTYPE
  5
11
330
4
100
AcDbSymbolTableRecord
100
AcDbLinetypeTableRecord
  2
BYBLOCK
 70
     0
  3

 72
    65
 73
     0
 40
0.0
  0
LTYPE
  5
12
330
4
100
AcDbSymbolTableRecord
100
AcDbLinetypeTableRecord
  2
BYLAYER
 70
     0
  3

 72
    65
 73
     0
 40
0.0
  0
LTYPE
  5
13
330
4
100
AcDbSymbolTableRecord
100
AcDbLinetypeTableRecord
  2
CONTINUOUS
 70
     0
  3
実線
 72
    65
 73
     0
 40
0.0
  0
LTYPE
  5
1D
330
4
100
AcDbSymbolTableRecord
100
AcDbLinetypeTableRecord
  2
DASHED
 70
     0
  3
破線
 72
    65
 73
     2
 40
3.799999999999998
 49
3.0
 74
     0
 49
-0.8
 74
     0
  0
LTYPE
  5
1E
330
4
100
AcDbSymbolTableRecord
100
AcDbLinetypeTableRecord
  2
DOT
 70
     0
  3
点線
 72
    65
 73
     2
 40
2.0
 49
1.0
 74
     0
 49
-1.0
 74
     0
  0
LTYPE
  5
1F
330
4
100
AcDbSymbolTableRecord
100
AcDbLinetypeTableRecord
  2
DASHDOT
 70
     0
  3
一点鎖線
 72
    65
 73
     4
 40
25.6
 49
20.0
 74
     0
 49
-2.0
 74
     0
 49
1.6
 74
     0
 49
-2.0
 74
     0
  0
LTYPE
  5
20
330
4
100
AcDbSymbolTableRecord
100
AcDbLinetypeTableRecord
  2
DIVIDE
 70
     0
  3
二点鎖線
 72
    65
 73
     6
 40
31.2
 49
20.0
 74
     0
 49
-2.399999999999999
 74
     0
 49
2.0
 74
     0
 49
-2.399999999999999
 74
     0
 49
2.0
 74
     0
 49
-2.399999999999999
 74
     0
  0
ENDTAB
  0
TABLE
  2
LAYER
  5
2
330
0
100
AcDbSymbolTable
 70
     2
  0
LAYER
  5
14
330
2
100
AcDbSymbolTableRecord
100
AcDbLayerTableRecord
  2
0
 70
     0
 62
     7
  6
CONTINUOUS
370
    -3
390
1DE
  0
LAYER
  5
25
330
2
100
AcDbSymbolTableRecord
100
AcDbLayerTableRecord
  2
LAY-1
 70
     0
 62
     7
  6
CONTINUOUS
370
    -3
390
1DE
  0
ENDTAB
  0
TABLE
  2
STYLE
  5
3
330
0
100
AcDbSymbolTable
 70
     5
  0
STYLE
  5
17
330
3
100
AcDbSymbolTableRecord
100
AcDbTextStyleTableRecord
  2
STANDARD
 70
     0
 40
0.0
 41
1.0
 50
0.0
 71
     0
 42
0.0
  3
monotxt
  4

  0
STYLE
  5
21
330
3
100
AcDbSymbolTableRecord
100
AcDbTextStyleTableRecord
  2
EXCADSTD
 70
     0
 40
0.0
 41
1.0
 50
0.0
 71
     0
 42
0.2
  3
monotxt
  4
extfont
  0
STYLE
  5
22
330
3
100
AcDbSymbolTableRecord
100
AcDbTextStyleTableRecord
  2
EXCADVERT
 70
     4
 40
0.0
 41
1.0
 50
0.0
 71
     0
 42
0.286885
  3
monotxt
  4
extfont
  0
STYLE
  5
23
330
3
100
AcDbSymbolTableRecord
100
AcDbTextStyleTableRecord
  2
EXCADSTD2
 70
     0
 40
0.0
 41
1.0
 50
0.0
 71
     0
 42
0.2
  3
monotxt
  4
extfont
  0
STYLE
  5
24
330
3
100
AcDbSymbolTableRecord
100
AcDbTextStyleTableRecord
  2
EXCADVERT2
 70
     4
 40
0.0
 41
1.0
 50
0.0
 71
     0
 42
0.286885
  3
monotxt
  4
extfont
  0
ENDTAB
  0
TABLE
  2
VIEW
  5
5
330
0
100
AcDbSymbolTable
 70
     0
  0
ENDTAB
  0
TABLE
  2
UCS
  5
6
330
0
100
AcDbSymbolTable
 70
     0
  0
ENDTAB
  0
TABLE
  2
APPID
  5
8
330
0
100
AcDbSymbolTable
 70
     2
  0
APPID
  5
16
330
8
100
AcDbSymbolTableRecord
100
AcDbRegAppTableRecord
  2
ACAD
 70
     0
  0
APPID
  5
272
330
8
100
AcDbSymbolTableRecord
100
AcDbRegAppTableRecord
  2
DCO15
 70
     0
  0
ENDTAB
  0
TABLE
  2
DIMSTYLE
  5
9
330
0
100
AcDbSymbolTable
 70
     1
100
AcDbDimStyleTable
 71
     0
  0
DIMSTYLE
105
18
102
{ACAD_REACTORS
330
D9
330
E5
330
F1
330
FD
330
109
330
114
330
11F
330
12A
330
135
330
140
330
14B
330
1BF
330
1CB
102
}
330
9
100
AcDbSymbolTableRecord
100
AcDbDimStyleTableRecord
  2
STANDARD
 70
     0
340
17
  0
ENDTAB
  0
TABLE
  2
BLOCK_RECORD
  5
1
330
0
100
AcDbSymbolTable
 70
    21
  0
BLOCK_RECORD
  5
A
330
1
100
AcDbSymbolTableRecord
100
AcDbBlockTableRecord
  2
*MODEL_SPACE
340
1E1
  0
BLOCK_RECORD
  5
B
330
1
100
AcDbSymbolTableRecord
100
AcDbBlockTableRecord
  2
*PAPER_SPACE
340
1E2
  0
BLOCK_RECORD
  5
26
330
1
100
AcDbSymbolTableRecord
100
AcDbBlockTableRecord
  2
_EX_NORM
340
0
  0
BLOCK_RECORD
  5
27
330
1
100
AcDbSymbolTableRecord
100
AcDbBlockTableRecord
  2
_EX_BNORM
340
0
  0
BLOCK_RECORD
  5
28
330
1
100
AcDbSymbolTableRecord
100
AcDbBlockTableRecord
  2
_EX_BCIR
340
0
  0
BLOCK_RECORD
  5
29
330
1
100
AcDbSymbolTableRecord
100
AcDbBlockTableRecord
  2
_EX_RCIVIL
340
0
  0
BLOCK_RECORD
  5
2A
330
1
100
AcDbSymbolTableRecord
100
AcDbBlockTableRecord
  2
_EX_SLANT
340
0
  0
BLOCK_RECORD
  5
2B
330
1
100
AcDbSymbolTableRecord
100
AcDbBlockTableRecord
  2
_EX_NONE
340
0
  0
BLOCK_RECORD
  5
2C
330
1
100
AcDbSymbolTableRecord
100
AcDbBlockTableRecord
  2
_EX_CIVIL
340
0
  0
BLOCK_RECORD
  5
2D
330
1
100
AcDbSymbolTableRecord
100
AcDbBlockTableRecord
  2
_EX_WCIR
340
0
  0
BLOCK_RECORD
  5
CE
330
1
100
AcDbSymbolTableRecord
100
AcDbBlockTableRecord
  2
*D8
340
0
  0
BLOCK_RECORD
  5
DA
330
1
100
AcDbSymbolTableRecord
100
AcDbBlockTableRecord
  2
*D9
340
0
  0
BLOCK_RECORD
  5
E6
330
1
100
AcDbSymbolTableRecord
100
AcDbBlockTableRecord
  2
*D10
340
0
  0
BLOCK_RECORD
  5
F2
330
1
100
AcDbSymbolTableRecord
100
AcDbBlockTableRecord
  2
*D11
340
0
  0
BLOCK_RECORD
  5
FE
330
1
100
AcDbSymbolTableRecord
100
AcDbBlockTableRecord
  2
*D12
340
0
  0
BLOCK_RECORD
  5
10A
330
1
100
AcDbSymbolTableRecord
100
AcDbBlockTableRecord
  2
*D13
340
0
  0
BLOCK_RECORD
  5
115
330
1
100
AcDbSymbolTableRecord
100
AcDbBlockTableRecord
  2
*D14
340
0
  0
BLOCK_RECORD
  5
120
330
1
100
AcDbSymbolTableRecord
100
AcDbBlockTableRecord
  2
*D15
340
0
  0
BLOCK_RECORD
  5
12B
330
1
100
AcDbSymbolTableRecord
100
AcDbBlockTableRecord
  2
*D16
340
0
  0
BLOCK_RECORD
  5
136
330
1
100
AcDbSymbolTableRecord
100
AcDbBlockTableRecord
  2
*D17
340
0
  0
BLOCK_RECORD
  5
141
330
1
100
AcDbSymbolTableRecord
100
AcDbBlockTableRecord
  2
*D18
340
0
  0
BLOCK_RECORD
  5
1B4
330
1
100
AcDbSymbolTableRecord
100
AcDbBlockTableRecord
  2
*D19
340
0
  0
BLOCK_RECORD
  5
1C0
330
1
100
AcDbSymbolTableRecord
100
AcDbBlockTableRecord
  2
*D20
340
0
  0
ENDTAB
  0
ENDSEC
  0
SECTION
  2
BLOCKS
  0
BLOCK
  5
D
330
A
100
AcDbEntity
  8
0
100
AcDbBlockBegin
  2
*MODEL_SPACE
 70
     0
 10
0.0
 20
0.0
 30
0.0
  3
*MODEL_SPACE
  1

  0
ENDBLK
  5
E
330
A
100
AcDbEntity
  8
0
100
AcDbBlockEnd
  0
BLOCK
  5
F
330
B
100
AcDbEntity
 67
     1
  8
0
100
AcDbBlockBegin
  2
*PAPER_SPACE
 70
     0
 10
0.0
 20
0.0
 30
0.0
  3
*PAPER_SPACE
  1

  0
ENDBLK
  5
10
330
B
100
AcDbEntity
 67
     1
  8
0
100
AcDbBlockEnd
  0
BLOCK
  5
2E
330
26
100
AcDbEntity
  8
0
100
AcDbBlockBegin
  2
_EX_NORM
 70
     0
 10
0.0
 20
0.0
 30
0.0
  3
_EX_NORM
  1

  0
LINE
  5
2F
330
26
100
AcDbEntity
  8
0
  6
Continuous
 62
     0
100
AcDbLine
 10
0.0
 20
0.0
 30
0.0
 11
-1.0
 21
0.0
 31
0.0
  0
LINE
  5
30
330
26
100
AcDbEntity
  8
0
  6
Continuous
 62
     0
100
AcDbLine
 10
0.0
 20
0.0
 30
0.0
 11
-0.9607689999999999
 21
0.27735
 31
0.0
  0
LINE
  5
31
330
26
100
AcDbEntity
  8
0
  6
Continuous
 62
     0
100
AcDbLine
 10
0.0
 20
0.0
 30
0.0
 11
-0.9607689999999999
 21
-0.27735
 31
0.0
  0
ENDBLK
  5
32
330
26
100
AcDbEntity
  8
0
100
AcDbBlockEnd
  0
BLOCK
  5
33
330
27
100
AcDbEntity
  8
0
100
AcDbBlockBegin
  2
_EX_BNORM
 70
     0
 10
0.0
 20
0.0
 30
0.0
  3
_EX_BNORM
  1

  0
LINE
  5
34
330
27
100
AcDbEntity
  8
0
  6
Continuous
 62
     0
100
AcDbLine
 10
0.0
 20
0.0
 30
0.0
 11
-1.0
 21
0.0
 31
0.0
  0
LINE
  5
35
330
27
100
AcDbEntity
  8
0
  6
Continuous
 62
     0
100
AcDbLine
 10
0.0
 20
0.0
 30
0.0
 11
-0.9607689999999999
 21
0.27735
 31
0.0
  0
LINE
  5
36
330
27
100
AcDbEntity
  8
0
  6
Continuous
 62
     0
100
AcDbLine
 10
0.0
 20
0.0
 30
0.0
 11
-0.9607689999999999
 21
-0.27735
 31
0.0
  0
LINE
  5
37
330
27
100
AcDbEntity
  8
0
  6
Continuous
 62
     0
100
AcDbLine
 10
0.0
 20
0.0
 30
0.0
 11
-0.9607689999999999
 21
0.138768
 31
0.0
  0
LINE
  5
38
330
27
100
AcDbEntity
  8
0
  6
Continuous
 62
     0
100
AcDbLine
 10
0.0
 20
0.0
 30
0.0
 11
-0.9607689999999999
 21
-0.138768
 31
0.0
  0
LINE
  5
39
330
27
100
AcDbEntity
  8
0
  6
Continuous
 62
     0
100
AcDbLine
 10
-0.9607689999999999
 20
0.27735
 30
0.0
 11
-0.9607689999999999
 21
-0.27735
 31
0.0
  0
ENDBLK
  5
3A
330
27
100
AcDbEntity
  8
0
100
AcDbBlockEnd
  0
BLOCK
  5
3B
330
28
100
AcDbEntity
  8
0
100
AcDbBlockBegin
  2
_EX_BCIR
 70
     0
 10
0.0
 20
0.0
 30
0.0
  3
_EX_BCIR
  1

  0
LINE
  5
3C
330
28
100
AcDbEntity
  8
0
  6
Continuous
 62
     0
100
AcDbLine
 10
0.0
 20
0.0
 30
0.0
 11
-1.0
 21
0.0
 31
0.0
  0
CIRCLE
  5
3D
330
28
100
AcDbEntity
  8
0
  6
Continuous
 62
     0
100
AcDbCircle
 10
0.0
 20
0.0
 30
0.0
 40
0.5
  0
CIRCLE
  5
3E
330
28
100
AcDbEntity
  8
0
  6
Continuous
 62
     0
100
AcDbCircle
 10
0.0
 20
0.0
 30
0.0
 40
0.25
  0
ENDBLK
  5
3F
330
28
100
AcDbEntity
  8
0
100
AcDbBlockEnd
  0
BLOCK
  5
40
330
29
100
AcDbEntity
  8
0
100
AcDbBlockBegin
  2
_EX_RCIVIL
 70
     0
 10
0.0
 20
0.0
 30
0.0
  3
_EX_RCIVIL
  1

  0
LINE
  5
41
330
29
100
AcDbEntity
  8
0
  6
Continuous
 62
     0
100
AcDbLine
 10
0.0
 20
0.0
 30
0.0
 11
-1.0
 21
0.0
 31
0.0
  0
LINE
  5
42
330
29
100
AcDbEntity
  8
0
  6
Continuous
 62
     0
100
AcDbLine
 10
-1.0
 20
-0.25
 30
0.0
 11
0.0
 21
-0.25
 31
0.0
  0
LINE
  5
43
330
29
100
AcDbEntity
  8
0
  6
Continuous
 62
     0
100
AcDbLine
 10
-1.0
 20
-0.125
 30
0.0
 11
0.0
 21
-0.125
 31
0.0
  0
ENDBLK
  5
44
330
29
100
AcDbEntity
  8
0
100
AcDbBlockEnd
  0
BLOCK
  5
45
330
2A
100
AcDbEntity
  8
0
100
AcDbBlockBegin
  2
_EX_SLANT
 70
     0
 10
0.0
 20
0.0
 30
0.0
  3
_EX_SLANT
  1

  0
LINE
  5
46
330
2A
100
AcDbEntity
  8
0
  6
Continuous
 62
     0
100
AcDbLine
 10
0.0
 20
0.0
 30
0.0
 11
-1.0
 21
0.0
 31
0.0
  0
LINE
  5
47
330
2A
100
AcDbEntity
  8
0
  6
Continuous
 62
     0
100
AcDbLine
 10
0.7071069999999999
 20
0.7071069999999999
 30
0.0
 11
-0.7071069999999999
 21
-0.7071069999999999
 31
0.0
  0
ENDBLK
  5
48
330
2A
100
AcDbEntity
  8
0
100
AcDbBlockEnd
  0
BLOCK
  5
49
330
2B
100
AcDbEntity
  8
0
100
AcDbBlockBegin
  2
_EX_NONE
 70
     0
 10
0.0
 20
0.0
 30
0.0
  3
_EX_NONE
  1

  0
LINE
  5
4A
330
2B
100
AcDbEntity
  8
0
  6
Continuous
 62
     0
100
AcDbLine
 10
0.0
 20
0.0
 30
0.0
 11
-1.0
 21
0.0
 31
0.0
  0
ENDBLK
  5
4B
330
2B
100
AcDbEntity
  8
0
100
AcDbBlockEnd
  0
BLOCK
  5
4C
330
2C
100
AcDbEntity
  8
0
100
AcDbBlockBegin
  2
_EX_CIVIL
 70
     0
 10
0.0
 20
0.0
 30
0.0
  3
_EX_CIVIL
  1

  0
LINE
  5
4D
330
2C
100
AcDbEntity
  8
0
  6
Continuous
 62
     0
100
AcDbLine
 10
0.0
 20
0.0
 30
0.0
 11
-1.0
 21
0.0
 31
0.0
  0
LINE
  5
4E
330
2C
100
AcDbEntity
  8
0
  6
Continuous
 62
     0
100
AcDbLine
 10
-1.0
 20
0.25
 30
0.0
 11
0.0
 21
0.25
 31
0.0
  0
LINE
  5
4F
330
2C
100
AcDbEntity
  8
0
  6
Continuous
 62
     0
100
AcDbLine
 10
-1.0
 20
0.125
 30
0.0
 11
0.0
 21
0.125
 31
0.0
  0
ENDBLK
  5
50
330
2C
100
AcDbEntity
  8
0
100
AcDbBlockEnd
  0
BLOCK
  5
51
330
2D
100
AcDbEntity
  8
0
100
AcDbBlockBegin
  2
_EX_WCIR
 70
     0
 10
0.0
 20
0.0
 30
0.0
  3
_EX_WCIR
  1

  0
LINE
  5
52
330
2D
100
AcDbEntity
  8
0
  6
Continuous
 62
     0
100
AcDbLine
 10
0.0
 20
0.0
 30
0.0
 11
-1.0
 21
0.0
 31
0.0
  0
CIRCLE
  5
53
330
2D
100
AcDbEntity
  8
0
  6
Continuous
 62
     0
100
AcDbCircle
 10
0.0
 20
0.0
 30
0.0
 40
0.5
  0
ENDBLK
  5
54
330
2D
100
AcDbEntity
  8
0
100
AcDbBlockEnd
  0
BLOCK
  5
CF
330
CE
100
AcDbEntity
  8
0
100
AcDbBlockBegin
  2
*D8
 70
     1
 10
0.0
 20
0.0
 30
0.0
  3
*D8
  1

  0
LINE
  5
D0
330
CE
100
AcDbEntity
  8
0
  6
Continuous
 62
     1
100
AcDbLine
 10
2184.0
 20
842.0
 30
0.0
 11
2105.0
 21
842.0
 31
0.0
  0
LINE
  5
D1
330
CE
100
AcDbEntity
  8
0
  6
Continuous
 62
     1
100
AcDbLine
 10
2184.0
 20
892.0
 30
0.0
 11
2105.0
 21
892.0
 31
0.0
  0
LINE
  5
D2
330
CE
100
AcDbEntity
  8
0
  6
Continuous
 62
     1
100
AcDbLine
 10
2117.0
 20
842.0
 30
0.0
 11
2117.0
 21
892.0
 31
0.0
  0
LINE
  5
D3
330
CE
100
AcDbEntity
  8
0
  6
Continuous
 62
     1
100
AcDbLine
 10
2110.788343
 20
865.1822199999998
 30
0.0
 11
2117.0
 21
842.0
 31
0.0
  0
LINE
  5
D4
330
CE
100
AcDbEntity
  8
0
  6
Continuous
 62
     1
100
AcDbLine
 10
2117.0
 20
842.0
 30
0.0
 11
2123.211657
 21
865.1822199999998
 31
0.0
  0
LINE
  5
D5
330
CE
100
AcDbEntity
  8
0
  6
Continuous
 62
     1
100
AcDbLine
 10
2123.211657
 20
868.8177800000001
 30
0.0
 11
2117.0
 21
892.0
 31
0.0
  0
LINE
  5
D6
330
CE
100
AcDbEntity
  8
0
  6
Continuous
 62
     1
100
AcDbLine
 10
2117.0
 20
892.0
 30
0.0
 11
2110.788343
 21
868.8177800000001
 31
0.0
  0
TEXT
  5
D7
330
CE
100
AcDbEntity
  8
0
  6
Continuous
 62
     1
100
AcDbText
 10
2113.0
 20
843.0
 30
0.0
 40
24.0
  1
50
 50
90.0
  7
EXCADSTD
100
AcDbText
  0
ENDBLK
  5
D8
330
CE
100
AcDbEntity
  8
0
100
AcDbBlockEnd
  0
BLOCK
  5
DB
330
DA
100
AcDbEntity
  8
0
100
AcDbBlockBegin
  2
*D9
 70
     1
 10
0.0
 20
0.0
 30
0.0
  3
*D9
  1

  0
LINE
  5
DC
330
DA
100
AcDbEntity
  8
0
  6
Continuous
 62
     1
100
AcDbLine
 10
1958.0
 20
842.0
 30
0.0
 11
2047.0
 21
842.0
 31
0.0
  0
LINE
  5
DD
330
DA
100
AcDbEntity
  8
0
  6
Continuous
 62
     1
100
AcDbLine
 10
1858.0
 20
867.0
 30
0.0
 11
2047.0
 21
867.0
 31
0.0
  0
LINE
  5
DE
330
DA
100
AcDbEntity
  8
0
  6
Continuous
 62
     1
100
AcDbLine
 10
2035.0
 20
766.0
 30
0.0
 11
2035.0
 21
907.0
 31
0.0
  0
LINE
  5
DF
330
DA
100
AcDbEntity
  8
0
  6
Continuous
 62
     1
100
AcDbLine
 10
2041.211657
 20
818.81778
 30
0.0
 11
2035.0
 21
842.0
 31
0.0
  0
LINE
  5
E0
330
DA
100
AcDbEntity
  8
0
  6
Continuous
 62
     1
100
AcDbLine
 10
2035.0
 20
842.0
 30
0.0
 11
2028.788342999999
 21
818.81778
 31
0.0
  0
LINE
  5
E1
330
DA
100
AcDbEntity
  8
0
  6
Continuous
 62
     1
100
AcDbLine
 10
2028.788342999999
 20
890.1822199999998
 30
0.0
 11
2035.0
 21
867.0
 31
0.0
  0
LINE
  5
E2
330
DA
100
AcDbEntity
  8
0
  6
Continuous
 62
     1
100
AcDbLine
 10
2035.0
 20
867.0
 30
0.0
 11
2041.211657
 21
890.1822199999998
 31
0.0
  0
TEXT
  5
E3
330
DA
100
AcDbEntity
  8
0
  6
Continuous
 62
     1
100
AcDbText
 10
2031.0
 20
770.0
 30
0.0
 40
24.0
  1
25
 50
90.0
  7
EXCADSTD
100
AcDbText
  0
ENDBLK
  5
E4
330
DA
100
AcDbEntity
  8
0
100
AcDbBlockEnd
  0
BLOCK
  5
E7
330
E6
100
AcDbEntity
  8
0
100
AcDbBlockBegin
  2
*D10
 70
     1
 10
0.0
 20
0.0
 30
0.0
  3
*D10
  1

  0
LINE
  5
E8
330
E6
100
AcDbEntity
  8
0
  6
Continuous
 62
     1
100
AcDbLine
 10
2246.0
 20
830.0
 30
0.0
 11
2246.0
 21
755.0
 31
0.0
  0
LINE
  5
E9
330
E6
100
AcDbEntity
  8
0
  6
Continuous
 62
     1
100
AcDbLine
 10
2196.0
 20
830.0
 30
0.0
 11
2196.0
 21
755.0
 31
0.0
  0
LINE
  5
EA
330
E6
100
AcDbEntity
  8
0
  6
Continuous
 62
     1
100
AcDbLine
 10
2246.0
 20
767.0
 30
0.0
 11
2196.0
 21
767.0
 31
0.0
  0
LINE
  5
EB
330
E6
100
AcDbEntity
  8
0
  6
Continuous
 62
     1
100
AcDbLine
 10
2222.817779999999
 20
760.7883429999998
 30
0.0
 11
2246.0
 21
767.0
 31
0.0
  0
LINE
  5
EC
330
E6
100
AcDbEntity
  8
0
  6
Continuous
 62
     1
100
AcDbLine
 10
2246.0
 20
767.0
 30
0.0
 11
2222.817779999999
 21
773.211657
 31
0.0
  0
LINE
  5
ED
330
E6
100
AcDbEntity
  8
0
  6
Continuous
 62
     1
100
AcDbLine
 10
2219.182219999999
 20
773.211657
 30
0.0
 11
2196.0
 21
767.0
 31
0.0
  0
LINE
  5
EE
330
E6
100
AcDbEntity
  8
0
  6
Continuous
 62
     1
100
AcDbLine
 10
2196.0
 20
767.0
 30
0.0
 11
2219.182219999999
 21
760.7883429999998
 31
0.0
  0
TEXT
  5
EF
330
E6
100
AcDbEntity
  8
0
  6
Continuous
 62
     1
100
AcDbText
 10
2197.0
 20
771.0
 30
0.0
 40
24.0
  1
50
  7
EXCADSTD
100
AcDbText
  0
ENDBLK
  5
F0
330
E6
100
AcDbEntity
  8
0
100
AcDbBlockEnd
  0
BLOCK
  5
F3
330
F2
100
AcDbEntity
  8
0
100
AcDbBlockBegin
  2
*D11
 70
     1
 10
0.0
 20
0.0
 30
0.0
  3
*D11
  1

  0
LINE
  5
F4
330
F2
100
AcDbEntity
  8
0
  6
Continuous
 62
     1
100
AcDbLine
 10
1946.0
 20
904.0
 30
0.0
 11
1946.0
 21
1073.0
 31
0.0
  0
LINE
  5
F5
330
F2
100
AcDbEntity
  8
0
  6
Continuous
 62
     1
100
AcDbLine
 10
146.0
 20
904.0
 30
0.0
 11
146.0
 21
1073.0
 31
0.0
  0
LINE
  5
F6
330
F2
100
AcDbEntity
  8
0
  6
Continuous
 62
     1
100
AcDbLine
 10
1946.0
 20
1061.0
 30
0.0
 11
146.0
 21
1061.0
 31
0.0
  0
LINE
  5
F7
330
F2
100
AcDbEntity
  8
0
  6
Continuous
 62
     1
100
AcDbLine
 10
1922.81778
 20
1054.788343
 30
0.0
 11
1946.0
 21
1061.0
 31
0.0
  0
LINE
  5
F8
330
F2
100
AcDbEntity
  8
0
  6
Continuous
 62
     1
100
AcDbLine
 10
1946.0
 20
1061.0
 30
0.0
 11
1922.81778
 21
1067.211657
 31
0.0
  0
LINE
  5
F9
330
F2
100
AcDbEntity
  8
0
  6
Continuous
 62
     1
100
AcDbLine
 10
169.18222
 20
1067.211657
 30
0.0
 11
146.0
 21
1061.0
 31
0.0
  0
LINE
  5
FA
330
F2
100
AcDbEntity
  8
0
  6
Continuous
 62
     1
100
AcDbLine
 10
146.0
 20
1061.0
 30
0.0
 11
169.18222
 21
1054.788343
 31
0.0
  0
TEXT
  5
FB
330
F2
100
AcDbEntity
  8
0
  6
Continuous
 62
     1
100
AcDbText
 10
998.0
 20
1065.0
 30
0.0
 40
24.0
  1
2600
  7
EXCADSTD
100
AcDbText
  0
ENDBLK
  5
FC
330
F2
100
AcDbEntity
  8
0
100
AcDbBlockEnd
  0
BLOCK
  5
FF
330
FE
100
AcDbEntity
  8
0
100
AcDbBlockBegin
  2
*D12
 70
     1
 10
0.0
 20
0.0
 30
0.0
  3
*D12
  1

  0
LINE
  5
100
330
FE
100
AcDbEntity
  8
0
  6
Continuous
 62
     1
100
AcDbLine
 10
146.0
 20
904.0
 30
0.0
 11
146.0
 21
998.0
 31
0.0
  0
LINE
  5
101
330
FE
100
AcDbEntity
  8
0
  6
Continuous
 62
     1
100
AcDbLine
 10
246.0
 20
879.0
 30
0.0
 11
246.0
 21
998.0
 31
0.0
  0
LINE
  5
102
330
FE
100
AcDbEntity
  8
0
  6
Continuous
 62
     1
100
AcDbLine
 10
146.0
 20
986.0
 30
0.0
 11
246.0
 21
986.0
 31
0.0
  0
LINE
  5
103
330
FE
100
AcDbEntity
  8
0
  6
Continuous
 62
     1
100
AcDbLine
 10
169.18222
 20
992.211657
 30
0.0
 11
146.0
 21
986.0
 31
0.0
  0
LINE
  5
104
330
FE
100
AcDbEntity
  8
0
  6
Continuous
 62
     1
100
AcDbLine
 10
146.0
 20
986.0
 30
0.0
 11
169.18222
 21
979.7883429999997
 31
0.0
  0
LINE
  5
105
330
FE
100
AcDbEntity
  8
0
  6
Continuous
 62
     1
100
AcDbLine
 10
222.8177799999999
 20
979.7883429999997
 30
0.0
 11
246.0
 21
986.0
 31
0.0
  0
LINE
  5
106
330
FE
100
AcDbEntity
  8
0
  6
Continuous
 62
     1
100
AcDbLine
 10
246.0
 20
986.0
 30
0.0
 11
222.8177799999999
 21
992.211657
 31
0.0
  0
TEXT
  5
107
330
FE
100
AcDbEntity
  8
0
  6
Continuous
 62
     1
100
AcDbText
 10
160.0
 20
990.0
 30
0.0
 40
24.0
  1
100
  7
EXCADSTD
100
AcDbText
  0
ENDBLK
  5
108
330
FE
100
AcDbEntity
  8
0
100
AcDbBlockEnd
  0
BLOCK
  5
10B
330
10A
100
AcDbEntity
  8
0
100
AcDbBlockBegin
  2
*D13
 70
     1
 10
0.0
 20
0.0
 30
0.0
  3
*D13
  1

  0
LINE
  5
10C
330
10A
100
AcDbEntity
  8
0
  6
Continuous
 62
     1
100
AcDbLine
 10
596.0
 20
879.0
 30
0.0
 11
596.0
 21
998.0
 31
0.0
  0
LINE
  5
10D
330
10A
100
AcDbEntity
  8
0
  6
Continuous
 62
     1
100
AcDbLine
 10
246.0
 20
986.0
 30
0.0
 11
596.0
 21
986.0
 31
0.0
  0
LINE
  5
10E
330
10A
100
AcDbEntity
  8
0
  6
Continuous
 62
     1
100
AcDbLine
 10
269.18222
 20
992.211657
 30
0.0
 11
246.0
 21
986.0
 31
0.0
  0
LINE
  5
10F
330
10A
100
AcDbEntity
  8
0
  6
Continuous
 62
     1
100
AcDbLine
 10
246.0
 20
986.0
 30
0.0
 11
269.18222
 21
979.7883429999997
 31
0.0
  0
LINE
  5
110
330
10A
100
AcDbEntity
  8
0
  6
Continuous
 62
     1
100
AcDbLine
 10
572.81778
 20
979.7883429999997
 30
0.0
 11
596.0
 21
986.0
 31
0.0
  0
LINE
  5
111
330
10A
100
AcDbEntity
  8
0
  6
Continuous
 62
     1
100
AcDbLine
 10
596.0
 20
986.0
 30
0.0
 11
572.81778
 21
992.211657
 31
0.0
  0
TEXT
  5
112
330
10A
100
AcDbEntity
  8
0
  6
Continuous
 62
     1
100
AcDbText
 10
385.0
 20
990.0
 30
0.0
 40
24.0
  1
350
  7
EXCADSTD
100
AcDbText
  0
ENDBLK
  5
113
330
10A
100
AcDbEntity
  8
0
100
AcDbBlockEnd
  0
BLOCK
  5
116
330
115
100
AcDbEntity
  8
0
100
AcDbBlockBegin
  2
*D14
 70
     1
 10
0.0
 20
0.0
 30
0.0
  3
*D14
  1

  0
LINE
  5
117
330
115
100
AcDbEntity
  8
0
  6
Continuous
 62
     1
100
AcDbLine
 10
946.0
 20
879.0
 30
0.0
 11
946.0
 21
998.0
 31
0.0
  0
LINE
  5
118
330
115
100
AcDbEntity
  8
0
  6
Continuous
 62
     1
100
AcDbLine
 10
596.0
 20
986.0
 30
0.0
 11
946.0
 21
986.0
 31
0.0
  0
LINE
  5
119
330
115
100
AcDbEntity
  8
0
  6
Continuous
 62
     1
100
AcDbLine
 10
619.18222
 20
992.211657
 30
0.0
 11
596.0
 21
986.0
 31
0.0
  0
LINE
  5
11A
330
115
100
AcDbEntity
  8
0
  6
Continuous
 62
     1
100
AcDbLine
 10
596.0
 20
986.0
 30
0.0
 11
619.18222
 21
979.7883429999997
 31
0.0
  0
LINE
  5
11B
330
115
100
AcDbEntity
  8
0
  6
Continuous
 62
     1
100
AcDbLine
 10
922.81778
 20
979.7883429999997
 30
0.0
 11
946.0
 21
986.0
 31
0.0
  0
LINE
  5
11C
330
115
100
AcDbEntity
  8
0
  6
Continuous
 62
     1
100
AcDbLine
 10
946.0
 20
986.0
 30
0.0
 11
922.81778
 21
992.211657
 31
0.0
  0
TEXT
  5
11D
330
115
100
AcDbEntity
  8
0
  6
Continuous
 62
     1
100
AcDbText
 10
735.0
 20
990.0
 30
0.0
 40
24.0
  1
350
  7
EXCADSTD
100
AcDbText
  0
ENDBLK
  5
11E
330
115
100
AcDbEntity
  8
0
100
AcDbBlockEnd
  0
BLOCK
  5
121
330
120
100
AcDbEntity
  8
0
100
AcDbBlockBegin
  2
*D15
 70
     1
 10
0.0
 20
0.0
 30
0.0
  3
*D15
  1

  0
LINE
  5
122
330
120
100
AcDbEntity
  8
0
  6
Continuous
 62
     1
100
AcDbLine
 10
1146.0
 20
879.0
 30
0.0
 11
1146.0
 21
998.0
 31
0.0
  0
LINE
  5
123
330
120
100
AcDbEntity
  8
0
  6
Continuous
 62
     1
100
AcDbLine
 10
946.0
 20
986.0
 30
0.0
 11
1146.0
 21
986.0
 31
0.0
  0
LINE
  5
124
330
120
100
AcDbEntity
  8
0
  6
Continuous
 62
     1
100
AcDbLine
 10
969.1822199999997
 20
992.211657
 30
0.0
 11
946.0
 21
986.0
 31
0.0
  0
LINE
  5
125
330
120
100
AcDbEntity
  8
0
  6
Continuous
 62
     1
100
AcDbLine
 10
946.0
 20
986.0
 30
0.0
 11
969.1822199999997
 21
979.7883429999997
 31
0.0
  0
LINE
  5
126
330
120
100
AcDbEntity
  8
0
  6
Continuous
 62
     1
100
AcDbLine
 10
1122.81778
 20
979.7883429999997
 30
0.0
 11
1146.0
 21
986.0
 31
0.0
  0
LINE
  5
127
330
120
100
AcDbEntity
  8
0
  6
Continuous
 62
     1
100
AcDbLine
 10
1146.0
 20
986.0
 30
0.0
 11
1122.81778
 21
992.211657
 31
0.0
  0
TEXT
  5
128
330
120
100
AcDbEntity
  8
0
  6
Continuous
 62
     1
100
AcDbText
 10
998.0
 20
990.0
 30
0.0
 40
24.0
  1
1000
  7
EXCADSTD
100
AcDbText
  0
ENDBLK
  5
129
330
120
100
AcDbEntity
  8
0
100
AcDbBlockEnd
  0
BLOCK
  5
12C
330
12B
100
AcDbEntity
  8
0
100
AcDbBlockBegin
  2
*D16
 70
     1
 10
0.0
 20
0.0
 30
0.0
  3
*D16
  1

  0
LINE
  5
12D
330
12B
100
AcDbEntity
  8
0
  6
Continuous
 62
     1
100
AcDbLine
 10
1496.0
 20
879.0
 30
0.0
 11
1496.0
 21
998.0
 31
0.0
  0
LINE
  5
12E
330
12B
100
AcDbEntity
  8
0
  6
Continuous
 62
     1
100
AcDbLine
 10
1146.0
 20
986.0
 30
0.0
 11
1496.0
 21
986.0
 31
0.0
  0
LINE
  5
12F
330
12B
100
AcDbEntity
  8
0
  6
Continuous
 62
     1
100
AcDbLine
 10
1169.182219999999
 20
992.211657
 30
0.0
 11
1146.0
 21
986.0
 31
0.0
  0
LINE
  5
130
330
12B
100
AcDbEntity
  8
0
  6
Continuous
 62
     1
100
AcDbLine
 10
1146.0
 20
986.0
 30
0.0
 11
1169.182219999999
 21
979.7883429999997
 31
0.0
  0
LINE
  5
131
330
12B
100
AcDbEntity
  8
0
  6
Continuous
 62
     1
100
AcDbLine
 10
1472.81778
 20
979.7883429999997
 30
0.0
 11
1496.0
 21
986.0
 31
0.0
  0
LINE
  5
132
330
12B
100
AcDbEntity
  8
0
  6
Continuous
 62
     1
100
AcDbLine
 10
1496.0
 20
986.0
 30
0.0
 11
1472.81778
 21
992.211657
 31
0.0
  0
TEXT
  5
133
330
12B
100
AcDbEntity
  8
0
  6
Continuous
 62
     1
100
AcDbText
 10
1285.0
 20
990.0
 30
0.0
 40
24.0
  1
350
  7
EXCADSTD
100
AcDbText
  0
ENDBLK
  5
134
330
12B
100
AcDbEntity
  8
0
100
AcDbBlockEnd
  0
BLOCK
  5
137
330
136
100
AcDbEntity
  8
0
100
AcDbBlockBegin
  2
*D17
 70
     1
 10
0.0
 20
0.0
 30
0.0
  3
*D17
  1

  0
LINE
  5
138
330
136
100
AcDbEntity
  8
0
  6
Continuous
 62
     1
100
AcDbLine
 10
1846.0
 20
879.0
 30
0.0
 11
1846.0
 21
998.0
 31
0.0
  0
LINE
  5
139
330
136
100
AcDbEntity
  8
0
  6
Continuous
 62
     1
100
AcDbLine
 10
1496.0
 20
986.0
 30
0.0
 11
1846.0
 21
986.0
 31
0.0
  0
LINE
  5
13A
330
136
100
AcDbEntity
  8
0
  6
Continuous
 62
     1
100
AcDbLine
 10
1519.18222
 20
992.211657
 30
0.0
 11
1496.0
 21
986.0
 31
0.0
  0
LINE
  5
13B
330
136
100
AcDbEntity
  8
0
  6
Continuous
 62
     1
100
AcDbLine
 10
1496.0
 20
986.0
 30
0.0
 11
1519.18222
 21
979.7883429999997
 31
0.0
  0
LINE
  5
13C
330
136
100
AcDbEntity
  8
0
  6
Continuous
 62
     1
100
AcDbLine
 10
1822.81778
 20
979.7883429999997
 30
0.0
 11
1846.0
 21
986.0
 31
0.0
  0
LINE
  5
13D
330
136
100
AcDbEntity
  8
0
  6
Continuous
 62
     1
100
AcDbLine
 10
1846.0
 20
986.0
 30
0.0
 11
1822.81778
 21
992.211657
 31
0.0
  0
TEXT
  5
13E
330
136
100
AcDbEntity
  8
0
  6
Continuous
 62
     1
100
AcDbText
 10
1635.0
 20
990.0
 30
0.0
 40
24.0
  1
350
  7
EXCADSTD
100
AcDbText
  0
ENDBLK
  5
13F
330
136
100
AcDbEntity
  8
0
100
AcDbBlockEnd
  0
BLOCK
  5
142
330
141
100
AcDbEntity
  8
0
100
AcDbBlockBegin
  2
*D18
 70
     1
 10
0.0
 20
0.0
 30
0.0
  3
*D18
  1

  0
LINE
  5
143
330
141
100
AcDbEntity
  8
0
  6
Continuous
 62
     1
100
AcDbLine
 10
1946.0
 20
904.0
 30
0.0
 11
1946.0
 21
998.0
 31
0.0
  0
LINE
  5
144
330
141
100
AcDbEntity
  8
0
  6
Continuous
 62
     1
100
AcDbLine
 10
1846.0
 20
986.0
 30
0.0
 11
1946.0
 21
986.0
 31
0.0
  0
LINE
  5
145
330
141
100
AcDbEntity
  8
0
  6
Continuous
 62
     1
100
AcDbLine
 10
1869.18222
 20
992.211657
 30
0.0
 11
1846.0
 21
986.0
 31
0.0
  0
LINE
  5
146
330
141
100
AcDbEntity
  8
0
  6
Continuous
 62
     1
100
AcDbLine
 10
1846.0
 20
986.0
 30
0.0
 11
1869.18222
 21
979.7883429999997
 31
0.0
  0
LINE
  5
147
330
141
100
AcDbEntity
  8
0
  6
Continuous
 62
     1
100
AcDbLine
 10
1922.81778
 20
979.7883429999997
 30
0.0
 11
1946.0
 21
986.0
 31
0.0
  0
LINE
  5
148
330
141
100
AcDbEntity
  8
0
  6
Continuous
 62
     1
100
AcDbLine
 10
1946.0
 20
986.0
 30
0.0
 11
1922.81778
 21
992.211657
 31
0.0
  0
TEXT
  5
149
330
141
100
AcDbEntity
  8
0
  6
Continuous
 62
     1
100
AcDbText
 10
1860.0
 20
990.0
 30
0.0
 40
24.0
  1
100
  7
EXCADSTD
100
AcDbText
  0
ENDBLK
  5
14A
330
141
100
AcDbEntity
  8
0
100
AcDbBlockEnd
  0
BLOCK
  5
1B5
330
1B4
100
AcDbEntity
  8
0
100
AcDbBlockBegin
  2
*D19
 70
     1
 10
0.0
 20
0.0
 30
0.0
  3
*D19
  1

  0
LINE
  5
1B6
330
1B4
100
AcDbEntity
  8
0
  6
Continuous
 62
     1
100
AcDbLine
 10
256.0
 20
849.0
 30
0.0
 11
256.0
 21
764.0
 31
0.0
  0
LINE
  5
1B7
330
1B4
100
AcDbEntity
  8
0
  6
Continuous
 62
     1
100
AcDbLine
 10
236.0
 20
849.0
 30
0.0
 11
236.0
 21
764.0
 31
0.0
  0
LINE
  5
1B8
330
1B4
100
AcDbEntity
  8
0
  6
Continuous
 62
     1
100
AcDbLine
 10
332.0
 20
776.0
 30
0.0
 11
196.0
 21
776.0
 31
0.0
  0
LINE
  5
1B9
330
1B4
100
AcDbEntity
  8
0
  6
Continuous
 62
     1
100
AcDbLine
 10
279.18222
 20
782.211657
 30
0.0
 11
256.0
 21
776.0
 31
0.0
  0
LINE
  5
1BA
330
1B4
100
AcDbEntity
  8
0
  6
Continuous
 62
     1
100
AcDbLine
 10
256.0
 20
776.0
 30
0.0
 11
279.18222
 21
769.7883429999998
 31
0.0
  0
LINE
  5
1BB
330
1B4
100
AcDbEntity
  8
0
  6
Continuous
 62
     1
100
AcDbLine
 10
212.8177799999999
 20
769.7883429999998
 30
0.0
 11
236.0
 21
776.0
 31
0.0
  0
LINE
  5
1BC
330
1B4
100
AcDbEntity
  8
0
  6
Continuous
 62
     1
100
AcDbLine
 10
236.0
 20
776.0
 30
0.0
 11
212.8177799999999
 21
782.211657
 31
0.0
  0
TEXT
  5
1BD
330
1B4
100
AcDbEntity
  8
0
  6
Continuous
 62
     1
100
AcDbText
 10
280.0
 20
780.0
 30
0.0
 40
24.0
  1
20
  7
EXCADSTD
100
AcDbText
  0
ENDBLK
  5
1BE
330
1B4
100
AcDbEntity
  8
0
100
AcDbBlockEnd
  0
BLOCK
  5
1C1
330
1C0
100
AcDbEntity
  8
0
100
AcDbBlockBegin
  2
*D20
 70
     1
 10
0.0
 20
0.0
 30
0.0
  3
*D20
  1

  0
LINE
  5
1C2
330
1C0
100
AcDbEntity
  8
0
  6
Continuous
 62
     1
100
AcDbLine
 10
224.0
 20
861.0
 30
0.0
 11
188.0
 21
861.0
 31
0.0
  0
LINE
  5
1C3
330
1C0
100
AcDbEntity
  8
0
  6
Continuous
 62
     1
100
AcDbLine
 10
224.0
 20
873.0
 30
0.0
 11
188.0
 21
873.0
 31
0.0
  0
LINE
  5
1C4
330
1C0
100
AcDbEntity
  8
0
  6
Continuous
 62
     1
100
AcDbLine
 10
200.0
 20
821.0
 30
0.0
 11
200.0
 21
949.0
 31
0.0
  0
LINE
  5
1C5
330
1C0
100
AcDbEntity
  8
0
  6
Continuous
 62
     1
100
AcDbLine
 10
206.211657
 20
837.8177799999999
 30
0.0
 11
200.0
 21
861.0
 31
0.0
  0
LINE
  5
1C6
330
1C0
100
AcDbEntity
  8
0
  6
Continuous
 62
     1
100
AcDbLine
 10
200.0
 20
861.0
 30
0.0
 11
193.788343
 21
837.8177799999999
 31
0.0
  0
LINE
  5
1C7
330
1C0
100
AcDbEntity
  8
0
  6
Continuous
 62
     1
100
AcDbLine
 10
193.788343
 20
896.1822199999996
 30
0.0
 11
200.0
 21
873.0
 31
0.0
  0
LINE
  5
1C8
330
1C0
100
AcDbEntity
  8
0
  6
Continuous
 62
     1
100
AcDbLine
 10
200.0
 20
873.0
 30
0.0
 11
206.211657
 21
896.1822199999996
 31
0.0
  0
TEXT
  5
1C9
330
1C0
100
AcDbEntity
  8
0
  6
Continuous
 62
     1
100
AcDbText
 10
196.0
 20
897.0
 30
0.0
 40
24.0
  1
12
 50
90.0
  7
EXCADSTD
100
AcDbText
  0
ENDBLK
  5
1CA
330
1C0
100
AcDbEntity
  8
0
100
AcDbBlockEnd
  0
ENDSEC
  0
SECTION
  2
ENTITIES
  0
LINE
  5
8E
330
A
100
AcDbEntity
  8
LAY-1
  6
Continuous
 62
     3
100
AcDbLine
 10
2313.086672
 20
66.0
 30
0.0
 11
87.0
 21
66.0
 31
0.0
  0
LINE
  5
8F
330
A
100
AcDbEntity
  8
LAY-1
  6
Continuous
 62
     3
100
AcDbLine
 10
2313.086672
 20
66.0
 30
0.0
 11
2313.086672
 21
1610.000032
 31
0.0
  0
LINE
  5
90
330
A
100
AcDbEntity
  8
LAY-1
  6
Continuous
 62
     3
100
AcDbLine
 10
87.0
 20
66.0
 30
0.0
 11
87.0
 21
1610.000032
 31
0.0
  0
LINE
  5
91
330
A
100
AcDbEntity
  8
LAY-1
  6
Continuous
 62
     3
100
AcDbLine
 10
87.0
 20
1610.000032
 30
0.0
 11
2313.086672
 21
1610.000032
 31
0.0
  0
POINT
  5
92
330
A
100
AcDbEntity
  8
LAY-1
  6
Continuous
 62
     5
100
AcDbPoint
 10
2313.086672
 20
66.0
 30
0.0
  0
POINT
  5
93
330
A
100
AcDbEntity
  8
LAY-1
  6
Continuous
 62
     5
100
AcDbPoint
 10
2313.086672
 20
134.0
 30
0.0
  0
POINT
  5
94
330
A
100
AcDbEntity
  8
LAY-1
  6
Continuous
 62
     5
100
AcDbPoint
 10
2313.086672
 20
66.0
 30
0.0
  0
POINT
  5
95
330
A
100
AcDbEntity
  8
LAY-1
  6
Continuous
 62
     5
100
AcDbPoint
 10
2313.086672
 20
202.0
 30
0.0
  0
POINT
  5
96
330
A
100
AcDbEntity
  8
LAY-1
  6
Continuous
 62
     5
100
AcDbPoint
 10
2313.086672
 20
66.0
 30
0.0
  0
POINT
  5
97
330
A
100
AcDbEntity
  8
LAY-1
  6
Continuous
 62
     5
100
AcDbPoint
 10
2313.086672
 20
270.0
 30
0.0
  0
POINT
  5
98
330
A
100
AcDbEntity
  8
LAY-1
  6
Continuous
 62
     5
100
AcDbPoint
 10
2313.086672
 20
66.0
 30
0.0
  0
POINT
  5
99
330
A
100
AcDbEntity
  8
LAY-1
  6
Continuous
 62
     5
100
AcDbPoint
 10
1225.086672
 20
66.00004799999999
 30
0.0
  0
POINT
  5
A2
330
A
100
AcDbEntity
  8
LAY-1
  6
Continuous
 62
     5
100
AcDbPoint
 10
2313.086672
 20
66.0
 30
0.0
  0
POINT
  5
A3
330
A
100
AcDbEntity
  8
LAY-1
  6
Continuous
 62
     5
100
AcDbPoint
 10
1905.086671999999
 20
66.0
 30
0.0
  0
POINT
  5
B9
330
A
100
AcDbEntity
  8
LAY-1
  6
Continuous
 62
     5
100
AcDbPoint
 10
1161.373535999999
 20
65.99984
 30
0.0
  0
POINT
  5
BA
330
A
100
AcDbEntity
  8
LAY-1
  6
Continuous
 62
     3
100
AcDbPoint
 10
1946.0
 20
847.0
 30
0.0
  0
POINT
  5
BB
330
A
100
AcDbEntity
  8
LAY-1
  6
Continuous
 62
     3
100
AcDbPoint
 10
2046.0
 20
842.0
 30
0.0
  0
POINT
  5
BC
330
A
100
AcDbEntity
  8
LAY-1
  6
Continuous
 62
     3
100
AcDbPoint
 10
2196.0
 20
842.0
 30
0.0
  0
LWPOLYLINE
  5
BD
330
A
100
AcDbEntity
  8
LAY-1
  6
Continuous
 62
     3
100
AcDbPolyline
 90
        7
 70
   128
 43
0.0
 10
2196.0
 20
842.0
 10
2196.0
 20
892.0
 10
2201.0
 20
892.0
 10
2201.0
 20
847.0
 10
2246.0
 20
847.0
 10
2246.0
 20
842.0
 10
2196.0
 20
842.0
  0
POINT
  5
C6
330
A
100
AcDbEntity
  8
LAY-1
  6
Continuous
 62
     1
100
AcDbPoint
 10
1846.0
 20
867.0
 30
0.0
  0
POINT
  5
C7
330
A
100
AcDbEntity
  8
LAY-1
  6
Continuous
 62
     1
100
AcDbPoint
 10
1496.0
 20
867.0
 30
0.0
  0
POINT
  5
C8
330
A
100
AcDbEntity
  8
LAY-1
  6
Continuous
 62
     1
100
AcDbPoint
 10
1146.0
 20
867.0
 30
0.0
  0
POINT
  5
C9
330
A
100
AcDbEntity
  8
LAY-1
  6
Continuous
 62
     1
100
AcDbPoint
 10
596.0
 20
867.0
 30
0.0
  0
POINT
  5
CA
330
A
100
AcDbEntity
  8
LAY-1
  6
Continuous
 62
     1
100
AcDbPoint
 10
946.0
 20
867.0
 30
0.0
  0
CIRCLE
  5
CB
330
A
100
AcDbEntity
  8
LAY-1
  6
Continuous
 62
     1
100
AcDbCircle
 10
1496.0
 20
867.0
 30
0.0
 40
6.0
  0
CIRCLE
  5
CC
330
A
100
AcDbEntity
  8
LAY-1
  6
Continuous
 62
     1
100
AcDbCircle
 10
1146.0
 20
867.0
 30
0.0
 40
6.0
  0
CIRCLE
  5
CD
330
A
100
AcDbEntity
  8
LAY-1
  6
Continuous
 62
     1
100
AcDbCircle
 10
1846.0
 20
867.0
 30
0.0
 40
6.0
  0
DIMENSION
  5
D9
330
A
100
AcDbEntity
  8
LAY-1
  6
Continuous
 62
     1
100
AcDbDimension
  2
*D8
 10
2117.0
 20
892.0
 30
0.0
 11
2101.0
 21
867.0
 31
0.0
 70
    32
 71
     5
 42
-1.0
  3
STANDARD
100
AcDbAlignedDimension
 13
2196.0
 23
842.0
 33
0.0
 14
2196.0
 24
892.0
 34
0.0
 50
90.0
100
AcDbRotatedDimension
1001
ACAD
1000
DSTYLE
1002
{
1070
     6
1000
_EX_NORM
1070
     7
1000
_EX_NORM
1070
    41
1040
24.0
1070
    42
1040
12.0
1070
    44
1040
12.0
1070
    73
1070
     0
1070
    74
1070
     0
1070
    75
1070
     0
1070
    76
1070
     0
1070
    77
1070
     1
1070
    78
1070
     8
1070
   140
1040
24.0
1070
   147
1040
4.0
1070
   173
1070
     1
1070
   176
1070
     1
1070
   177
1070
     1
1070
   178
1070
     1
1070
   271
1070
     3
1070
   280
1070
     0
1070
   287
1070
     3
1002
}
  0
DIMENSION
  5
E5
330
A
100
AcDbEntity
  8
LAY-1
  6
Continuous
 62
     1
100
AcDbDimension
  2
*D9
 10
2035.0
 20
867.0
 30
0.0
 11
2019.0
 21
794.0
 31
0.0
 70
    32
 71
     5
 42
-1.0
  3
STANDARD
100
AcDbAlignedDimension
 13
1946.0
 23
842.0
 33
0.0
 14
1846.0
 24
867.0
 34
0.0
 50
90.0
100
AcDbRotatedDimension
1001
ACAD
1000
DSTYLE
1002
{
1070
     6
1000
_EX_NORM
1070
     7
1000
_EX_NORM
1070
    41
1040
24.0
1070
    42
1040
12.0
1070
    44
1040
12.0
1070
    73
1070
     0
1070
    74
1070
     0
1070
    75
1070
     0
1070
    76
1070
     0
1070
    77
1070
     1
1070
    78
1070
     8
1070
   140
1040
24.0
1070
   147
1040
4.0
1070
   173
1070
     1
1070
   176
1070
     1
1070
   177
1070
     1
1070
   178
1070
     1
1070
   271
1070
     3
1070
   280
1070
     1
1070
   287
1070
     3
1002
}
  0
DIMENSION
  5
F1
330
A
100
AcDbEntity
  8
LAY-1
  6
Continuous
 62
     1
100
AcDbDimension
  2
*D10
 10
2196.0
 20
767.0
 30
0.0
 11
2221.0
 21
783.0
 31
0.0
 70
    32
 71
     5
 42
-1.0
  3
STANDARD
100
AcDbAlignedDimension
 13
2246.0
 23
842.0
 33
0.0
 14
2196.0
 24
842.0
 34
0.0
100
AcDbRotatedDimension
1001
ACAD
1000
DSTYLE
1002
{
1070
     6
1000
_EX_NORM
1070
     7
1000
_EX_NORM
1070
    41
1040
24.0
1070
    42
1040
12.0
1070
    44
1040
12.0
1070
    73
1070
     0
1070
    74
1070
     0
1070
    75
1070
     0
1070
    76
1070
     0
1070
    77
1070
     1
1070
    78
1070
     8
1070
   140
1040
24.0
1070
   147
1040
4.0
1070
   173
1070
     1
1070
   176
1070
     1
1070
   177
1070
     1
1070
   178
1070
     1
1070
   271
1070
     3
1070
   280
1070
     0
1070
   287
1070
     3
1002
}
  0
DIMENSION
  5
FD
330
A
100
AcDbEntity
  8
LAY-1
  6
Continuous
 62
     1
100
AcDbDimension
  2
*D11
 10
146.0
 20
1061.0
 30
0.0
 11
1046.0
 21
1077.0
 31
0.0
 70
    32
  1
2600
 71
     5
 42
-1.0
  3
STANDARD
100
AcDbAlignedDimension
 13
1946.0
 23
892.0
 33
0.0
 14
146.0
 24
892.0
 34
0.0
100
AcDbRotatedDimension
1001
ACAD
1000
DSTYLE
1002
{
1070
     6
1000
_EX_NORM
1070
     7
1000
_EX_NORM
1070
    41
1040
24.0
1070
    42
1040
12.0
1070
    44
1040
12.0
1070
    73
1070
     0
1070
    74
1070
     0
1070
    75
1070
     0
1070
    76
1070
     0
1070
    77
1070
     1
1070
    78
1070
     8
1070
   140
1040
24.0
1070
   147
1040
4.0
1070
   173
1070
     1
1070
   176
1070
     1
1070
   177
1070
     1
1070
   178
1070
     1
1070
   271
1070
     3
1070
   280
1070
     0
1070
   287
1070
     3
1002
}
  0
DIMENSION
  5
109
330
A
100
AcDbEntity
  8
LAY-1
  6
Continuous
 62
     1
100
AcDbDimension
  2
*D12
 10
246.0
 20
986.0
 30
0.0
 11
196.0
 21
1002.0
 31
0.0
 70
    32
 71
     5
 42
-1.0
  3
STANDARD
100
AcDbAlignedDimension
 13
146.0
 23
892.0
 33
0.0
 14
246.0
 24
867.0
 34
0.0
100
AcDbRotatedDimension
1001
ACAD
1000
DSTYLE
1002
{
1070
     6
1000
_EX_NORM
1070
     7
1000
_EX_NORM
1070
    41
1040
24.0
1070
    42
1040
12.0
1070
    44
1040
12.0
1070
    73
1070
     0
1070
    74
1070
     0
1070
    75
1070
     0
1070
    76
1070
     0
1070
    77
1070
     1
1070
    78
1070
     8
1070
   140
1040
24.0
1070
   147
1040
4.0
1070
   173
1070
     1
1070
   176
1070
     1
1070
   177
1070
     1
1070
   178
1070
     1
1070
   271
1070
     3
1070
   280
1070
     0
1070
   287
1070
     3
1002
}
  0
DIMENSION
  5
114
330
A
100
AcDbEntity
  8
LAY-1
  6
Continuous
 62
     1
100
AcDbDimension
  2
*D13
 10
596.0
 20
986.0
 30
0.0
 11
421.0
 21
1002.0
 31
0.0
 70
    32
 71
     5
 42
-1.0
  3
STANDARD
100
AcDbAlignedDimension
 13
246.0
 23
867.0
 33
0.0
 14
596.0
 24
867.0
 34
0.0
100
AcDbRotatedDimension
1001
ACAD
1000
DSTYLE
1002
{
1070
     6
1000
_EX_NORM
1070
     7
1000
_EX_NORM
1070
    41
1040
24.0
1070
    42
1040
12.0
1070
    44
1040
12.0
1070
    73
1070
     0
1070
    74
1070
     0
1070
    75
1070
     1
1070
    76
1070
     0
1070
    77
1070
     1
1070
    78
1070
     8
1070
   140
1040
24.0
1070
   147
1040
4.0
1070
   173
1070
     1
1070
   176
1070
     1
1070
   177
1070
     1
1070
   178
1070
     1
1070
   271
1070
     3
1070
   280
1070
     0
1070
   287
1070
     3
1002
}
  0
DIMENSION
  5
11F
330
A
100
AcDbEntity
  8
LAY-1
  6
Continuous
 62
     1
100
AcDbDimension
  2
*D14
 10
946.0
 20
986.0
 30
0.0
 11
771.0
 21
1002.0
 31
0.0
 70
    32
 71
     5
 42
-1.0
  3
STANDARD
100
AcDbAlignedDimension
 13
596.0
 23
867.0
 33
0.0
 14
946.0
 24
867.0
 34
0.0
100
AcDbRotatedDimension
1001
ACAD
1000
DSTYLE
1002
{
1070
     6
1000
_EX_NORM
1070
     7
1000
_EX_NORM
1070
    41
1040
24.0
1070
    42
1040
12.0
1070
    44
1040
12.0
1070
    73
1070
     0
1070
    74
1070
     0
1070
    75
1070
     1
1070
    76
1070
     0
1070
    77
1070
     1
1070
    78
1070
     8
1070
   140
1040
24.0
1070
   147
1040
4.0
1070
   173
1070
     1
1070
   176
1070
     1
1070
   177
1070
     1
1070
   178
1070
     1
1070
   271
1070
     3
1070
   280
1070
     0
1070
   287
1070
     3
1002
}
  0
DIMENSION
  5
12A
330
A
100
AcDbEntity
  8
LAY-1
  6
Continuous
 62
     1
100
AcDbDimension
  2
*D15
 10
1146.0
 20
986.0
 30
0.0
 11
1046.0
 21
1002.0
 31
0.0
 70
    32
  1
1000
 71
     5
 42
-1.0
  3
STANDARD
100
AcDbAlignedDimension
 13
946.0
 23
867.0
 33
0.0
 14
1146.0
 24
867.0
 34
0.0
100
AcDbRotatedDimension
1001
ACAD
1000
DSTYLE
1002
{
1070
     6
1000
_EX_NORM
1070
     7
1000
_EX_NORM
1070
    41
1040
24.0
1070
    42
1040
12.0
1070
    44
1040
12.0
1070
    73
1070
     0
1070
    74
1070
     0
1070
    75
1070
     1
1070
    76
1070
     0
1070
    77
1070
     1
1070
    78
1070
     8
1070
   140
1040
24.0
1070
   147
1040
4.0
1070
   173
1070
     1
1070
   176
1070
     1
1070
   177
1070
     1
1070
   178
1070
     1
1070
   271
1070
     3
1070
   280
1070
     0
1070
   287
1070
     3
1002
}
  0
DIMENSION
  5
135
330
A
100
AcDbEntity
  8
LAY-1
  6
Continuous
 62
     1
100
AcDbDimension
  2
*D16
 10
1496.0
 20
986.0
 30
0.0
 11
1321.0
 21
1002.0
 31
0.0
 70
    32
 71
     5
 42
-1.0
  3
STANDARD
100
AcDbAlignedDimension
 13
1146.0
 23
867.0
 33
0.0
 14
1496.0
 24
867.0
 34
0.0
100
AcDbRotatedDimension
1001
ACAD
1000
DSTYLE
1002
{
1070
     6
1000
_EX_NORM
1070
     7
1000
_EX_NORM
1070
    41
1040
24.0
1070
    42
1040
12.0
1070
    44
1040
12.0
1070
    73
1070
     0
1070
    74
1070
     0
1070
    75
1070
     1
1070
    76
1070
     0
1070
    77
1070
     1
1070
    78
1070
     8
1070
   140
1040
24.0
1070
   147
1040
4.0
1070
   173
1070
     1
1070
   176
1070
     1
1070
   177
1070
     1
1070
   178
1070
     1
1070
   271
1070
     3
1070
   280
1070
     0
1070
   287
1070
     3
1002
}
  0
DIMENSION
  5
140
330
A
100
AcDbEntity
  8
LAY-1
  6
Continuous
 62
     1
100
AcDbDimension
  2
*D17
 10
1846.0
 20
986.0
 30
0.0
 11
1671.0
 21
1002.0
 31
0.0
 70
    32
 71
     5
 42
-1.0
  3
STANDARD
100
AcDbAlignedDimension
 13
1496.0
 23
867.0
 33
0.0
 14
1846.0
 24
867.0
 34
0.0
100
AcDbRotatedDimension
1001
ACAD
1000
DSTYLE
1002
{
1070
     6
1000
_EX_NORM
1070
     7
1000
_EX_NORM
1070
    41
1040
24.0
1070
    42
1040
12.0
1070
    44
1040
12.0
1070
    73
1070
     0
1070
    74
1070
     0
1070
    75
1070
     1
1070
    76
1070
     0
1070
    77
1070
     1
1070
    78
1070
     8
1070
   140
1040
24.0
1070
   147
1040
4.0
1070
   173
1070
     1
1070
   176
1070
     1
1070
   177
1070
     1
1070
   178
1070
     1
1070
   271
1070
     3
1070
   280
1070
     0
1070
   287
1070
     3
1002
}
  0
DIMENSION
  5
14B
330
A
100
AcDbEntity
  8
LAY-1
  6
Continuous
 62
     1
100
AcDbDimension
  2
*D18
 10
1946.0
 20
986.0
 30
0.0
 11
1896.0
 21
1002.0
 31
0.0
 70
    32
 71
     5
 42
-1.0
  3
STANDARD
100
AcDbAlignedDimension
 13
1846.0
 23
867.0
 33
0.0
 14
1946.0
 24
892.0
 34
0.0
100
AcDbRotatedDimension
1001
ACAD
1000
DSTYLE
1002
{
1070
     6
1000
_EX_NORM
1070
     7
1000
_EX_NORM
1070
    41
1040
24.0
1070
    42
1040
12.0
1070
    44
1040
12.0
1070
    73
1070
     0
1070
    74
1070
     0
1070
    75
1070
     1
1070
    76
1070
     0
1070
    77
1070
     1
1070
    78
1070
     8
1070
   140
1040
24.0
1070
   147
1040
4.0
1070
   173
1070
     1
1070
   176
1070
     1
1070
   177
1070
     1
1070
   178
1070
     1
1070
   271
1070
     3
1070
   280
1070
     0
1070
   287
1070
     3
1002
}
  0
LWPOLYLINE
  5
14C
330
A
100
AcDbEntity
  8
LAY-1
  6
Continuous
 62
     3
100
AcDbPolyline
 90
       34
 70
   128
 43
0.0
 10
1045.0
 20
892.0
 10
1044.728341999998
 20
891.7667470000001
 10
1043.975749
 20
891.1007859999998
 10
1042.835796
 20
890.0528119999997
 10
1041.402056
 20
888.67352
 10
1039.768102
 20
887.0136050000001
 10
1038.027507
 20
885.123764
 10
1036.273846
 20
883.0546920000001
 10
1034.600691
 20
880.8570839999999
 10
1033.101615999999
 20
878.5816359999996
 10
1031.870194999998
 20
876.279043
 10
1031.0
 20
874.0
 10
1030.626924999998
 20
872.339389
 10
1030.458187
 20
870.715591
 10
1030.444483999999
 20
869.124011
 10
1030.536517
 20
867.560057
 10
1030.684983
 20
866.019134
 10
1030.84058
 20
864.496648
 10
1030.954007999999
 20
862.9880060000001
 10
1030.975965999998
 20
861.4886140000001
 10
1030.857150999999
 20
859.9938779999996
 10
1030.548263
 20
858.499205
 10
1030.0
 20
857.0
 10
1028.851052999999
 20
854.9969390000001
 10
1027.298541
 20
853.0137179999996
 10
1025.450551
 20
851.0863539999999
 10
1023.415172
 20
849.2508589999998
 10
1021.300491
 20
847.54325
 10
1019.214597
 20
845.99954
 10
1017.265576
 20
844.6557449999996
 10
1015.561519
 20
843.547878
 10
1014.210511
 20
842.7119560000001
 10
1013.320642999999
 20
842.1839909999999
 10
1013.0
 20
842.0
  0
LWPOLYLINE
  5
170
330
A
100
AcDbEntity
  8
LAY-1
  6
Continuous
 62
     3
100
AcDbPolyline
 90
       34
 70
   128
 43
0.0
 10
1074.0
 20
892.0
 10
1073.728341999999
 20
891.7667470000001
 10
1072.975749
 20
891.1007859999998
 10
1071.835796
 20
890.0528119999997
 10
1070.402056
 20
888.67352
 10
1068.768101999998
 20
887.0136050000001
 10
1067.027507
 20
885.123764
 10
1065.273845999999
 20
883.0546920000001
 10
1063.600691
 20
880.8570839999999
 10
1062.101616
 20
878.5816359999996
 10
1060.870195
 20
876.279043
 10
1060.0
 20
874.0
 10
1059.626925
 20
872.339389
 10
1059.458186999999
 20
870.715591
 10
1059.444483999999
 20
869.124011
 10
1059.536517
 20
867.560057
 10
1059.684983
 20
866.019134
 10
1059.84058
 20
864.496648
 10
1059.954007999998
 20
862.9880060000001
 10
1059.975966
 20
861.4886140000001
 10
1059.857150999998
 20
859.9938779999996
 10
1059.548263
 20
858.499205
 10
1059.0
 20
857.0
 10
1057.851053
 20
854.9969390000001
 10
1056.298541
 20
853.0137179999996
 10
1054.450550999999
 20
851.0863539999999
 10
1052.415172
 20
849.2508589999998
 10
1050.300491
 20
847.54325
 10
1048.214597
 20
845.99954
 10
1046.265576
 20
844.6557449999996
 10
1044.561518999999
 20
843.547878
 10
1043.210511
 20
842.7119560000001
 10
1042.320643
 20
842.1839909999999
 10
1042.0
 20
842.0
  0
LWPOLYLINE
  5
194
330
A
100
AcDbEntity
  8
LAY-1
  6
Continuous
 62
     3
100
AcDbPolyline
 90
        3
 70
   128
 43
0.0
 10
1044.599999999999
 20
892.0
 10
146.0
 20
892.0
 10
146.0
 20
842.0
  0
LINE
  5
199
330
A
100
AcDbEntity
  8
LAY-1
  6
Continuous
 62
     3
100
AcDbLine
 10
146.0
 20
842.0
 30
0.0
 11
1013.1
 21
842.0
 31
0.0
  0
LWPOLYLINE
  5
19A
330
A
100
AcDbEntity
  8
LAY-1
  6
Continuous
 62
     3
100
AcDbPolyline
 90
        4
 70
   128
 43
0.0
 10
1041.9
 20
842.0
 10
1946.0
 20
842.0
 10
1946.0
 20
892.0
 10
1073.499999999999
 20
892.0
  0
LINE
  5
1A0
330
A
100
AcDbEntity
  8
LAY-1
  6
DOT
 62
     1
100
AcDbLine
 10
1946.0
 20
847.0
 30
0.0
 11
1049.2
 21
847.0
 31
0.0
  0
LINE
  5
1A1
330
A
100
AcDbEntity
  8
LAY-1
  6
DOT
 62
     1
100
AcDbLine
 10
1020.6
 20
847.0
 30
0.0
 11
146.0
 21
847.0
 31
0.0
  0
POINT
  5
1A2
330
A
100
AcDbEntity
  8
LAY-1
  6
Continuous
 62
     3
100
AcDbPoint
 10
256.0
 20
873.0
 30
0.0
  0
POINT
  5
1A3
330
A
100
AcDbEntity
  8
LAY-1
  6
Continuous
 62
     3
100
AcDbPoint
 10
256.0
 20
861.0
 30
0.0
  0
LINE
  5
1A4
330
A
100
AcDbEntity
  8
LAY-1
  6
Continuous
 62
     1
100
AcDbLine
 10
256.0
 20
873.0
 30
0.0
 11
236.0
 21
873.0
 31
0.0
  0
LINE
  5
1A5
330
A
100
AcDbEntity
  8
LAY-1
  6
Continuous
 62
     1
100
AcDbLine
 10
256.0
 20
861.0
 30
0.0
 11
236.0
 21
861.0
 31
0.0
  0
ARC
  5
1A6
330
A
100
AcDbEntity
  8
LAY-1
  6
Continuous
 62
     1
100
AcDbCircle
 10
236.0
 20
867.0
 30
0.0
 40
6.0
100
AcDbArc
 50
90.0
 51
270.0
  0
ARC
  5
1A7
330
A
100
AcDbEntity
  8
LAY-1
  6
Continuous
 62
     1
100
AcDbCircle
 10
256.0
 20
867.0
 30
0.0
 40
6.0
100
AcDbArc
 50
270.0
 51
90.0
  0
POINT
  5
1A8
330
A
100
AcDbEntity
  8
LAY-1
  6
Continuous
 62
     3
100
AcDbPoint
 10
606.0
 20
873.0
 30
0.0
  0
POINT
  5
1A9
330
A
100
AcDbEntity
  8
LAY-1
  6
Continuous
 62
     3
100
AcDbPoint
 10
606.0
 20
861.0
 30
0.0
  0
LINE
  5
1AA
330
A
100
AcDbEntity
  8
LAY-1
  6
Continuous
 62
     1
100
AcDbLine
 10
606.0
 20
873.0
 30
0.0
 11
586.0
 21
873.0
 31
0.0
  0
LINE
  5
1AB
330
A
100
AcDbEntity
  8
LAY-1
  6
Continuous
 62
     1
100
AcDbLine
 10
606.0
 20
861.0
 30
0.0
 11
586.0
 21
861.0
 31
0.0
  0
ARC
  5
1AC
330
A
100
AcDbEntity
  8
LAY-1
  6
Continuous
 62
     1
100
AcDbCircle
 10
586.0
 20
867.0
 30
0.0
 40
6.0
100
AcDbArc
 50
90.0
 51
270.0
  0
ARC
  5
1AD
330
A
100
AcDbEntity
  8
LAY-1
  6
Continuous
 62
     1
100
AcDbCircle
 10
606.0
 20
867.0
 30
0.0
 40
6.0
100
AcDbArc
 50
270.0
 51
90.0
  0
POINT
  5
1AE
330
A
100
AcDbEntity
  8
LAY-1
  6
Continuous
 62
     3
100
AcDbPoint
 10
956.0
 20
873.0
 30
0.0
  0
POINT
  5
1AF
330
A
100
AcDbEntity
  8
LAY-1
  6
Continuous
 62
     3
100
AcDbPoint
 10
956.0
 20
861.0
 30
0.0
  0
LINE
  5
1B0
330
A
100
AcDbEntity
  8
LAY-1
  6
Continuous
 62
     1
100
AcDbLine
 10
956.0
 20
873.0
 30
0.0
 11
936.0
 21
873.0
 31
0.0
  0
LINE
  5
1B1
330
A
100
AcDbEntity
  8
LAY-1
  6
Continuous
 62
     1
100
AcDbLine
 10
956.0
 20
861.0
 30
0.0
 11
936.0
 21
861.0
 31
0.0
  0
ARC
  5
1B2
330
A
100
AcDbEntity
  8
LAY-1
  6
Continuous
 62
     1
100
AcDbCircle
 10
936.0
 20
867.0
 30
0.0
 40
6.0
100
AcDbArc
 50
90.0
 51
270.0
  0
ARC
  5
1B3
330
A
100
AcDbEntity
  8
LAY-1
  6
Continuous
 62
     1
100
AcDbCircle
 10
956.0
 20
867.0
 30
0.0
 40
6.0
100
AcDbArc
 50
270.0
 51
90.0
  0
DIMENSION
  5
1BF
330
A
100
AcDbEntity
  8
LAY-1
  6
Continuous
 62
     1
100
AcDbDimension
  2
*D19
 10
236.0
 20
776.0
 30
0.0
 11
304.0
 21
792.0
 31
0.0
 70
    32
 71
     5
 42
-1.0
  3
STANDARD
100
AcDbAlignedDimension
 13
256.0
 23
861.0
 33
0.0
 14
236.0
 24
861.0
 34
0.0
100
AcDbRotatedDimension
1001
ACAD
1000
DSTYLE
1002
{
1070
     6
1000
_EX_NORM
1070
     7
1000
_EX_NORM
1070
    41
1040
24.0
1070
    42
1040
12.0
1070
    44
1040
12.0
1070
    73
1070
     0
1070
    74
1070
     0
1070
    75
1070
     0
1070
    76
1070
     0
1070
    77
1070
     1
1070
    78
1070
     8
1070
   140
1040
24.0
1070
   147
1040
4.0
1070
   173
1070
     1
1070
   176
1070
     1
1070
   177
1070
     1
1070
   178
1070
     1
1070
   271
1070
     3
1070
   280
1070
     1
1070
   287
1070
     3
1002
}
  0
DIMENSION
  5
1CB
330
A
100
AcDbEntity
  8
LAY-1
  6
Continuous
 62
     1
100
AcDbDimension
  2
*D20
 10
200.0
 20
873.0
 30
0.0
 11
184.0
 21
921.0
 31
0.0
 70
    32
 71
     5
 42
-1.0
  3
STANDARD
100
AcDbAlignedDimension
 13
236.0
 23
861.0
 33
0.0
 14
236.0
 24
873.0
 34
0.0
 50
90.0
100
AcDbRotatedDimension
1001
ACAD
1000
DSTYLE
1002
{
1070
     6
1000
_EX_NORM
1070
     7
1000
_EX_NORM
1070
    41
1040
24.0
1070
    42
1040
12.0
1070
    44
1040
12.0
1070
    73
1070
     0
1070
    74
1070
     0
1070
    75
1070
     0
1070
    76
1070
     0
1070
    77
1070
     1
1070
    78
1070
     8
1070
   140
1040
24.0
1070
   147
1040
4.0
1070
   173
1070
     1
1070
   176
1070
     1
1070
   177
1070
     1
1070
   178
1070
     1
1070
   271
1070
     3
1070
   280
1070
     2
1070
   287
1070
     3
1002
}
  0
TEXT
  5
1CC
330
A
100
AcDbEntity
  8
LAY-1
  6
Continuous
 62
     1
100
AcDbText
 10
1257.888082
 20
731.293418
 30
0.0
 40
24.0
  1
3 - φ12
 41
0.8241758241758239
  7
EXCADSTD
 72
     5
 11
1377.888082
 21
731.293418
 31
0.0
100
AcDbText
  0
LEADER
  5
1CD
330
A
100
AcDbEntity
  8
LAY-1
  6
Continuous
 62
     1
100
AcDbLeader
  3
STANDARD
 76
     3
 10
1149.086975
 20
861.855042
 30
0.0
 10
1226.776164
 20
727.293418
 30
0.0
 10
1409.0
 20
727.293418
 30
0.0
1001
ACAD
1000
DSTYLE
1002
{
1070
    41
1040
24.0
1070
     5
1000
_EX_NORM
1070
     6
1000
_EX_NORM
1070
     7
1000
_EX_NORM
1002
}
  0
TEXT
  5
1D5
330
A
100
AcDbEntity
  8
LAY-1
  6
Continuous
 62
     1
100
AcDbText
 10
409.0
 20
467.0
 30
0.0
 40
40.0
  1
4t*50 L-angle
 41
1.059782608695651
  7
EXCADSTD
 72
     5
 11
929.0
 21
467.0
 31
0.0
100
AcDbText
  0
MTEXT
  5
24F
330
A
100
AcDbEntity
  8
LAY-1
  6
Continuous
100
AcDbMText
 10
124.203489041948
 20
232.4312823125163
 30
0.0
 40
30.0
 41
1147.503980086485
 71
     1
 72
     5
  1
MATERIAL : BRASS (SUS304)\P2 REQUIRED (the other one is SYMMETRY)
 73
     1
 44
1.0
  0
MTEXT
  5
25A
330
A
100
AcDbEntity
  8
LAY-1
  6
Continuous
100
AcDbMText
 10
1722.798639339768
 20
179.0906338121317
 30
0.0
 40
18.0
 41
200.0
 71
     1
 72
     5
  1
PHENIX\PDRAWUNG NO.
 73
     1
 44
1.0
  0
MTEXT
  5
25B
330
A
100
AcDbEntity
  8
LAY-1
  6
Continuous
100
AcDbMText
 10
1722.372844451749
 20
101.1748655956067
 30
0.0
 40
18.0
 41
191.3840999999998
 71
     1
 72
     5
  1
DRAWING NO.
 73
     1
 44
1.0
  0
LINE
  5
25C
330
A
100
AcDbEntity
  8
LAY-1
  6
Continuous
370
   100
100
AcDbLine
 10
2313.08666962861
 20
125.9999999999999
 30
0.0
 11
1313.08666962861
 21
125.9999604768547
 31
0.0
210
0.0
220
0.0
230
-1.0
  0
LINE
  5
25D
330
A
100
AcDbEntity
  8
LAY-1
  6
Continuous
370
   100
100
AcDbLine
 10
2313.086667257222
 20
185.9999999999995
 30
0.0
 11
1313.086667257223
 21
185.9999604768547
 31
0.0
210
0.0
220
0.0
230
-1.0
  0
LINE
  5
25E
330
A
100
AcDbEntity
  8
LAY-1
  6
Continuous
370
   100
100
AcDbLine
 10
2313.086664885834
 20
245.9999999999998
 30
0.0
 11
1313.086664885833
 21
245.9999604768547
 31
0.0
210
0.0
220
0.0
230
-1.0
  0
MTEXT
  5
25F
330
A
100
AcDbEntity
  8
LAY-1
  6
Continuous
100
AcDbMText
 10
1437.28017254988
 20
237.3470885063665
 30
0.0
 40
20.0
 41
79.7393
 71
     1
 72
     5
  1
{\fArial|b1|i1|c0|p34;mm}
 73
     1
 44
1.0
  0
MTEXT
  5
260
330
A
100
AcDbEntity
  8
LAY-1
  6
Continuous
100
AcDbMText
 10
1419.083792718742
 20
202.2790604111154
 30
0.0
 40
10.0
 41
79.7393
 71
     1
 72
     5
  1
{\fArial|b0|i0|c0|p34;MILLIMETERS}
 73
     1
 44
1.0
  0
MTEXT
  5
261
330
A
100
AcDbEntity
  8
LAY-1
  6
Continuous
100
AcDbMText
 10
1327.01176374285
 20
117.1737787408069
 30
0.0
 40
15.0
 41
386.9692999999998
 71
     1
 72
     5
  1
{\fArial|b0|i0|c0|p34;JUL 31 2001\P\fArial|b1|i0|c0|p34;\H1.2x;CI \fMS UI Gothic|b1|i0|c0|p17; \fArial|b1|i0|c0|p34;INDUSTRIES, LTD. (JAPAN)}
 73
     1
 44
1.0
  0
MTEXT
  5
262
330
A
100
AcDbEntity
  8
LAY-1
  6
Continuous
100
AcDbMText
 10
1353.638094310831
 20
182.8052629173614
 30
0.0
 40
18.0
 41
335.4916928731971
 71
     1
 72
     5
  1
{\fArial|b1|i0|c0|p34;PHENIX TOC IN TSUKUBA\P\fArial|b0|i0|c0|p34;\H0.6667x;Dept. of Physics , Tsukuba Univ.  Japan}
 73
     1
 44
1.0
  0
LINE
  5
263
330
A
100
AcDbEntity
  8
LAY-1
  6
Continuous
370
   100
100
AcDbLine
 10
1413.086664885834
 20
245.999964429169
 30
0.0
 11
1413.086667257221
 21
185.999964429169
 31
0.0
210
0.0
220
0.0
230
-1.0
  0
LINE
  5
264
330
A
100
AcDbEntity
  8
LAY-1
  6
Continuous
370
   100
100
AcDbLine
 10
1313.086664885833
 20
245.9999604768545
 30
0.0
 11
1313.086672
 21
65.99996047685479
 31
0.0
210
0.0
220
0.0
230
-1.0
  0
MTEXT
  5
265
330
A
100
AcDbEntity
  8
LAY-1
  6
Continuous
100
AcDbMText
 10
1324.249211768838
 20
225.1744224773585
 30
0.0
 40
20.0
 41
79.73926402451667
 71
     1
 72
     5
  1
UNIT
 73
     1
 44
1.0
  0
MTEXT
  5
266
330
A
100
AcDbEntity
  8
LAY-1
  6
Continuous
100
AcDbMText
 10
1640.729778605596
 20
224.3476331807543
 30
0.0
 40
20.0
 41
79.7393
 71
     1
 72
     5
  1
{\fArial|b1|i0|c0|p34;1:1}
 73
     1
 44
1.0
  0
LINE
  5
267
330
A
100
AcDbEntity
  8
LAY-1
  6
Continuous
370
   100
100
AcDbLine
 10
1613.086664885834
 20
245.9999723337979
 30
0.0
 11
1613.086667257222
 21
185.999972333798
 31
0.0
210
0.0
220
0.0
230
-1.0
  0
LINE
  5
268
330
A
100
AcDbEntity
  8
LAY-1
  6
Continuous
370
   100
100
AcDbLine
 10
1513.086664885833
 20
245.9999683814834
 30
0.0
 11
1513.086667257222
 21
185.9999683814836
 31
0.0
210
0.0
220
0.0
230
-1.0
  0
MTEXT
  5
269
330
A
100
AcDbEntity
  8
LAY-1
  6
Continuous
100
AcDbMText
 10
1520.885120743031
 20
226.9082604757229
 30
0.0
 40
20.0
 41
99.99999997337596
 71
     1
 72
     5
  1
{\fMS UI Gothic|b0|i0|c0|p17;SCALE}
 73
     1
 44
1.0
  0
LINE
  5
26A
330
A
100
AcDbEntity
  8
LAY-1
  6
Continuous
370
   100
100
AcDbLine
 10
1713.086664885834
 20
245.9999762861126
 30
0.0
 11
1713.086664885834
 21
65.99993400000002
 31
0.0
210
0.0
220
0.0
230
-1.0
  0
MTEXT
  5
26B
330
A
100
AcDbEntity
  8
LAY-1
  6
Continuous
100
AcDbMText
 10
1749.37978070866
 20
225.513308343757
 30
0.0
 40
20.0
 41
200.0
 71
     1
 72
     5
  1
TITLE
 73
     1
 44
1.0
  0
MTEXT
  5
26C
330
A
100
AcDbEntity
  8
LAY-1
  6
Continuous
100
AcDbMText
 10
1939.340298614201
 20
231.2506979829963
 30
0.0
 40
30.0
 41
332.0661918138804
 71
     1
 72
     5
  1
{\fArial|b1|i0|c0|p34;connection bar}
 73
     1
 44
1.0
  0
MTEXT
  5
26D
330
A
100
AcDbEntity
  8
LAY-1
  6
Continuous
100
AcDbMText
 10
1985.764797435205
 20
173.626132996567
 30
0.0
 40
30.0
 41
279.5142999999999
 71
     1
 72
     5
  1
{\fArial|b1|i0|c0|p34;105-219-304}
 73
     1
 44
1.0
  0
LINE
  5
26E
330
A
100
AcDbEntity
  8
LAY-1
  6
Continuous
100
AcDbLine
 10
1913.086664885834
 20
245.9999762861126
 30
0.0
 11
1913.086664885834
 21
65.99993400000002
 31
0.0
210
0.0
220
0.0
230
-1.0
  0
MTEXT
  5
26F
330
A
100
AcDbEntity
  8
LAY-1
  6
Continuous
100
AcDbMText
 10
2047.70651432058
 20
105.1654019275547
 30
0.0
 40
20.0
 41
107.8721
 71
     1
 72
     5
  1
035
 73
     1
 44
1.0
  0
ENDSEC
  0
SECTION
  2
OBJECTS
  0
DICTIONARY
  5
19
330
0
100
AcDbDictionary
281
     1
  3
ACAD_GROUP
350
1A
  3
ACAD_LAYOUT
350
1DF
  3
ACAD_MLINESTYLE
350
1B
  3
ACAD_PLOTSETTINGS
350
1E0
  3
ACAD_PLOTSTYLENAME
350
1DD
  3
ASE_INDEX_DICTIONARY
350
271
  0
DICTIONARY
  5
1A
102
{ACAD_REACTORS
330
19
102
}
330
19
100
AcDbDictionary
281
     1
  0
DICTIONARY
  5
1DF
102
{ACAD_REACTORS
330
19
102
}
330
19
100
AcDbDictionary
281
     1
  3
Model
350
1E1
  3
ﾚｲｱｳﾄ1
350
1E2
  0
DICTIONARY
  5
1B
102
{ACAD_REACTORS
330
19
102
}
330
19
100
AcDbDictionary
281
     1
  3
STANDARD
350
1C
  0
DICTIONARY
  5
1E0
102
{ACAD_REACTORS
330
19
102
}
330
19
100
AcDbDictionary
281
     1
  0
ACDBDICTIONARYWDFLT
  5
1DD
102
{ACAD_REACTORS
330
19
102
}
330
19
100
AcDbDictionary
281
     1
  3
Normal
350
1DE
100
AcDbDictionaryWithDefault
340
1DE
  0
DICTIONARY
  5
271
102
{ACAD_REACTORS
330
19
102
}
330
19
100
AcDbDictionary
281
     1
  3
ASEBlockHierarchyIndexRecord
350
273
1001
DCO15
1040
1413144070.171
  0
LAYOUT
  5
1E1
102
{ACAD_REACTORS
330
1DF
102
}
330
1DF
100
AcDbPlotSettings
  1

  2
Tektronix Phaser 850DP
  4

  6

 40
0.0
 41
0.0
 42
0.0
 43
0.0
 44
0.0
 45
0.0
 46
0.0
 47
0.0
 48
0.0
 49
0.0
140
0.0
141
0.0
142
1.0
143
1.0
 70
  1712
 72
     0
 73
     0
 74
     0
  7

 75
     0
147
1.0
148
0.0
149
0.0
100
AcDbLayout
  1
Model
 70
     1
 71
     0
 10
0.0
 20
0.0
 11
12.0
 21
9.0
 12
0.0
 22
0.0
 32
0.0
 14
0.0
 24
0.0
 34
0.0
 15
0.0
 25
0.0
 35
0.0
146
0.0
 13
0.0
 23
0.0
 33
0.0
 16
1.0
 26
0.0
 36
0.0
 17
0.0
 27
1.0
 37
0.0
 76
     0
330
A
  0
LAYOUT
  5
1E2
102
{ACAD_REACTORS
330
1DF
102
}
330
1DF
100
AcDbPlotSettings
  1

  2
Tektronix Phaser 850DP
  4

  6

 40
0.0
 41
0.0
 42
0.0
 43
0.0
 44
0.0
 45
0.0
 46
0.0
 47
0.0
 48
0.0
 49
0.0
140
0.0
141
0.0
142
1.0
143
1.0
 70
   688
 72
     0
 73
     0
 74
     5
  7

 75
    16
147
1.0
148
0.0
149
0.0
100
AcDbLayout
  1
ﾚｲｱｳﾄ1
 70
     0
 71
     1
 10
0.0
 20
0.0
 11
12.0
 21
9.0
 12
0.0
 22
0.0
 32
0.0
 14
1.000000000000000E+20
 24
1.000000000000000E+20
 34
1.000000000000000E+20
 15
-1.000000000000000E+20
 25
-1.000000000000000E+20
 35
-1.000000000000000E+20
146
0.0
 13
0.0
 23
0.0
 33
0.0
 16
1.0
 26
0.0
 36
0.0
 17
0.0
 27
1.0
 37
0.0
 76
     0
330
B
  0
MLINESTYLE
  5
1C
102
{ACAD_REACTORS
330
1B
102
}
330
1B
100
AcDbMlineStyle
  2
STANDARD
 70
     0
  3

 62
     0
 51
90.0
 52
90.0
 71
     2
 49
0.5
 62
   256
  6
BYLAYER
 49
-0.5
 62
   256
  6
BYLAYER
  0
ACDBPLACEHOLDER
  5
1DE
102
{ACAD_REACTORS
330
1DD
102
}
330
1DD
  0
XRECORD
  5
273
102
{ACAD_REACTORS
330
271
102
}
330
271
100
AcDbXrecord
280
     1
  0
ENDSEC
  0
EOF
