  0
SECTION
  2
HEADER
  9
$ACADVER
  1
AC1015
  9
$ACADMAINTVER
 70
    10
  9
$DWGCODEPAGE
  3
ANSI_932
  9
$INSBASE
 10
0.0
 20
0.0
 30
0.0
  9
$EXTMIN
 10
75.87680629253934
 20
54.89538465638894
 30
-0.0015258207003612
  9
$EXTMAX
 10
2608.929917239585
 20
1723.052423793898
 30
0.0000000349246008
  9
$LIMMIN
 10
0.0
 20
0.0
  9
$LIMMAX
 10
420.0
 20
297.0
  9
$ORTHOMODE
 70
     0
  9
$REGENMODE
 70
     1
  9
$FILLMODE
 70
     1
  9
$QTEXTMODE
 70
     0
  9
$MIRRTEXT
 70
     1
  9
$LTSCALE
 40
1.0
  9
$ATTMODE
 70
     1
  9
$TEXTSIZE
 40
60.00000000000002
  9
$TRACEWID
 40
0.05
  9
$TEXTSTYLE
  7
STANDARD
  9
$CLAYER
  8
LAY-1
  9
$CELTYPE
  6
CONTINUOUS
  9
$CECOLOR
 62
     1
  9
$CELTSCALE
 40
1.0
  9
$DISPSILH
 70
     0
  9
$DIMSCALE
 40
1.0
  9
$DIMASZ
 40
15.0
  9
$DIMEXO
 40
0.0625
  9
$DIMDLI
 40
0.38
  9
$DIMRND
 40
0.0
  9
$DIMDLE
 40
0.0
  9
$DIMEXE
 40
0.18
  9
$DIMTP
 40
0.0
  9
$DIMTM
 40
0.0
  9
$DIMTXT
 40
20.0
  9
$DIMCEN
 40
0.09
  9
$DIMTSZ
 40
0.0
  9
$DIMTOL
 70
     0
  9
$DIMLIM
 70
     0
  9
$DIMTIH
 70
     1
  9
$DIMTOH
 70
     1
  9
$DIMSE1
 70
     0
  9
$DIMSE2
 70
     0
  9
$DIMTAD
 70
     1
  9
$DIMZIN
 70
     0
  9
$DIMBLK
  1

  9
$DIMASO
 70
     1
  9
$DIMSHO
 70
     1
  9
$DIMPOST
  1

  9
$DIMAPOST
  1

  9
$DIMALT
 70
     0
  9
$DIMALTD
 70
     2
  9
$DIMALTF
 40
25.4
  9
$DIMLFAC
 40
1.0
  9
$DIMTOFL
 70
     0
  9
$DIMTVP
 40
0.0
  9
$DIMTIX
 70
     0
  9
$DIMSOXD
 70
     0
  9
$DIMSAH
 70
     0
  9
$DIMBLK1
  1

  9
$DIMBLK2
  1

  9
$DIMSTYLE
  2
STANDARD
  9
$DIMCLRD
 70
     0
  9
$DIMCLRE
 70
     0
  9
$DIMCLRT
 70
     0
  9
$DIMTFAC
 40
1.0
  9
$DIMGAP
 40
0.09
  9
$DIMJUST
 70
     0
  9
$DIMSD1
 70
     0
  9
$DIMSD2
 70
     0
  9
$DIMTOLJ
 70
     1
  9
$DIMTZIN
 70
     0
  9
$DIMALTZ
 70
     0
  9
$DIMALTTZ
 70
     0
  9
$DIMUPT
 70
     0
  9
$DIMDEC
 70
     4
  9
$DIMTDEC
 70
     4
  9
$DIMALTU
 70
     2
  9
$DIMALTTD
 70
     2
  9
$DIMTXSTY
  7
STANDARD
  9
$DIMAUNIT
 70
     0
  9
$DIMADEC
 70
     0
  9
$DIMALTRND
 40
0.0
  9
$DIMAZIN
 70
     0
  9
$DIMDSEP
 70
    46
  9
$DIMATFIT
 70
     3
  9
$DIMFRAC
 70
     0
  9
$DIMLDRBLK
  1

  9
$DIMLUNIT
 70
     2
  9
$DIMLWD
 70
    -2
  9
$DIMLWE
 70
    -2
  9
$DIMTMOVE
 70
     0
  9
$LUNITS
 70
     2
  9
$LUPREC
 70
     4
  9
$SKETCHINC
 40
0.1
  9
$FILLETRAD
 40
0.0
  9
$AUNITS
 70
     0
  9
$AUPREC
 70
     0
  9
$MENU
  1
acad
  9
$ELEVATION
 40
0.0
  9
$PELEVATION
 40
0.0
  9
$THICKNESS
 40
0.0
  9
$LIMCHECK
 70
     0
  9
$CHAMFERA
 40
0.0
  9
$CHAMFERB
 40
0.0
  9
$CHAMFERC
 40
0.0
  9
$CHAMFERD
 40
0.0
  9
$SKPOLY
 70
     0
  9
$TDCREATE
 40
2452113.418848171
  9
$TDUCREATE
 40
2452113.043848171
  9
$TDUPDATE
 40
2452159.105254629
  9
$TDUUPDATE
 40
2452158.730254629
  9
$TDINDWG
 40
0.2971258333
  9
$TDUSRTIMER
 40
0.2971254630
  9
$USRTIMER
 70
     1
  9
$ANGBASE
 50
0.0
  9
$ANGDIR
 70
     0
  9
$PDMODE
 70
     0
  9
$PDSIZE
 40
0.0
  9
$PLINEWID
 40
0.0
  9
$SPLFRAME
 70
     0
  9
$SPLINETYPE
 70
     6
  9
$SPLINESEGS
 70
     8
  9
$HANDSEED
  5
53C
  9
$SURFTAB1
 70
     6
  9
$SURFTAB2
 70
     6
  9
$SURFTYPE
 70
     6
  9
$SURFU
 70
     6
  9
$SURFV
 70
     6
  9
$UCSBASE
  2

  9
$UCSNAME
  2

  9
$UCSORG
 10
0.0
 20
0.0
 30
0.0
  9
$UCSXDIR
 10
1.0
 20
0.0
 30
0.0
  9
$UCSYDIR
 10
0.0
 20
1.0
 30
0.0
  9
$UCSORTHOREF
  2

  9
$UCSORTHOVIEW
 70
     0
  9
$UCSORGTOP
 10
0.0
 20
0.0
 30
0.0
  9
$UCSORGBOTTOM
 10
0.0
 20
0.0
 30
0.0
  9
$UCSORGLEFT
 10
0.0
 20
0.0
 30
0.0
  9
$UCSORGRIGHT
 10
0.0
 20
0.0
 30
0.0
  9
$UCSORGFRONT
 10
0.0
 20
0.0
 30
0.0
  9
$UCSORGBACK
 10
0.0
 20
0.0
 30
0.0
  9
$PUCSBASE
  2

  9
$PUCSNAME
  2

  9
$PUCSORG
 10
0.0
 20
0.0
 30
0.0
  9
$PUCSXDIR
 10
1.0
 20
0.0
 30
0.0
  9
$PUCSYDIR
 10
0.0
 20
1.0
 30
0.0
  9
$PUCSORTHOREF
  2

  9
$PUCSORTHOVIEW
 70
     0
  9
$PUCSORGTOP
 10
0.0
 20
0.0
 30
0.0
  9
$PUCSORGBOTTOM
 10
0.0
 20
0.0
 30
0.0
  9
$PUCSORGLEFT
 10
0.0
 20
0.0
 30
0.0
  9
$PUCSORGRIGHT
 10
0.0
 20
0.0
 30
0.0
  9
$PUCSORGFRONT
 10
0.0
 20
0.0
 30
0.0
  9
$PUCSORGBACK
 10
0.0
 20
0.0
 30
0.0
  9
$USERI1
 70
     0
  9
$USERI2
 70
     0
  9
$USERI3
 70
     0
  9
$USERI4
 70
     0
  9
$USERI5
 70
     0
  9
$USERR1
 40
0.0
  9
$USERR2
 40
0.0
  9
$USERR3
 40
0.0
  9
$USERR4
 40
0.0
  9
$USERR5
 40
0.0
  9
$WORLDVIEW
 70
     1
  9
$SHADEDGE
 70
     3
  9
$SHADEDIF
 70
    70
  9
$TILEMODE
 70
     1
  9
$MAXACTVP
 70
    16
  9
$PINSBASE
 10
0.0
 20
0.0
 30
0.0
  9
$PLIMCHECK
 70
     0
  9
$PEXTMIN
 10
1.000000000000000E+20
 20
1.000000000000000E+20
 30
1.000000000000000E+20
  9
$PEXTMAX
 10
-1.000000000000000E+20
 20
-1.000000000000000E+20
 30
-1.000000000000000E+20
  9
$PLIMMIN
 10
0.0
 20
0.0
  9
$PLIMMAX
 10
12.0
 20
9.0
  9
$UNITMODE
 70
     0
  9
$VISRETAIN
 70
     0
  9
$PLINEGEN
 70
     1
  9
$PSLTSCALE
 70
     0
  9
$TREEDEPTH
 70
  3020
  9
$CMLSTYLE
  2
STANDARD
  9
$CMLJUST
 70
     0
  9
$CMLSCALE
 40
1.0
  9
$PROXYGRAPHICS
 70
     1
  9
$MEASUREMENT
 70
     0
  9
$CELWEIGHT
370
    -1
  9
$ENDCAPS
280
     0
  9
$JOINSTYLE
280
     0
  9
$LWDISPLAY
290
     0
  9
$INSUNITS
 70
     0
  9
$HYPERLINKBASE
  1

  9
$STYLESHEET
  1

  9
$XEDIT
290
     1
  9
$CEPSNTYPE
380
     0
  9
$PSTYLEMODE
290
     1
  9
$FINGERPRINTGUID
  2
{1D81DFA1-B92E-4A71-8506-D1ED13154CCF}
  9
$VERSIONGUID
  2
{20AC3657-B19D-4698-B4C3-26B29BC6A661}
  9
$EXTNAMES
290
     1
  9
$PSVPSCALE
 40
0.0
  9
$OLESTARTUP
290
     0
  0
ENDSEC
  0
SECTION
  2
CLASSES
  0
CLASS
  1
LWPOLYLINE
  2
AcDbPolyline
  3
AutoCAD 2000
 90
    32768
280
     0
281
     1
  0
CLASS
  1
IMAGE
  2
AcDbRasterImage
  3
ISM
 90
    32895
280
     0
281
     1
  0
CLASS
  1
OLE2FRAME
  2
AcDbOle2Frame
  3
AutoCAD 2000
 90
    32768
280
     0
281
     1
  0
CLASS
  1
HATCH
  2
AcDbHatch
  3
AutoCAD 2000
 90
    32768
280
     0
281
     1
  0
CLASS
  1
DICTIONARYVAR
  2
AcDbDictionaryVar
  3
AutoCAD 2000
 90
        0
280
     0
281
     0
  0
CLASS
  1
RASTERVARIABLES
  2
AcDbRasterVariables
  3
ISM
 90
    32768
280
     0
281
     0
  0
CLASS
  1
IMAGEDEF
  2
AcDbRasterImageDef
  3
ISM
 90
    32768
280
     0
281
     0
  0
CLASS
  1
IMAGEDEF_REACTOR
  2
AcDbRasterImageDefReactor
  3
ISM
 90
    32769
280
     0
281
     0
  0
CLASS
  1
IDBUFFER
  2
AcDbIdBuffer
  3
AutoCAD 2000
 90
    32768
280
     0
281
     0
  0
CLASS
  1
SPATIAL_FILTER
  2
AcDbSpatialFilter
  3
AutoCAD 2000
 90
    32768
280
     0
281
     0
  0
CLASS
  1
XRECORD
  2
AcDbXrecord
  3
AutoCAD 2000
 90
    32768
280
     0
281
     0
  0
CLASS
  1
SORTENTSTABLE
  2
AcDbSortentsTable
  3
AutoCAD 2000
 90
    32768
280
     0
281
     0
  0
CLASS
  1
LAYER_INDEX
  2
AcDbLayerIndex
  3
AutoCAD 2000
 90
    32768
280
     0
281
     0
  0
CLASS
  1
SPATIAL_INDEX
  2
AcDbSpatialIndex
  3
AutoCAD 2000
 90
    32768
280
     0
281
     0
  0
CLASS
  1
OBJECT_PTR
  2
CAseDLPNTableRecord
  3
ASE-LPNTableRecord
 90
    32769
280
     0
281
     0
  0
CLASS
  1
LAYOUT
  2
AcDbLayout
  3
AutoCAD 2000
 90
        0
280
     0
281
     0
  0
CLASS
  1
PLOTSETTINGS
  2
AcDbPlotSettings
  3
AutoCAD 2000
 90
    32768
280
     0
281
     0
  0
CLASS
  1
ACDBDICTIONARYWDFLT
  2
AcDbDictionaryWithDefault
  3
AutoCAD 2000
 90
        0
280
     0
281
     0
  0
CLASS
  1
ACDBPLACEHOLDER
  2
AcDbPlaceHolder
  3
AutoCAD 2000
 90
        0
280
     0
281
     0
  0
CLASS
  1
VBA_PROJECT
  2
AcDbVbaProject
  3
acadvba
 90
    32768
280
     0
281
     0
  0
CLASS
  1
WIPEOUT
  2
AcDbWipeout
  3
WipeOut|AutoCAD Express Tool|expresstools@autodesk.com
 90
    32768
280
     0
281
     1
  0
CLASS
  1
WIPEOUTVARIABLES
  2
AcDbWipeoutVariables
  3
WipeOut|AutoCAD Express Tool|expresstools@autodesk.com
 90
    32768
280
     0
281
     0
  0
CLASS
  1
RTEXT
  2
RText
  3
RText|AutoCAD Express Tool|expresstools@autodesk.com
 90
    32768
280
     0
281
     1
  0
CLASS
  1
ARCALIGNEDTEXT
  2
AcDbArcAlignedText
  3
ATEXT|AutoCAD Express Tool|expresstools@autodesk.com
 90
    32768
280
     0
281
     1
  0
ENDSEC
  0
SECTION
  2
TABLES
  0
TABLE
  2
VPORT
  5
7
330
0
100
AcDbSymbolTable
 70
     5
  0
VPORT
  5
53B
330
7
100
AcDbSymbolTableRecord
100
AcDbViewportTableRecord
  2
*Active
 70
     0
 10
0.0
 20
0.0
 11
1.0
 21
1.0
 12
1254.975545872439
 22
888.9739042251438
 13
0.0
 23
0.0
 14
1.0
 24
1.0
 15
0.0
 25
0.0
 16
0.0
 26
0.0
 36
1.0
 17
0.0
 27
0.0
 37
0.0
 40
1684.565141161813
 41
1.76847290640394
 42
50.0
 43
0.0
 44
0.0
 50
0.0
 51
0.0
 71
     0
 72
   100
 73
     1
 74
     1
 75
     0
 76
     0
 77
     0
 78
     0
281
     0
 65
     1
110
0.0
120
0.0
130
0.0
111
1.0
121
0.0
131
0.0
112
0.0
122
1.0
132
0.0
 79
     0
146
0.0
  0
ENDTAB
  0
TABLE
  2
LTYPE
  5
4
330
0
100
AcDbSymbolTable
 70
     5
  0
LTYPE
  5
11
330
4
100
AcDbSymbolTableRecord
100
AcDbLinetypeTableRecord
  2
BYBLOCK
 70
     0
  3

 72
    65
 73
     0
 40
0.0
  0
LTYPE
  5
12
330
4
100
AcDbSymbolTableRecord
100
AcDbLinetypeTableRecord
  2
BYLAYER
 70
     0
  3

 72
    65
 73
     0
 40
0.0
  0
LTYPE
  5
13
330
4
100
AcDbSymbolTableRecord
100
AcDbLinetypeTableRecord
  2
CONTINUOUS
 70
     0
  3
実線
 72
    65
 73
     0
 40
0.0
  0
LTYPE
  5
1D
330
4
100
AcDbSymbolTableRecord
100
AcDbLinetypeTableRecord
  2
DASHED
 70
     0
  3
破線
 72
    65
 73
     2
 40
3.799999999999998
 49
3.0
 74
     0
 49
-0.8
 74
     0
  0
LTYPE
  5
1E
330
4
100
AcDbSymbolTableRecord
100
AcDbLinetypeTableRecord
  2
DOT
 70
     0
  3
点線
 72
    65
 73
     2
 40
2.0
 49
1.0
 74
     0
 49
-1.0
 74
     0
  0
LTYPE
  5
1F
330
4
100
AcDbSymbolTableRecord
100
AcDbLinetypeTableRecord
  2
DASHDOT
 70
     0
  3
一点鎖線
 72
    65
 73
     4
 40
25.6
 49
20.0
 74
     0
 49
-2.0
 74
     0
 49
1.6
 74
     0
 49
-2.0
 74
     0
  0
LTYPE
  5
20
330
4
100
AcDbSymbolTableRecord
100
AcDbLinetypeTableRecord
  2
DIVIDE
 70
     0
  3
二点鎖線
 72
    65
 73
     6
 40
31.2
 49
20.0
 74
     0
 49
-2.399999999999999
 74
     0
 49
2.0
 74
     0
 49
-2.399999999999999
 74
     0
 49
2.0
 74
     0
 49
-2.399999999999999
 74
     0
  0
ENDTAB
  0
TABLE
  2
LAYER
  5
2
330
0
100
AcDbSymbolTable
 70
     3
  0
LAYER
  5
14
330
2
100
AcDbSymbolTableRecord
100
AcDbLayerTableRecord
  2
0
 70
     0
 62
     7
  6
CONTINUOUS
370
    -3
390
17D
  0
LAYER
  5
25
330
2
100
AcDbSymbolTableRecord
100
AcDbLayerTableRecord
  2
LAY-1
 70
     0
 62
     7
  6
CONTINUOUS
370
    -3
390
17D
  0
LAYER
  5
184
330
2
100
AcDbSymbolTableRecord
100
AcDbLayerTableRecord
  2
Defpoints
 70
     0
 62
     7
  6
CONTINUOUS
290
     0
370
    -3
390
17D
  0
ENDTAB
  0
TABLE
  2
STYLE
  5
3
330
0
100
AcDbSymbolTable
 70
     5
  0
STYLE
  5
17
330
3
100
AcDbSymbolTableRecord
100
AcDbTextStyleTableRecord
  2
STANDARD
 70
     0
 40
0.0
 41
1.0
 50
0.0
 71
     0
 42
60.00000000000002
  3
monotxt
  4

  0
STYLE
  5
21
330
3
100
AcDbSymbolTableRecord
100
AcDbTextStyleTableRecord
  2
EXCADSTD
 70
     0
 40
0.0
 41
1.0
 50
0.0
 71
     0
 42
0.2
  3
monotxt
  4
extfont
  0
STYLE
  5
22
330
3
100
AcDbSymbolTableRecord
100
AcDbTextStyleTableRecord
  2
EXCADVERT
 70
     4
 40
0.0
 41
1.0
 50
0.0
 71
     0
 42
0.286885
  3
monotxt
  4
extfont
  0
STYLE
  5
23
330
3
100
AcDbSymbolTableRecord
100
AcDbTextStyleTableRecord
  2
EXCADSTD2
 70
     0
 40
0.0
 41
1.0
 50
0.0
 71
     0
 42
0.2
  3
monotxt
  4
extfont
  0
STYLE
  5
24
330
3
100
AcDbSymbolTableRecord
100
AcDbTextStyleTableRecord
  2
EXCADVERT2
 70
     4
 40
0.0
 41
1.0
 50
0.0
 71
     0
 42
0.286885
  3
monotxt
  4
extfont
  0
ENDTAB
  0
TABLE
  2
VIEW
  5
5
330
0
100
AcDbSymbolTable
 70
     0
  0
ENDTAB
  0
TABLE
  2
UCS
  5
6
330
0
100
AcDbSymbolTable
 70
     0
  0
ENDTAB
  0
TABLE
  2
APPID
  5
8
330
0
100
AcDbSymbolTable
 70
     2
  0
APPID
  5
16
330
8
100
AcDbSymbolTableRecord
100
AcDbRegAppTableRecord
  2
ACAD
 70
     0
  0
APPID
  5
2E7
330
8
100
AcDbSymbolTableRecord
100
AcDbRegAppTableRecord
  2
DCO15
 70
     0
  0
ENDTAB
  0
TABLE
  2
DIMSTYLE
  5
9
330
0
100
AcDbSymbolTable
 70
     1
100
AcDbDimStyleTable
 71
     1
340
18
  0
DIMSTYLE
105
18
102
{ACAD_REACTORS
330
F1
330
FC
330
108
330
116
330
138
330
144
330
150
330
15C
330
168
330
173
330
428
330
436
330
15E
330
34B
330
35A
102
}
330
9
100
AcDbSymbolTableRecord
100
AcDbDimStyleTableRecord
  2
STANDARD
 70
     0
 41
15.0
 77
     1
140
20.0
340
17
  0
ENDTAB
  0
TABLE
  2
BLOCK_RECORD
  5
1
330
0
100
AcDbSymbolTable
 70
    27
  0
BLOCK_RECORD
  5
A
330
1
100
AcDbSymbolTableRecord
100
AcDbBlockTableRecord
  2
*MODEL_SPACE
340
180
  0
BLOCK_RECORD
  5
B
330
1
100
AcDbSymbolTableRecord
100
AcDbBlockTableRecord
  2
*PAPER_SPACE
340
181
  0
BLOCK_RECORD
  5
26
330
1
100
AcDbSymbolTableRecord
100
AcDbBlockTableRecord
  2
_EX_NORM
340
0
102
{BLKREFS
331
1A2
331
1A9
331
1B2
331
1B3
331
1BB
331
1BC
331
1C4
331
1C5
331
1CD
331
1CE
331
1D6
331
1D7
331
1DF
331
1E0
331
1EA
331
1F4
331
205
331
20C
331
215
331
216
331
21E
331
21F
331
227
331
228
331
230
331
231
331
239
331
23A
331
242
331
243
331
24D
331
257
331
268
331
26F
331
278
331
279
331
281
331
282
331
28A
331
28B
331
293
331
294
331
29C
331
29D
331
2A5
331
2A6
331
2B0
331
2BA
331
447
331
44E
331
457
331
458
331
460
331
461
331
469
331
46A
331
472
331
473
331
47B
331
47C
331
484
331
485
331
48F
331
499
331
4B5
331
4BC
331
4C5
331
4C6
331
4CE
331
4CF
331
4D7
331
4D8
331
4E0
331
4E1
331
4E9
331
4EA
331
4F2
331
4F3
331
4FD
331
507
102
}
  0
BLOCK_RECORD
  5
27
330
1
100
AcDbSymbolTableRecord
100
AcDbBlockTableRecord
  2
_EX_BNORM
340
0
  0
BLOCK_RECORD
  5
28
330
1
100
AcDbSymbolTableRecord
100
AcDbBlockTableRecord
  2
_EX_BCIR
340
0
102
{BLKREFS
331
1F3
331
256
331
2B9
331
498
331
506
102
}
  0
BLOCK_RECORD
  5
29
330
1
100
AcDbSymbolTableRecord
100
AcDbBlockTableRecord
  2
_EX_RCIVIL
340
0
  0
BLOCK_RECORD
  5
2A
330
1
100
AcDbSymbolTableRecord
100
AcDbBlockTableRecord
  2
_EX_SLANT
340
0
  0
BLOCK_RECORD
  5
2B
330
1
100
AcDbSymbolTableRecord
100
AcDbBlockTableRecord
  2
_EX_NONE
340
0
102
{BLKREFS
331
1EB
331
24E
331
2B1
331
490
331
4FE
102
}
  0
BLOCK_RECORD
  5
2C
330
1
100
AcDbSymbolTableRecord
100
AcDbBlockTableRecord
  2
_EX_CIVIL
340
0
  0
BLOCK_RECORD
  5
2D
330
1
100
AcDbSymbolTableRecord
100
AcDbBlockTableRecord
  2
_EX_WCIR
340
0
  0
BLOCK_RECORD
  5
E7
330
1
100
AcDbSymbolTableRecord
100
AcDbBlockTableRecord
  2
*D8
340
0
  0
BLOCK_RECORD
  5
F2
330
1
100
AcDbSymbolTableRecord
100
AcDbBlockTableRecord
  2
*D9
340
0
  0
BLOCK_RECORD
  5
FD
330
1
100
AcDbSymbolTableRecord
100
AcDbBlockTableRecord
  2
*D10
340
0
  0
BLOCK_RECORD
  5
10B
330
1
100
AcDbSymbolTableRecord
100
AcDbBlockTableRecord
  2
*D11
340
0
  0
BLOCK_RECORD
  5
12C
330
1
100
AcDbSymbolTableRecord
100
AcDbBlockTableRecord
  2
*D12
340
0
  0
BLOCK_RECORD
  5
139
330
1
100
AcDbSymbolTableRecord
100
AcDbBlockTableRecord
  2
*D13
340
0
  0
BLOCK_RECORD
  5
145
330
1
100
AcDbSymbolTableRecord
100
AcDbBlockTableRecord
  2
*D14
340
0
  0
BLOCK_RECORD
  5
151
330
1
100
AcDbSymbolTableRecord
100
AcDbBlockTableRecord
  2
*D15
340
0
  0
BLOCK_RECORD
  5
15F
330
1
100
AcDbSymbolTableRecord
100
AcDbBlockTableRecord
  2
*D16
340
0
  0
BLOCK_RECORD
  5
169
330
1
100
AcDbSymbolTableRecord
100
AcDbBlockTableRecord
  2
*D17
340
0
  0
BLOCK_RECORD
  5
185
330
1
100
AcDbSymbolTableRecord
100
AcDbBlockTableRecord
  2
*D18
340
0
  0
BLOCK_RECORD
  5
193
330
1
100
AcDbSymbolTableRecord
100
AcDbBlockTableRecord
  2
*D19
340
0
  0
BLOCK_RECORD
  5
2CA
330
1
100
AcDbSymbolTableRecord
100
AcDbBlockTableRecord
  2
*D20
340
0
  0
BLOCK_RECORD
  5
365
330
1
100
AcDbSymbolTableRecord
100
AcDbBlockTableRecord
  2
tmp
340
0
310
2800000020000000200000000100080000000000000400000000000000000000000000000000000000000000000080000080000000808000800000008000800080800000C0C0C000C0DCC000F0CAA6000020400000206000002080000020A0000020C0000020E00000400000004020000040400000406000004080000040A0
310
000040C0000040E00000600000006020000060400000606000006080000060A0000060C0000060E00000800000008020000080400000806000008080000080A0000080C0000080E00000A0000000A0200000A0400000A0600000A0800000A0A00000A0C00000A0E00000C0000000C0200000C0400000C0600000C0800000C0
310
A00000C0C00000C0E00000E0000000E0200000E0400000E0600000E0800000E0A00000E0C00000E0E00040000000400020004000400040006000400080004000A0004000C0004000E00040200000402020004020400040206000402080004020A0004020C0004020E000404000004040200040404000404060004040800040
310
40A0004040C0004040E00040600000406020004060400040606000406080004060A0004060C0004060E00040800000408020004080400040806000408080004080A0004080C0004080E00040A0000040A0200040A0400040A0600040A0800040A0A00040A0C00040A0E00040C0000040C0200040C0400040C0600040C08000
310
40C0A00040C0C00040C0E00040E0000040E0200040E0400040E0600040E0800040E0A00040E0C00040E0E00080000000800020008000400080006000800080008000A0008000C0008000E00080200000802020008020400080206000802080008020A0008020C0008020E00080400000804020008040400080406000804080
310
008040A0008040C0008040E00080600000806020008060400080606000806080008060A0008060C0008060E00080800000808020008080400080806000808080008080A0008080C0008080E00080A0000080A0200080A0400080A0600080A0800080A0A00080A0C00080A0E00080C0000080C0200080C0400080C0600080C0
310
800080C0A00080C0C00080C0E00080E0000080E0200080E0400080E0600080E0800080E0A00080E0C00080E0E000C0000000C0002000C0004000C0006000C0008000C000A000C000C000C000E000C0200000C0202000C0204000C0206000C0208000C020A000C020C000C020E000C0400000C0402000C0404000C0406000C0
310
408000C040A000C040C000C040E000C0600000C0602000C0604000C0606000C0608000C060A000C060C000C060E000C0800000C0802000C0804000C0806000C0808000C080A000C080C000C080E000C0A00000C0A02000C0A04000C0A06000C0A08000C0A0A000C0A0C000C0A0E000C0C00000C0C02000C0C04000C0C06000
310
C0C08000C0C0A000F0FBFF00A4A0A000808080000000FF0000FF000000FFFF00FF000000FF00FF00FFFF0000FFFFFF0000000000000000000000000000000000000000000000000000000000000000000000000000000000000000000000000000000000000000000000000000000000000000000000000000000000000000
310
00000000000000000000000000000000000000000000000000000000000000000000000000000000000000000000000000000000000000000000000000000000000000000000000000000000000000000000000000000000000000000000000000000000000000000000000000000000000000000000000000000000000000
310
00000000000000000000000000000000000000000000000000000000000000000000000000000000000000000000000000000000000000000000000000000000000000000000000000000000000000000000000000000000000000000000000000000000000000000000000000000000000000000000000000000000000000
310
0000000000000000000000000000000000000000000000000000000000000000000000000000000000000000000000000000000000000000000000000000000000000000000000000000000000000000000000000000000000000000000000000000000000000000000000000000000000000000FFFFFFFFFFFF0000FFFFFF
310
00000000FFFFFFFF00FFFFFFFF0000000000000000FFFFFFFFFFFFFFFFFFFFFFFFFFFFFFFFFFFFFFFFFFFFFFFFFFFFFFFFFFFF0000FFFFFFFFFFFFFFFFFFFFFFFFFFFFFFFFFFFFFFFFFFFFFFFFFFFFFFFFFFFF00000000000000000000000000000000FFFFFFFFFFFFFFFFFFFFFFFFFFFFFFFF000000000000000000000000
310
00000000000000000000000000000000000000000000000000000000000000000000000000000000000000000000000000000000000000000000000000000000000000000000000000000000000000000000000000000000000000000000000000000000000000000000000000000000000000000000000000000000000000
310
00000000000000000000000000000000000000000000000000000000000000000000000000000000000000000000000000000000000000000000000000000000000000000000000000000000000000000000000000000000000000000000000000000000000000000000000000000000000000000000000000000000000000
310
00000000000000000000000000000000000000000000000000000000000000000000000000000000000000000000000000000000000000000000000000000000000000000000000000000000000000000000000000000000000000000000000000000000000000000000000000000000000000000000000000000000000000
310
0000000000000000000000000000000000000000000000000000000000000000000000000000000000000000000000000000000000000000
102
{BLKREFS
331
386
102
}
  0
BLOCK_RECORD
  5
3BD
330
1
100
AcDbSymbolTableRecord
100
AcDbBlockTableRecord
  2
*D22
340
0
  0
BLOCK_RECORD
  5
429
330
1
100
AcDbSymbolTableRecord
100
AcDbBlockTableRecord
  2
*D23
340
0
  0
BLOCK_RECORD
  5
437
330
1
100
AcDbSymbolTableRecord
100
AcDbBlockTableRecord
  2
*D24
340
0
  0
ENDTAB
  0
ENDSEC
  0
SECTION
  2
BLOCKS
  0
BLOCK
  5
D
330
A
100
AcDbEntity
  8
0
100
AcDbBlockBegin
  2
*MODEL_SPACE
 70
     0
 10
0.0
 20
0.0
 30
0.0
  3
*MODEL_SPACE
  1

  0
ENDBLK
  5
E
330
A
100
AcDbEntity
  8
0
100
AcDbBlockEnd
  0
BLOCK
  5
F
330
B
100
AcDbEntity
 67
     1
  8
0
100
AcDbBlockBegin
  2
*PAPER_SPACE
 70
     0
 10
0.0
 20
0.0
 30
0.0
  3
*PAPER_SPACE
  1

  0
ENDBLK
  5
10
330
B
100
AcDbEntity
 67
     1
  8
0
100
AcDbBlockEnd
  0
BLOCK
  5
2E
330
26
100
AcDbEntity
  8
0
100
AcDbBlockBegin
  2
_EX_NORM
 70
     0
 10
0.0
 20
0.0
 30
0.0
  3
_EX_NORM
  1

  0
LINE
  5
2F
330
26
100
AcDbEntity
  8
0
  6
Continuous
 62
     0
100
AcDbLine
 10
0.0
 20
0.0
 30
0.0
 11
-1.0
 21
0.0
 31
0.0
  0
LINE
  5
30
330
26
100
AcDbEntity
  8
0
  6
Continuous
 62
     0
100
AcDbLine
 10
0.0
 20
0.0
 30
0.0
 11
-0.9607689999999999
 21
0.27735
 31
0.0
  0
LINE
  5
31
330
26
100
AcDbEntity
  8
0
  6
Continuous
 62
     0
100
AcDbLine
 10
0.0
 20
0.0
 30
0.0
 11
-0.9607689999999999
 21
-0.27735
 31
0.0
  0
ENDBLK
  5
32
330
26
100
AcDbEntity
  8
0
100
AcDbBlockEnd
  0
BLOCK
  5
33
330
27
100
AcDbEntity
  8
0
100
AcDbBlockBegin
  2
_EX_BNORM
 70
     0
 10
0.0
 20
0.0
 30
0.0
  3
_EX_BNORM
  1

  0
LINE
  5
34
330
27
100
AcDbEntity
  8
0
  6
Continuous
 62
     0
100
AcDbLine
 10
0.0
 20
0.0
 30
0.0
 11
-1.0
 21
0.0
 31
0.0
  0
LINE
  5
35
330
27
100
AcDbEntity
  8
0
  6
Continuous
 62
     0
100
AcDbLine
 10
0.0
 20
0.0
 30
0.0
 11
-0.9607689999999999
 21
0.27735
 31
0.0
  0
LINE
  5
36
330
27
100
AcDbEntity
  8
0
  6
Continuous
 62
     0
100
AcDbLine
 10
0.0
 20
0.0
 30
0.0
 11
-0.9607689999999999
 21
-0.27735
 31
0.0
  0
LINE
  5
37
330
27
100
AcDbEntity
  8
0
  6
Continuous
 62
     0
100
AcDbLine
 10
0.0
 20
0.0
 30
0.0
 11
-0.9607689999999999
 21
0.138768
 31
0.0
  0
LINE
  5
38
330
27
100
AcDbEntity
  8
0
  6
Continuous
 62
     0
100
AcDbLine
 10
0.0
 20
0.0
 30
0.0
 11
-0.9607689999999999
 21
-0.138768
 31
0.0
  0
LINE
  5
39
330
27
100
AcDbEntity
  8
0
  6
Continuous
 62
     0
100
AcDbLine
 10
-0.9607689999999999
 20
0.27735
 30
0.0
 11
-0.9607689999999999
 21
-0.27735
 31
0.0
  0
ENDBLK
  5
3A
330
27
100
AcDbEntity
  8
0
100
AcDbBlockEnd
  0
BLOCK
  5
3B
330
28
100
AcDbEntity
  8
0
100
AcDbBlockBegin
  2
_EX_BCIR
 70
     0
 10
0.0
 20
0.0
 30
0.0
  3
_EX_BCIR
  1

  0
LINE
  5
3C
330
28
100
AcDbEntity
  8
0
  6
Continuous
 62
     0
100
AcDbLine
 10
0.0
 20
0.0
 30
0.0
 11
-1.0
 21
0.0
 31
0.0
  0
CIRCLE
  5
3D
330
28
100
AcDbEntity
  8
0
  6
Continuous
 62
     0
100
AcDbCircle
 10
0.0
 20
0.0
 30
0.0
 40
0.5
  0
CIRCLE
  5
3E
330
28
100
AcDbEntity
  8
0
  6
Continuous
 62
     0
100
AcDbCircle
 10
0.0
 20
0.0
 30
0.0
 40
0.25
  0
ENDBLK
  5
3F
330
28
100
AcDbEntity
  8
0
100
AcDbBlockEnd
  0
BLOCK
  5
40
330
29
100
AcDbEntity
  8
0
100
AcDbBlockBegin
  2
_EX_RCIVIL
 70
     0
 10
0.0
 20
0.0
 30
0.0
  3
_EX_RCIVIL
  1

  0
LINE
  5
41
330
29
100
AcDbEntity
  8
0
  6
Continuous
 62
     0
100
AcDbLine
 10
0.0
 20
0.0
 30
0.0
 11
-1.0
 21
0.0
 31
0.0
  0
LINE
  5
42
330
29
100
AcDbEntity
  8
0
  6
Continuous
 62
     0
100
AcDbLine
 10
-1.0
 20
-0.25
 30
0.0
 11
0.0
 21
-0.25
 31
0.0
  0
LINE
  5
43
330
29
100
AcDbEntity
  8
0
  6
Continuous
 62
     0
100
AcDbLine
 10
-1.0
 20
-0.125
 30
0.0
 11
0.0
 21
-0.125
 31
0.0
  0
ENDBLK
  5
44
330
29
100
AcDbEntity
  8
0
100
AcDbBlockEnd
  0
BLOCK
  5
45
330
2A
100
AcDbEntity
  8
0
100
AcDbBlockBegin
  2
_EX_SLANT
 70
     0
 10
0.0
 20
0.0
 30
0.0
  3
_EX_SLANT
  1

  0
LINE
  5
46
330
2A
100
AcDbEntity
  8
0
  6
Continuous
 62
     0
100
AcDbLine
 10
0.0
 20
0.0
 30
0.0
 11
-1.0
 21
0.0
 31
0.0
  0
LINE
  5
47
330
2A
100
AcDbEntity
  8
0
  6
Continuous
 62
     0
100
AcDbLine
 10
0.7071070000000002
 20
0.7071070000000002
 30
0.0
 11
-0.7071070000000002
 21
-0.7071070000000002
 31
0.0
  0
ENDBLK
  5
48
330
2A
100
AcDbEntity
  8
0
100
AcDbBlockEnd
  0
BLOCK
  5
49
330
2B
100
AcDbEntity
  8
0
100
AcDbBlockBegin
  2
_EX_NONE
 70
     0
 10
0.0
 20
0.0
 30
0.0
  3
_EX_NONE
  1

  0
LINE
  5
4A
330
2B
100
AcDbEntity
  8
0
  6
Continuous
 62
     0
100
AcDbLine
 10
0.0
 20
0.0
 30
0.0
 11
-1.0
 21
0.0
 31
0.0
  0
ENDBLK
  5
4B
330
2B
100
AcDbEntity
  8
0
100
AcDbBlockEnd
  0
BLOCK
  5
4C
330
2C
100
AcDbEntity
  8
0
100
AcDbBlockBegin
  2
_EX_CIVIL
 70
     0
 10
0.0
 20
0.0
 30
0.0
  3
_EX_CIVIL
  1

  0
LINE
  5
4D
330
2C
100
AcDbEntity
  8
0
  6
Continuous
 62
     0
100
AcDbLine
 10
0.0
 20
0.0
 30
0.0
 11
-1.0
 21
0.0
 31
0.0
  0
LINE
  5
4E
330
2C
100
AcDbEntity
  8
0
  6
Continuous
 62
     0
100
AcDbLine
 10
-1.0
 20
0.25
 30
0.0
 11
0.0
 21
0.25
 31
0.0
  0
LINE
  5
4F
330
2C
100
AcDbEntity
  8
0
  6
Continuous
 62
     0
100
AcDbLine
 10
-1.0
 20
0.125
 30
0.0
 11
0.0
 21
0.125
 31
0.0
  0
ENDBLK
  5
50
330
2C
100
AcDbEntity
  8
0
100
AcDbBlockEnd
  0
BLOCK
  5
51
330
2D
100
AcDbEntity
  8
0
100
AcDbBlockBegin
  2
_EX_WCIR
 70
     0
 10
0.0
 20
0.0
 30
0.0
  3
_EX_WCIR
  1

  0
LINE
  5
52
330
2D
100
AcDbEntity
  8
0
  6
Continuous
 62
     0
100
AcDbLine
 10
0.0
 20
0.0
 30
0.0
 11
-1.0
 21
0.0
 31
0.0
  0
CIRCLE
  5
53
330
2D
100
AcDbEntity
  8
0
  6
Continuous
 62
     0
100
AcDbCircle
 10
0.0
 20
0.0
 30
0.0
 40
0.5
  0
ENDBLK
  5
54
330
2D
100
AcDbEntity
  8
0
100
AcDbBlockEnd
  0
BLOCK
  5
E8
330
E7
100
AcDbEntity
  8
0
100
AcDbBlockBegin
  2
*D8
 70
     1
 10
0.0
 20
0.0
 30
0.0
  3
*D8
  1

  0
LINE
  5
4B3
330
E7
100
AcDbEntity
  8
LAY-1
  6
Continuous
 62
     1
370
    -2
100
AcDbLine
 10
1639.040867863019
 20
1264.000000023936
 30
0.0
 11
1545.510124266145
 21
1210.000000003419
 31
0.0
  0
MTEXT
  5
4B4
330
E7
100
AcDbEntity
  8
LAY-1
  6
Continuous
 62
     1
100
AcDbMText
 10
1594.069724695376
 20
1251.892304859484
 30
0.0
 40
18.0
 41
0.0
 71
     5
 72
     1
  1
\A1;\U+22051076
 11
0.8660254036747602
 21
0.5000000001899691
 31
0.0
 73
     1
 44
1.0
  0
INSERT
  5
4B5
330
E7
100
AcDbEntity
  8
LAY-1
  6
Continuous
 62
     1
370
    -2
100
AcDbBlockReference
  2
_EX_NORM
 10
1529.921667
 20
1201.0
 30
0.0
 41
18.0
 42
18.0
 43
18.0
 50
210.0000000125682
  0
LINE
  5
4B6
330
E7
100
AcDbEntity
  8
LAY-1
  6
Continuous
 62
     1
370
    -2
100
AcDbLine
 10
1063.909999999999
 20
932.0000000000002
 30
0.0
 11
1064.089999999999
 21
932.0
 31
0.0
  0
LINE
  5
4B7
330
E7
100
AcDbEntity
  8
LAY-1
  6
Continuous
 62
     1
370
    -2
100
AcDbLine
 10
1063.999999999999
 20
931.91
 30
0.0
 11
1064.0
 21
932.0900000000001
 31
0.0
  0
POINT
  5
4B8
330
E7
100
AcDbEntity
  8
Defpoints
  6
Continuous
 62
     0
100
AcDbPoint
 10
1529.921667
 20
1201.0
 30
0.0
  0
POINT
  5
4B9
330
E7
100
AcDbEntity
  8
Defpoints
  6
Continuous
 62
     0
100
AcDbPoint
 10
598.078333
 20
663.0
 30
0.0
  0
ENDBLK
  5
F0
330
E7
100
AcDbEntity
  8
0
100
AcDbBlockEnd
  0
BLOCK
  5
F3
330
F2
100
AcDbEntity
  8
0
100
AcDbBlockBegin
  2
*D9
 70
     1
 10
0.0
 20
0.0
 30
0.0
  3
*D9
  1

  0
LINE
  5
4BA
330
F2
100
AcDbEntity
  8
LAY-1
  6
Continuous
 62
     1
370
    -2
100
AcDbLine
 10
1532.104689429504
 20
1400.104689429505
 30
0.0
 11
1455.737157061356
 21
1323.737157061357
 31
0.0
  0
MTEXT
  5
4BB
330
F2
100
AcDbEntity
  8
LAY-1
  6
Continuous
 62
     1
100
AcDbMText
 10
1491.79960290187
 20
1376.770165650348
 30
0.0
 40
18.0
 41
0.0
 71
     5
 72
     1
  1
\A1;%%c1074
 11
0.707106781186547
 21
0.7071067811865481
 31
0.0
 73
     1
 44
1.0
  0
INSERT
  5
4BC
330
F2
100
AcDbEntity
  8
LAY-1
  6
Continuous
 62
     1
370
    -2
100
AcDbBlockReference
  2
_EX_NORM
 10
1443.009234999999
 20
1311.009234999999
 30
0.0
 41
18.0
 42
18.0
 43
18.0
 50
225.0
  0
LINE
  5
4BD
330
F2
100
AcDbEntity
  8
LAY-1
  6
Continuous
 62
     1
370
    -2
100
AcDbLine
 10
1063.909999999999
 20
931.9999999999998
 30
0.0
 11
1064.089999999999
 21
931.9999999999998
 31
0.0
  0
LINE
  5
4BE
330
F2
100
AcDbEntity
  8
LAY-1
  6
Continuous
 62
     1
370
    -2
100
AcDbLine
 10
1063.999999999999
 20
931.9099999999998
 30
0.0
 11
1063.999999999999
 21
932.0899999999999
 31
0.0
  0
POINT
  5
4BF
330
F2
100
AcDbEntity
  8
Defpoints
  6
Continuous
 62
     0
100
AcDbPoint
 10
1443.009234999999
 20
1311.009234999999
 30
0.0
  0
POINT
  5
4C0
330
F2
100
AcDbEntity
  8
Defpoints
  6
Continuous
 62
     0
100
AcDbPoint
 10
684.9907649999998
 20
552.990765
 30
0.0
  0
ENDBLK
  5
FB
330
F2
100
AcDbEntity
  8
0
100
AcDbBlockEnd
  0
BLOCK
  5
FE
330
FD
100
AcDbEntity
  8
0
100
AcDbBlockBegin
  2
*D10
 70
     1
 10
0.0
 20
0.0
 30
0.0
  3
*D10
  1

  0
LINE
  5
4C1
330
FD
100
AcDbEntity
  8
LAY-1
  6
Continuous
 62
     1
370
    -2
100
AcDbLine
 10
1661.0
 20
924.5
 30
0.0
 11
1807.0
 21
924.4999999999999
 31
0.0
  0
LINE
  5
4C2
330
FD
100
AcDbEntity
  8
LAY-1
  6
Continuous
 62
     1
370
    -2
100
AcDbLine
 10
1661.0
 20
939.4999999999999
 30
0.0
 11
1807.0
 21
939.4999999999999
 31
0.0
  0
LINE
  5
4C3
330
FD
100
AcDbEntity
  8
LAY-1
  6
Continuous
 62
     1
370
    -2
100
AcDbLine
 10
1798.0
 20
906.4999999999999
 30
0.0
 11
1798.0
 21
888.4999999999999
 31
0.0
  0
LINE
  5
4C4
330
FD
100
AcDbEntity
  8
LAY-1
  6
Continuous
 62
     1
370
    -2
100
AcDbLine
 10
1798.0
 20
957.4999999999999
 30
0.0
 11
1798.0
 21
1011.5
 31
0.0
  0
INSERT
  5
4C5
330
FD
100
AcDbEntity
  8
LAY-1
  6
Continuous
 62
     1
370
    -2
100
AcDbBlockReference
  2
_EX_NORM
 10
1798.0
 20
924.4999999999999
 30
0.0
 41
18.0
 42
18.0
 43
18.0
 50
90.0
  0
INSERT
  5
4C6
330
FD
100
AcDbEntity
  8
LAY-1
  6
Continuous
 62
     1
370
    -2
100
AcDbBlockReference
  2
_EX_NORM
 10
1798.0
 20
939.4999999999999
 30
0.0
 41
18.0
 42
18.0
 43
18.0
 50
270.0
  0
MTEXT
  5
4C7
330
FD
100
AcDbEntity
  8
LAY-1
  6
Continuous
 62
     1
100
AcDbMText
 10
1785.999999999999
 20
993.5000000000002
 30
0.0
 40
18.0
 41
0.0
 71
     5
 72
     1
  1
\A1;25
 11
0.0000000000000001
 21
1.0
 31
0.0
 73
     1
 44
1.0
  0
POINT
  5
4C8
330
FD
100
AcDbEntity
  8
Defpoints
  6
Continuous
 62
     0
100
AcDbPoint
 10
1652.0
 20
924.5
 30
0.0
  0
POINT
  5
4C9
330
FD
100
AcDbEntity
  8
Defpoints
  6
Continuous
 62
     0
100
AcDbPoint
 10
1652.0
 20
939.4999999999999
 30
0.0
  0
POINT
  5
4CA
330
FD
100
AcDbEntity
  8
Defpoints
  6
Continuous
 62
     0
100
AcDbPoint
 10
1798.0
 20
939.4999999999999
 30
0.0
  0
ENDBLK
  5
107
330
FD
100
AcDbEntity
  8
0
100
AcDbBlockEnd
  0
BLOCK
  5
10C
330
10B
100
AcDbEntity
  8
0
100
AcDbBlockBegin
  2
*D11
 70
     1
 10
0.0
 20
0.0
 30
0.0
  3
*D11
  1

  0
LINE
  5
4CB
330
10B
100
AcDbEntity
  8
LAY-1
  6
Continuous
 62
     1
370
    -2
100
AcDbLine
 10
2118.5
 20
1479.0
 30
0.0
 11
2118.5
 21
1625.0
 31
0.0
  0
LINE
  5
4CC
330
10B
100
AcDbEntity
  8
LAY-1
  6
Continuous
 62
     1
370
    -2
100
AcDbLine
 10
2043.499999999999
 20
1479.0
 30
0.0
 11
2043.499999999999
 21
1625.0
 31
0.0
  0
LINE
  5
4CD
330
10B
100
AcDbEntity
  8
LAY-1
  6
Continuous
 62
     1
370
    -2
100
AcDbLine
 10
2100.5
 20
1616.0
 30
0.0
 11
2061.499999999999
 21
1616.0
 31
0.0
  0
INSERT
  5
4CE
330
10B
100
AcDbEntity
  8
LAY-1
  6
Continuous
 62
     1
370
    -2
100
AcDbBlockReference
  2
_EX_NORM
 10
2118.5
 20
1616.0
 30
0.0
 41
18.0
 42
18.0
 43
18.0
  0
INSERT
  5
4CF
330
10B
100
AcDbEntity
  8
LAY-1
  6
Continuous
 62
     1
370
    -2
100
AcDbBlockReference
  2
_EX_NORM
 10
2043.499999999999
 20
1616.0
 30
0.0
 41
18.0
 42
18.0
 43
18.0
 50
180.0
  0
MTEXT
  5
4D0
330
10B
100
AcDbEntity
  8
LAY-1
  6
Continuous
 62
     1
100
AcDbMText
 10
2080.999999999999
 20
1628.0
 30
0.0
 40
18.0
 41
0.0
 71
     5
 72
     1
  1
\A1;75
 73
     1
 44
1.0
  0
POINT
  5
4D1
330
10B
100
AcDbEntity
  8
Defpoints
  6
Continuous
 62
     0
100
AcDbPoint
 10
2118.5
 20
1470.0
 30
0.0
  0
POINT
  5
4D2
330
10B
100
AcDbEntity
  8
Defpoints
  6
Continuous
 62
     0
100
AcDbPoint
 10
2043.499999999999
 20
1470.0
 30
0.0
  0
POINT
  5
4D3
330
10B
100
AcDbEntity
  8
Defpoints
  6
Continuous
 62
     0
100
AcDbPoint
 10
2043.499999999999
 20
1616.0
 30
0.0
  0
ENDBLK
  5
115
330
10B
100
AcDbEntity
  8
0
100
AcDbBlockEnd
  0
BLOCK
  5
12D
330
12C
100
AcDbEntity
  8
0
100
AcDbBlockBegin
  2
*D12
 70
     1
 10
0.0
 20
0.0
 30
0.0
  3
*D12
  1

  0
LINE
  5
4D4
330
12C
100
AcDbEntity
  8
LAY-1
  6
Continuous
 62
     1
370
    -2
100
AcDbLine
 10
1561.874999999999
 20
932.0
 30
0.0
 11
1372.137673730943
 21
932.0
 31
0.0
  0
LINE
  5
4D5
330
12C
100
AcDbEntity
  8
LAY-1
  6
Continuous
 62
     1
370
    -2
100
AcDbLine
 10
570.2526657766557
 20
742.4681559968462
 30
0.0
 11
776.3286991384488
 21
821.5733336872808
 31
0.0
  0
ARC
  5
4D6
330
12C
100
AcDbEntity
  8
LAY-1
  6
Continuous
 62
     1
370
    -2
100
AcDbCircle
 10
1063.999999999999
 20
932.0
 30
0.0
 40
317.1376737309439
100
AcDbArc
 50
3.252412431026732
 51
197.7475875689935
  0
INSERT
  5
4D7
330
12C
100
AcDbEntity
  8
LAY-1
  6
Continuous
 62
     1
370
    -2
100
AcDbBlockReference
  2
_EX_NORM
 10
1381.137673730943
 20
932.0
 30
0.0
 41
18.0
 42
18.0
 43
18.0
 50
271.6262062155133
  0
INSERT
  5
4D8
330
12C
100
AcDbEntity
  8
LAY-1
  6
Continuous
 62
     1
370
    -2
100
AcDbBlockReference
  2
_EX_NORM
 10
767.9264752999749
 20
818.3480221413704
 30
0.0
 41
18.0
 42
18.0
 43
18.0
 50
289.3737937845069
  0
MTEXT
  5
4D9
330
12C
100
AcDbEntity
  8
LAY-1
  6
Continuous
 62
     1
100
AcDbMText
 10
1004.019422679929
 20
1255.626232888139
 30
0.0
 40
18.0
 41
0.0
 71
     5
 72
     1
  1
\A1;201°
 11
0.983254907345217
 21
0.1822355266723501
 31
0.0
 73
     1
 44
1.0
  0
POINT
  5
4DA
330
12C
100
AcDbEntity
  8
Defpoints
  6
Continuous
 62
     0
100
AcDbPoint
 10
1063.999999999999
 20
932.0
 30
0.0
  0
POINT
  5
4DB
330
12C
100
AcDbEntity
  8
Defpoints
  6
Continuous
 62
     0
100
AcDbPoint
 10
1561.937499999999
 20
932.0
 30
0.0
  0
POINT
  5
4DC
330
12C
100
AcDbEntity
  8
Defpoints
  6
Continuous
 62
     0
100
AcDbPoint
 10
570.1943169999997
 20
742.4457579999997
 30
0.0
  0
POINT
  5
4DD
330
12C
100
AcDbEntity
  8
Defpoints
  6
Continuous
 62
     0
100
AcDbPoint
 10
1187.91556114332
 20
1223.926767881964
 30
0.0
  0
ENDBLK
  5
137
330
12C
100
AcDbEntity
  8
0
100
AcDbBlockEnd
  0
BLOCK
  5
13A
330
139
100
AcDbEntity
  8
0
100
AcDbBlockBegin
  2
*D13
 70
     1
 10
0.0
 20
0.0
 30
0.0
  3
*D13
  1

  0
LINE
  5
4DE
330
139
100
AcDbEntity
  8
LAY-1
  6
Continuous
 62
     1
370
    -2
100
AcDbLine
 10
1064.0
 20
621.125008
 30
0.0
 11
1064.0
 21
647.8623259168918
 31
0.0
  0
ARC
  5
4DF
330
139
100
AcDbEntity
  8
LAY-1
  6
Continuous
 62
     1
370
    -2
100
AcDbCircle
 10
1064.0
 20
932.0
 30
0.0
 40
293.1376740831081
100
AcDbArc
 50
204.5187771373079
 51
266.4812229285345
  0
INSERT
  5
4E0
330
139
100
AcDbEntity
  8
LAY-1
  6
Continuous
 62
     1
370
    -2
100
AcDbBlockReference
  2
_EX_NORM
 10
790.3324053278154
 20
826.948852489868
 30
0.0
 41
18.0
 42
18.0
 43
18.0
 50
112.7593886015752
  0
INSERT
  5
4E1
330
139
100
AcDbEntity
  8
LAY-1
  6
Continuous
 62
     1
370
    -2
100
AcDbBlockReference
  2
_EX_NORM
 10
1064.0
 20
638.8623259168916
 30
0.0
 41
18.0
 42
18.0
 43
18.0
 50
358.2406114642672
  0
MTEXT
  5
4E2
330
139
100
AcDbEntity
  8
LAY-1
  6
Continuous
 62
     1
100
AcDbMText
 10
904.7618678480795
 20
700.3070802600404
 30
0.0
 40
18.0
 41
0.0
 71
     5
 72
     1
  1
\A1;69°
 11
0.8241261883367082
 21
-0.5664062373399577
 31
0.0
 73
     1
 44
1.0
  0
POINT
  5
4E3
330
139
100
AcDbEntity
  8
Defpoints
  6
Continuous
 62
     0
100
AcDbPoint
 10
1064.0
 20
932.0
 30
0.0
  0
POINT
  5
4E4
330
139
100
AcDbEntity
  8
Defpoints
  6
Continuous
 62
     0
100
AcDbPoint
 10
779.12944
 20
822.6484369999997
 30
0.0
  0
POINT
  5
4E5
330
139
100
AcDbEntity
  8
Defpoints
  6
Continuous
 62
     0
100
AcDbPoint
 10
1064.0
 20
621.0625079999998
 30
0.0
  0
POINT
  5
4E6
330
139
100
AcDbEntity
  8
Defpoints
  6
Continuous
 62
     0
100
AcDbPoint
 10
949.4619859061479
 20
662.1653482328647
 30
0.0
  0
ENDBLK
  5
143
330
139
100
AcDbEntity
  8
0
100
AcDbBlockEnd
  0
BLOCK
  5
146
330
145
100
AcDbEntity
  8
0
100
AcDbBlockBegin
  2
*D14
 70
     1
 10
0.0
 20
0.0
 30
0.0
  3
*D14
  1

  0
LINE
  5
4E7
330
145
100
AcDbEntity
  8
LAY-1
  6
Continuous
 62
     1
370
    -2
100
AcDbLine
 10
1298.547651826176
 20
697.4523481738242
 30
0.0
 11
1264.915675869052
 21
731.0843241309473
 31
0.0
  0
ARC
  5
4E8
330
145
100
AcDbEntity
  8
LAY-1
  6
Continuous
 62
     1
370
    -2
100
AcDbCircle
 10
1064.0
 20
932.0
 30
0.0
 40
293.137673707371
100
AcDbArc
 50
273.5187770759772
 51
311.4812229240227
  0
INSERT
  5
4E9
330
145
100
AcDbEntity
  8
LAY-1
  6
Continuous
 62
     1
370
    -2
100
AcDbBlockReference
  2
_EX_NORM
 10
1063.999999999999
 20
638.8623262926289
 30
0.0
 41
18.0
 42
18.0
 43
18.0
 50
181.7593885379886
  0
INSERT
  5
4EA
330
145
100
AcDbEntity
  8
LAY-1
  6
Continuous
 62
     1
370
    -2
100
AcDbBlockReference
  2
_EX_NORM
 10
1271.279636899731
 20
724.7203631002682
 30
0.0
 41
18.0
 42
18.0
 43
18.0
 50
43.24061146201132
  0
MTEXT
  5
4EB
330
145
100
AcDbEntity
  8
LAY-1
  6
Continuous
 62
     1
100
AcDbMText
 10
1171.586729816933
 20
672.2626573923373
 30
0.0
 40
18.0
 41
0.0
 71
     5
 72
     1
  1
\A1;45°
 11
0.9238795326947768
 21
0.3826834319221055
 31
0.0
 73
     1
 44
1.0
  0
POINT
  5
4EC
330
145
100
AcDbEntity
  8
Defpoints
  6
Continuous
 62
     0
100
AcDbPoint
 10
1064.0
 20
932.0
 30
0.0
  0
POINT
  5
4ED
330
145
100
AcDbEntity
  8
Defpoints
  6
Continuous
 62
     0
100
AcDbPoint
 10
1064.0
 20
626.8623259999998
 30
0.0
  0
POINT
  5
4EE
330
145
100
AcDbEntity
  8
Defpoints
  6
Continuous
 62
     0
100
AcDbPoint
 10
1298.591846
 20
697.408154
 30
0.0
  0
POINT
  5
4EF
330
145
100
AcDbEntity
  8
Defpoints
  6
Continuous
 62
     0
100
AcDbPoint
 10
1210.568836853685
 20
678.135327763143
 30
0.0
  0
ENDBLK
  5
14F
330
145
100
AcDbEntity
  8
0
100
AcDbBlockEnd
  0
BLOCK
  5
152
330
151
100
AcDbEntity
  8
0
100
AcDbBlockBegin
  2
*D15
 70
     1
 10
0.0
 20
0.0
 30
0.0
  3
*D15
  1

  0
LINE
  5
4F0
330
151
100
AcDbEntity
  8
LAY-1
  6
Continuous
 62
     1
370
    -2
100
AcDbLine
 10
1388.875008
 20
932.0000000000002
 30
0.0
 11
1348.137673707371
 21
932.0000000000002
 31
0.0
  0
ARC
  5
4F1
330
151
100
AcDbEntity
  8
LAY-1
  6
Continuous
 62
     1
370
    -2
100
AcDbCircle
 10
1064.0
 20
932.0000000000002
 30
0.0
 40
293.1376737073714
100
AcDbArc
 50
318.5187770759772
 51
356.4812229240228
  0
INSERT
  5
4F2
330
151
100
AcDbEntity
  8
LAY-1
  6
Continuous
 62
     1
370
    -2
100
AcDbBlockReference
  2
_EX_NORM
 10
1271.279636899732
 20
724.7203631002682
 30
0.0
 41
18.0
 42
18.0
 43
18.0
 50
226.7593885379886
  0
INSERT
  5
4F3
330
151
100
AcDbEntity
  8
LAY-1
  6
Continuous
 62
     1
370
    -2
100
AcDbBlockReference
  2
_EX_NORM
 10
1357.137673707371
 20
932.0000000000002
 30
0.0
 41
18.0
 42
18.0
 43
18.0
 50
88.24061146201133
  0
MTEXT
  5
4F4
330
151
100
AcDbEntity
  8
LAY-1
  6
Continuous
 62
     1
100
AcDbMText
 10
1323.737342607662
 20
824.4132701830654
 30
0.0
 40
18.0
 41
0.0
 71
     5
 72
     1
  1
\A1;45°
 11
0.3826834319221084
 21
0.9238795326947755
 31
0.0
 73
     1
 44
1.0
  0
POINT
  5
4F5
330
151
100
AcDbEntity
  8
Defpoints
  6
Continuous
 62
     0
100
AcDbPoint
 10
1064.0
 20
932.0000000000002
 30
0.0
  0
POINT
  5
4F6
330
151
100
AcDbEntity
  8
Defpoints
  6
Continuous
 62
     0
100
AcDbPoint
 10
1279.764918
 20
716.2350819999999
 30
0.0
  0
POINT
  5
4F7
330
151
100
AcDbEntity
  8
Defpoints
  6
Continuous
 62
     0
100
AcDbPoint
 10
1388.937508
 20
932.0000000000002
 30
0.0
  0
POINT
  5
4F8
330
151
100
AcDbEntity
  8
Defpoints
  6
Continuous
 62
     0
100
AcDbPoint
 10
1317.864672236857
 20
785.4311631463144
 30
0.0
  0
ENDBLK
  5
15B
330
151
100
AcDbEntity
  8
0
100
AcDbBlockEnd
  0
BLOCK
  5
160
330
15F
100
AcDbEntity
  8
0
100
AcDbBlockBegin
  2
*D16
 70
     1
 10
0.0
 20
0.0
 30
0.0
  3
*D16
  1

  0
LINE
  5
4F9
330
15F
100
AcDbEntity
  8
LAY-1
  6
Continuous
 62
     1
370
    -2
100
AcDbLine
 10
2043.499999999999
 20
385.0
 30
0.0
 11
2043.499999999999
 21
278.0
 31
0.0
  0
LINE
  5
4FA
330
15F
100
AcDbEntity
  8
LAY-1
  6
Continuous
 62
     1
370
    -2
100
AcDbLine
 10
2081.0
 20
542.5765519999999
 30
0.0
 11
2081.0
 21
278.0
 31
0.0
  0
LINE
  5
4FB
330
15F
100
AcDbEntity
  8
LAY-1
  6
Continuous
 62
     1
370
    -2
100
AcDbLine
 10
2025.499999999999
 20
287.0
 30
0.0
 11
2007.499999999999
 21
287.0
 31
0.0
  0
LINE
  5
4FC
330
15F
100
AcDbEntity
  8
LAY-1
  6
Continuous
 62
     1
370
    -2
100
AcDbLine
 10
2099.0
 20
287.0
 30
0.0
 11
2189.0
 21
287.0
 31
0.0
  0
INSERT
  5
4FD
330
15F
100
AcDbEntity
  8
LAY-1
  6
Continuous
 62
     1
370
    -2
100
AcDbBlockReference
  2
_EX_NORM
 10
2043.499999999999
 20
287.0
 30
0.0
 41
18.0
 42
18.0
 43
18.0
  0
INSERT
  5
4FE
330
15F
100
AcDbEntity
  8
LAY-1
  6
Continuous
 62
     1
370
    -2
100
AcDbBlockReference
  2
_EX_NONE
 10
2081.0
 20
287.0
 30
0.0
 41
18.0
 42
18.0
 43
18.0
 50
180.0
  0
MTEXT
  5
4FF
330
15F
100
AcDbEntity
  8
LAY-1
  6
Continuous
 62
     1
100
AcDbMText
 10
2153.0
 20
299.0
 30
0.0
 40
18.0
 41
0.0
 71
     5
 72
     1
  1
\A1;37.5
 73
     1
 44
1.0
  0
POINT
  5
500
330
15F
100
AcDbEntity
  8
Defpoints
  6
Continuous
 62
     0
100
AcDbPoint
 10
2043.499999999999
 20
394.0
 30
0.0
  0
POINT
  5
501
330
15F
100
AcDbEntity
  8
Defpoints
  6
Continuous
 62
     0
100
AcDbPoint
 10
2081.0
 20
551.576552
 30
0.0
  0
POINT
  5
502
330
15F
100
AcDbEntity
  8
Defpoints
  6
Continuous
 62
     0
100
AcDbPoint
 10
2081.0
 20
287.0
 30
0.0
  0
ENDBLK
  5
167
330
15F
100
AcDbEntity
  8
0
100
AcDbBlockEnd
  0
BLOCK
  5
16A
330
169
100
AcDbEntity
  8
0
100
AcDbBlockBegin
  2
*D17
 70
     1
 10
0.0
 20
0.0
 30
0.0
  3
*D17
  1

  0
LINE
  5
503
330
169
100
AcDbEntity
  8
LAY-1
  6
Continuous
 62
     1
370
    -2
100
AcDbLine
 10
2118.5
 20
385.0
 30
0.0
 11
2118.5
 21
278.0
 31
0.0
  0
LINE
  5
504
330
169
100
AcDbEntity
  8
LAY-1
  6
Continuous
 62
     1
370
    -2
100
AcDbLine
 10
2075.0
 20
287.0
 30
0.0
 11
2069.0
 21
287.0
 31
0.0
  0
LINE
  5
505
330
169
100
AcDbEntity
  8
LAY-1
  6
Continuous
 62
     1
370
    -2
100
AcDbLine
 10
2124.5
 20
287.0
 30
0.0
 11
2244.5
 21
287.0
 31
0.0
  0
INSERT
  5
506
330
169
100
AcDbEntity
  8
LAY-1
  6
Continuous
 62
     1
370
    -2
100
AcDbBlockReference
  2
_EX_BCIR
 10
2081.0
 20
287.0
 30
0.0
 41
6.0
 42
6.0
 43
6.0
  0
INSERT
  5
507
330
169
100
AcDbEntity
  8
LAY-1
  6
Continuous
 62
     1
370
    -2
100
AcDbBlockReference
  2
_EX_NORM
 10
2118.5
 20
287.0
 30
0.0
 41
6.0
 42
6.0
 43
6.0
 50
180.0
  0
MTEXT
  5
508
330
169
100
AcDbEntity
  8
LAY-1
  6
Continuous
 62
     1
100
AcDbMText
 10
2187.5
 20
320.0
 30
0.0
 40
18.0
 41
0.0
 71
     5
 72
     1
  1
\A1;37.5
 73
     1
 44
1.0
  0
POINT
  5
509
330
169
100
AcDbEntity
  8
Defpoints
  6
Continuous
 62
     0
100
AcDbPoint
 10
2081.0
 20
551.576552
 30
0.0
  0
POINT
  5
50A
330
169
100
AcDbEntity
  8
Defpoints
  6
Continuous
 62
     0
100
AcDbPoint
 10
2118.5
 20
394.0
 30
0.0
  0
POINT
  5
50B
330
169
100
AcDbEntity
  8
Defpoints
  6
Continuous
 62
     0
100
AcDbPoint
 10
2118.5
 20
287.0
 30
0.0
  0
ENDBLK
  5
172
330
169
100
AcDbEntity
  8
0
100
AcDbBlockEnd
  0
BLOCK
  5
190
330
185
100
AcDbEntity
  8
0
100
AcDbBlockBegin
  2
*D18
 70
     1
 10
0.0
 20
0.0
 30
0.0
  3
*D18
  1

  0
LINE
  5
186
330
185
100
AcDbEntity
  8
LAY-1
  6
Continuous
 62
     0
370
    -2
100
AcDbLine
 10
-2433.999997828693
 20
54.93766219933395
 30
0.0
 11
-2434.000002182139
 21
-55.21161794814188
 31
0.0
  0
LINE
  5
187
330
185
100
AcDbEntity
  8
LAY-1
  6
Continuous
 62
     0
370
    -2
100
AcDbLine
 10
-1257.999997828691
 20
54.93766372011588
 30
0.0
 11
-1258.000002182139
 21
-55.21166442735996
 31
0.0
  0
LINE
  5
188
330
185
100
AcDbEntity
  8
LAY-1
  6
Continuous
 62
     0
370
    -2
100
AcDbLine
 10
-2433.820002175024
 20
-55.03161795525604
 30
0.0
 11
-1846.870002175024
 21
-55.03164115336577
 31
0.0
  0
LINE
  5
189
330
185
100
AcDbEntity
  8
LAY-1
  6
Continuous
 62
     0
370
    -2
100
AcDbLine
 10
-1258.180002175025
 20
-55.03166442024578
 30
0.0
 11
-1845.130002175025
 21
-55.03164122213605
 31
0.0
  0
SOLID
  5
18A
330
185
100
AcDbEntity
  8
LAY-1
  6
Continuous
 62
     0
100
AcDbTrace
 10
-2433.820002173839
 20
-55.00161795525603
 30
0.0
 11
-2433.82000217621
 21
-55.06161795525604
 31
0.0
 12
-2434.000002175022
 22
-55.03161794814187
 32
0.0
 13
-2434.000002175022
 23
-55.03161794814187
 33
0.0
  0
SOLID
  5
18B
330
185
100
AcDbEntity
  8
LAY-1
  6
Continuous
 62
     0
100
AcDbTrace
 10
-1258.180002173839
 20
-55.00166442024578
 30
0.0
 11
-1258.180002176211
 21
-55.06166442024579
 31
0.0
 12
-1258.000002175025
 22
-55.03166442735995
 32
0.0
 13
-1258.000002175025
 23
-55.03166442735995
 33
0.0
  0
MTEXT
  5
18C
330
185
100
AcDbEntity
  8
LAY-1
  6
Continuous
 62
     0
100
AcDbMText
 10
-1846.000002175025
 20
-55.0316411877509
 30
0.0
 40
0.18
 41
0.0
 71
     5
 72
     1
  1
\A1;1176.0000
 11
0.9999999999999992
 21
-0.0000000395231446
 31
0.0
 73
     1
 44
1.0
  0
POINT
  5
18D
330
185
100
AcDbEntity
  8
Defpoints
  6
Continuous
 62
     0
100
AcDbPoint
 10
-2434.0
 20
55.00006599999998
 30
0.0
  0
POINT
  5
18E
330
185
100
AcDbEntity
  8
Defpoints
  6
Continuous
 62
     0
100
AcDbPoint
 10
-1258.0
 20
55.00011399999999
 30
0.0
  0
POINT
  5
18F
330
185
100
AcDbEntity
  8
Defpoints
  6
Continuous
 62
     0
100
AcDbPoint
 10
-1258.0
 20
-55.03171414747593
 30
0.0
  0
ENDBLK
  5
191
330
185
100
AcDbEntity
  8
0
100
AcDbBlockEnd
  0
BLOCK
  5
19E
330
193
100
AcDbEntity
  8
0
100
AcDbBlockBegin
  2
*D19
 70
     1
 10
0.0
 20
0.0
 30
0.0
  3
*D19
  1

  0
LINE
  5
2BF
330
193
100
AcDbEntity
  8
LAY-1
  6
Continuous
 62
     0
370
    -2
100
AcDbLine
 10
-2433.999990709585
 20
235.0626621993338
 30
0.0
 11
-2433.999988170292
 21
299.3109395548238
 31
0.0
  0
LINE
  5
2C0
330
193
100
AcDbEntity
  8
LAY-1
  6
Continuous
 62
     0
370
    -2
100
AcDbLine
 10
-1257.999990709585
 20
235.0626637201155
 30
0.0
 11
-1257.999988170293
 21
299.3108930756056
 31
0.0
  0
LINE
  5
2C1
330
193
100
AcDbEntity
  8
LAY-1
  6
Continuous
 62
     0
370
    -2
100
AcDbLine
 10
-2403.999988177406
 20
299.1309383691293
 30
0.0
 11
-2019.423321510739
 21
299.1309231694501
 31
0.0
  0
LINE
  5
2C2
330
193
100
AcDbEntity
  8
LAY-1
  6
Continuous
 62
     0
370
    -2
100
AcDbLine
 10
-1287.999988177407
 20
299.1308942613
 30
0.0
 11
-1672.576654844072
 21
299.1309094609793
 31
0.0
  0
SOLID
  5
2C3
330
193
100
AcDbEntity
  8
LAY-1
  6
Continuous
 62
     0
100
AcDbTrace
 10
-2403.999987979791
 20
304.1309383691293
 30
0.0
 11
-2403.999988375022
 21
294.1309383691292
 31
0.0
 12
-2433.999988177406
 22
299.1309395548236
 32
0.0
 13
-2433.999988177406
 23
299.1309395548236
 33
0.0
  0
SOLID
  5
2C4
330
193
100
AcDbEntity
  8
LAY-1
  6
Continuous
 62
     0
100
AcDbTrace
 10
-1287.999987979791
 20
304.1308942612999
 30
0.0
 11
-1287.999988375023
 21
294.1308942612998
 31
0.0
 12
-1257.999988177407
 22
299.1308930756056
 32
0.0
 13
-1257.999988177407
 23
299.1308930756056
 33
0.0
  0
MTEXT
  5
2C5
330
193
100
AcDbEntity
  8
LAY-1
  6
Continuous
 62
     0
100
AcDbMText
 10
-1845.999988177407
 20
299.1309163152148
 30
0.0
 40
40.0
 41
0.0
 71
     5
 72
     1
  1
\A1;1176.0000
 11
0.9999999999999992
 21
-0.0000000395231446
 31
0.0
 73
     1
 44
1.0
  0
POINT
  5
2C6
330
193
100
AcDbEntity
  8
Defpoints
  6
Continuous
 62
     0
100
AcDbPoint
 10
-2434.0
 20
235.000066
 30
0.0
  0
POINT
  5
2C7
330
193
100
AcDbEntity
  8
Defpoints
  6
Continuous
 62
     0
100
AcDbPoint
 10
-1258.0
 20
235.0001139999999
 30
0.0
  0
POINT
  5
2C8
330
193
100
AcDbEntity
  8
Defpoints
  6
Continuous
 62
     0
100
AcDbPoint
 10
-1258.0
 20
299.13084335549
 30
0.0
  0
ENDBLK
  5
19F
330
193
100
AcDbEntity
  8
0
100
AcDbBlockEnd
  0
BLOCK
  5
2D5
330
2CA
100
AcDbEntity
  8
0
100
AcDbBlockBegin
  2
*D20
 70
     1
 10
0.0
 20
0.0
 30
0.0
  3
*D20
  1

  0
LINE
  5
2CB
330
2CA
100
AcDbEntity
  8
LAY-1
  6
Continuous
 62
     0
370
    -2
100
AcDbLine
 10
-2433.937497826223
 20
55.0001621968633
 30
0.0
 11
-2179.800444855011
 21
55.00015215256778
 31
0.0
  0
LINE
  5
2CC
330
2CA
100
AcDbEntity
  8
LAY-1
  6
Continuous
 62
     0
370
    -2
100
AcDbLine
 10
-2433.937495454833
 20
115.0001621968631
 30
0.0
 11
-2179.800442483622
 21
115.0001521525676
 31
0.0
  0
LINE
  5
2CD
330
2CA
100
AcDbEntity
  8
LAY-1
  6
Continuous
 62
     0
370
    -2
100
AcDbLine
 10
-2179.980446040703
 20
25.00015215968195
 30
0.0
 11
-2179.980447226399
 21
-4.999847840318018
 31
0.0
  0
LINE
  5
2CE
330
2CA
100
AcDbEntity
  8
LAY-1
  6
Continuous
 62
     0
370
    -2
100
AcDbLine
 10
-2179.980441297928
 20
145.0001521596815
 30
0.0
 11
-2179.980440112232
 21
175.0001521596813
 31
0.0
  0
SOLID
  5
2CF
330
2CA
100
AcDbEntity
  8
LAY-1
  6
Continuous
 62
     0
100
AcDbTrace
 10
-2184.980446040705
 20
25.00015235729768
 30
0.0
 11
-2174.980446040704
 21
25.00015196206623
 31
0.0
 12
-2179.980444855011
 22
55.00015215968193
 32
0.0
 13
-2179.980444855011
 23
55.00015215968193
 33
0.0
  0
SOLID
  5
2D0
330
2CA
100
AcDbEntity
  8
LAY-1
  6
Continuous
 62
     0
100
AcDbTrace
 10
-2184.980441297927
 20
145.0001523572975
 30
0.0
 11
-2174.980441297928
 21
145.0001519620661
 31
0.0
 12
-2179.980442483622
 22
115.0001521596819
 32
0.0
 13
-2179.980442483622
 23
115.0001521596819
 33
0.0
  0
MTEXT
  5
2D1
330
2CA
100
AcDbEntity
  8
LAY-1
  6
Continuous
 62
     0
100
AcDbMText
 10
-2179.980443669316
 20
85.00015215968229
 30
0.0
 40
40.0
 41
0.0
 71
     5
 72
     1
  1
\A1;60.0000
 11
0.9999999999999992
 21
-0.0000000395231448
 31
0.0
 73
     1
 44
1.0
  0
POINT
  5
2D2
330
2CA
100
AcDbEntity
  8
Defpoints
  6
Continuous
 62
     0
100
AcDbPoint
 10
-2434.0
 20
55.00006599999998
 30
0.0
  0
POINT
  5
2D3
330
2CA
100
AcDbEntity
  8
Defpoints
  6
Continuous
 62
     0
100
AcDbPoint
 10
-2434.0
 20
115.0000659999999
 30
0.0
  0
POINT
  5
2D4
330
2CA
100
AcDbEntity
  8
Defpoints
  6
Continuous
 62
     0
100
AcDbPoint
 10
-2179.980447028788
 20
115.0000659999999
 30
0.0
  0
ENDBLK
  5
2D6
330
2CA
100
AcDbEntity
  8
0
100
AcDbBlockEnd
  0
BLOCK
  5
366
330
365
100
AcDbEntity
  8
0
100
AcDbBlockBegin
  2
tmp
 70
     0
 10
0.0
 20
0.0
 30
0.0
  3
tmp
  1

  0
LINE
  5
368
330
365
100
AcDbEntity
  8
LAY-1
  6
Continuous
100
AcDbLine
 10
-1000.000007114165
 20
40.00002608162319
 30
0.0
 11
-2000.000007114165
 21
40.00002608162319
 31
0.0
  0
LINE
  5
369
330
365
100
AcDbEntity
  8
LAY-1
  6
Continuous
100
AcDbLine
 10
-1000.000007114165
 20
70.00002608162319
 30
0.0
 11
-2000.000007114165
 21
70.00002608162319
 31
0.0
  0
LINE
  5
36A
330
365
100
AcDbEntity
  8
LAY-1
  6
Continuous
100
AcDbLine
 10
-1000.000007114165
 20
100.000026081623
 30
0.0
 11
-2000.000007114165
 21
100.000026081623
 31
0.0
  0
LINE
  5
36B
330
365
100
AcDbEntity
  8
LAY-1
  6
Continuous
370
   100
100
AcDbLine
 10
-2000.000007114165
 20
100.000026081623
 30
0.0
 11
-2000.000007114165
 21
0.0
 31
0.0
  0
MTEXT
  5
36C
330
365
100
AcDbEntity
  8
LAY-1
  6
Continuous
100
AcDbMText
 10
-1677.64366423378
 20
62.23897379804522
 30
0.0
 40
18.0
 41
678.2992
 71
     1
 72
     5
  1
105-219-018   Belt cramp
 73
     1
 44
1.0
  0
MTEXT
  5
36D
330
365
100
AcDbEntity
  8
LAY-1
  6
Continuous
100
AcDbMText
 10
-1676.853113069364
 20
91.70816675404379
 30
0.0
 40
18.0
 41
678.2992
 71
     1
 72
     5
  1
105-219-002   Base fix
 73
     1
 44
1.0
  0
MTEXT
  5
36E
330
365
100
AcDbEntity
  8
LAY-1
  6
Continuous
100
AcDbMText
 10
-1788.430004609069
 20
63.00586711615642
 30
0.0
 40
20.0
 41
49.7125
 71
     1
 72
     5
  1
2
 73
     1
 44
1.0
  0
MTEXT
  5
36F
330
365
100
AcDbEntity
  8
LAY-1
  6
Continuous
100
AcDbMText
 10
-1812.733878614856
 20
36.49732258114635
 30
0.0
 40
12.0
 41
89.48249999999999
 71
     1
 72
     5
  1
NUMBER\P{\fMS UI Gothic|b0|i0|c0|p17;REQD}
 73
     1
 44
1.0
  0
MTEXT
  5
370
330
365
100
AcDbEntity
  8
LAY-1
  6
Continuous
100
AcDbMText
 10
-1940.881602057239
 20
95.0199720931573
 30
0.0
 40
20.0
 41
49.7125
 71
     1
 72
     5
  1
2
 73
     1
 44
1.0
  0
LINE
  5
371
330
365
100
AcDbEntity
  8
LAY-1
  6
Continuous
100
AcDbLine
 10
-1850.000007114165
 20
100.000026081623
 30
0.0
 11
-1850.000007114165
 21
0.0
 31
0.0
  0
MTEXT
  5
372
330
365
100
AcDbEntity
  8
LAY-1
  6
Continuous
100
AcDbMText
 10
-1964.080765245817
 20
36.51142839357817
 30
0.0
 40
12.0
 41
89.48246129588644
 71
     1
 72
     5
  1
ITEM\PNUMBER
 73
     1
 44
1.0
  0
MTEXT
  5
373
330
365
100
AcDbEntity
  8
LAY-1
  6
Continuous
100
AcDbMText
 10
-1940.881602057239
 20
63.0058711064853
 30
0.0
 40
20.0
 41
49.7125
 71
     1
 72
     5
  1
1
 73
     1
 44
1.0
  0
MTEXT
  5
374
330
365
100
AcDbEntity
  8
LAY-1
  6
Continuous
100
AcDbMText
 10
-1787.325286416011
 20
93.91603964033855
 30
0.0
 40
20.0
 41
49.7125
 71
     1
 72
     5
  1
2
 73
     1
 44
1.0
  0
LINE
  5
375
330
365
100
AcDbEntity
  8
LAY-1
  6
Continuous
100
AcDbLine
 10
-1700.000007114165
 20
100.000026081623
 30
0.0
 11
-1700.000007114165
 21
0.0
 31
0.0
  0
MTEXT
  5
376
330
365
100
AcDbEntity
  8
LAY-1
  6
Continuous
100
AcDbMText
 10
-1456.902013321914
 20
25.08171802449169
 30
0.0
 40
12.0
 41
198.7384999999999
 71
     1
 72
     5
  1
{\fMS UI Gothic|b0|i0|c0|p17;DESCRIPTION}
 73
     1
 44
1.0
  0
LINE
  5
377
330
365
100
AcDbEntity
  8
LAY-1
  6
Continuous
370
   100
100
AcDbLine
 10
-0.0000071141662374
 20
180.0000659999998
 30
0.0
 11
-1000.000007114165
 21
180.0000264768547
 31
0.0
210
0.0
220
0.0
230
-1.0
  0
LINE
  5
378
330
365
100
AcDbEntity
  8
LAY-1
  6
Continuous
370
   100
100
AcDbLine
 10
-0.0000047427774916
 20
120.0000659999996
 30
0.0
 11
-1000.000004742777
 21
120.0000264768547
 31
0.0
210
0.0
220
0.0
230
-1.0
  0
LINE
  5
379
330
365
100
AcDbEntity
  8
LAY-1
  6
Continuous
370
   100
100
AcDbLine
 10
-0.0000023713887458
 20
60.00006599999995
 30
0.0
 11
-1000.000002371387
 21
60.00002647685484
 31
0.0
210
0.0
220
0.0
230
-1.0
  0
MTEXT
  5
37A
330
365
100
AcDbEntity
  8
LAY-1
  6
Continuous
100
AcDbMText
 10
-590.7138275482513
 20
35.17493159560671
 30
0.0
 40
18.0
 41
191.3840999999998
 71
     1
 72
     5
  1
DRAWING NO.
 73
     1
 44
1.0
  0
MTEXT
  5
37B
330
365
100
AcDbEntity
  8
LAY-1
  6
Continuous
100
AcDbMText
 10
-590.2880326602293
 20
113.0906998121317
 30
0.0
 40
18.0
 41
200.0
 71
     1
 72
     5
  1
PHENIX\PDRAWUNG NO.
 73
     1
 44
1.0
  0
MTEXT
  5
37C
330
365
100
AcDbEntity
  8
LAY-1
  6
Continuous
100
AcDbMText
 10
-959.4485800605562
 20
176.8053289173614
 30
0.0
 40
18.0
 41
335.4916928731971
 71
     1
 72
     5
  1
{\fArial|b1|i0|c0|p34;PHENIX TOC IN TSUKUBA\P\fArial|b0|i0|c0|p34;\H0.6667x;Dept. of Physics , Tsukuba Univ.  Japan}
 73
     1
 44
1.0
  0
MTEXT
  5
37D
330
365
100
AcDbEntity
  8
LAY-1
  6
Continuous
100
AcDbMText
 10
-986.0749106285346
 20
111.173844740807
 30
0.0
 40
15.0
 41
386.9692999999998
 71
     1
 72
     5
  1
{\fArial|b0|i0|c0|p34;JUL 31 2001\P\fArial|b1|i0|c0|p34;\H1.2x;CI \fMS UI Gothic|b1|i0|c0|p17; \fArial|b1|i0|c0|p34;INDUSTRIES, LTD. (JAPAN)}
 73
     1
 44
1.0
  0
MTEXT
  5
37E
330
365
100
AcDbEntity
  8
LAY-1
  6
Continuous
100
AcDbMText
 10
-938.1475333082152
 20
50.86383117577589
 30
0.0
 40
15.0
 41
298.2148536807508
 71
     1
 72
     5
  1
{\fArial|b0|i1|c0|p34;ALL DIMENSIONS ARE IN MILLIMETERS (mm) .}
 73
     1
 44
1.0
  0
LINE
  5
37F
330
365
100
AcDbEntity
  8
LAY-1
  6
Continuous
370
   100
100
AcDbLine
 10
-1000.000007114165
 20
180.0000264768545
 30
0.0
 11
-999.9999999999996
 21
0.000026476854778
 31
0.0
210
0.0
220
0.0
230
-1.0
  0
LINE
  5
380
330
365
100
AcDbEntity
  8
LAY-1
  6
Continuous
370
   100
100
AcDbLine
 10
-600.0000071141657
 20
180.0000422861128
 30
0.0
 11
-600.0000071141657
 21
0.0
 31
0.0
210
0.0
220
0.0
230
-1.0
  0
MTEXT
  5
381
330
365
100
AcDbEntity
  8
LAY-1
  6
Continuous
100
AcDbMText
 10
-563.7068912913382
 20
159.5133743437569
 30
0.0
 40
20.0
 41
200.0
 71
     1
 72
     5
  1
TITLE
 73
     1
 44
1.0
  0
MTEXT
  5
382
330
365
100
AcDbEntity
  8
LAY-1
  6
Continuous
100
AcDbMText
 10
-327.3218745647926
 20
107.6261989965672
 30
0.0
 40
30.0
 41
279.5142962216194
 71
     1
 72
     5
  1
{\fArial|b0|i0|c0|p34;105-219-001}
 73
     1
 44
1.0
  0
MTEXT
  5
383
330
365
100
AcDbEntity
  8
LAY-1
  6
Continuous
100
AcDbMText
 10
-268.9392200394804
 20
167.9362125615984
 30
0.0
 40
30.0
 41
124.2562
 71
     1
 72
     5
  1
{\fArial|b1|i0|c0|p34;Belt}
 73
     1
 44
1.0
  0
LINE
  5
384
330
365
100
AcDbEntity
  8
LAY-1
  6
Continuous
100
AcDbLine
 10
-400.0000071141657
 20
180.0000422861128
 30
0.0
 11
-400.0000071141657
 21
0.0
 31
0.0
210
0.0
220
0.0
230
-1.0
  0
MTEXT
  5
385
330
365
100
AcDbEntity
  8
LAY-1
  6
Continuous
100
AcDbMText
 10
-265.3801576794202
 20
39.1654679275548
 30
0.0
 40
20.0
 41
107.8721192286921
 71
     1
 72
     5
  1
014
 73
     1
 44
1.0
  0
ENDBLK
  5
367
330
365
100
AcDbEntity
  8
0
100
AcDbBlockEnd
  0
BLOCK
  5
3C8
330
3BD
100
AcDbEntity
  8
0
100
AcDbBlockBegin
  2
*D22
 70
     1
 10
0.0
 20
0.0
 30
0.0
  3
*D22
  1

  0
LINE
  5
3BE
330
3BD
100
AcDbEntity
  8
LAY-1
  6
Continuous
 62
     0
370
    -2
100
AcDbLine
 10
1433.999992885834
 20
235.0625264768547
 30
0.0
 11
1433.999992885834
 21
374.0744011264335
 31
0.0
  0
LINE
  5
3BF
330
3BD
100
AcDbEntity
  8
LAY-1
  6
Continuous
 62
     0
370
    -2
100
AcDbLine
 10
1833.999992885834
 20
235.0625264768547
 30
0.0
 11
1833.999992885834
 21
374.0744011264335
 31
0.0
  0
LINE
  5
3C0
330
3BD
100
AcDbEntity
  8
LAY-1
  6
Continuous
 62
     0
370
    -2
100
AcDbLine
 10
1463.999992885834
 20
373.8944011264336
 30
0.0
 11
1480.5766595525
 21
373.8944011264336
 31
0.0
  0
LINE
  5
3C1
330
3BD
100
AcDbEntity
  8
LAY-1
  6
Continuous
 62
     0
370
    -2
100
AcDbLine
 10
1803.999992885834
 20
373.8944011264336
 30
0.0
 11
1787.423326219166
 21
373.8944011264336
 31
0.0
  0
SOLID
  5
3C2
330
3BD
100
AcDbEntity
  8
LAY-1
  6
Continuous
 62
     0
100
AcDbTrace
 10
1463.999992885834
 20
378.8944011264334
 30
0.0
 11
1463.999992885834
 21
368.8944011264335
 31
0.0
 12
1433.999992885834
 22
373.8944011264336
 32
0.0
 13
1433.999992885834
 23
373.8944011264336
 33
0.0
  0
SOLID
  5
3C3
330
3BD
100
AcDbEntity
  8
LAY-1
  6
Continuous
 62
     0
100
AcDbTrace
 10
1803.999992885834
 20
378.8944011264334
 30
0.0
 11
1803.999992885834
 21
368.8944011264335
 31
0.0
 12
1833.999992885834
 22
373.8944011264336
 32
0.0
 13
1833.999992885834
 23
373.8944011264336
 33
0.0
  0
MTEXT
  5
3C4
330
3BD
100
AcDbEntity
  8
LAY-1
  6
Continuous
 62
     0
100
AcDbMText
 10
1633.999992885834
 20
373.8944011264336
 30
0.0
 40
40.0
 41
0.0
 71
     5
 72
     1
  1
\A1;400.0000
 73
     1
 44
1.0
  0
POINT
  5
3C5
330
3BD
100
AcDbEntity
  8
Defpoints
  6
Continuous
 62
     0
100
AcDbPoint
 10
1433.999992885834
 20
235.0000264768547
 30
0.0
  0
POINT
  5
3C6
330
3BD
100
AcDbEntity
  8
Defpoints
  6
Continuous
 62
     0
100
AcDbPoint
 10
1833.999992885834
 20
235.0000264768547
 30
0.0
  0
POINT
  5
3C7
330
3BD
100
AcDbEntity
  8
Defpoints
  6
Continuous
 62
     0
100
AcDbPoint
 10
1833.999992885834
 20
373.8944011264336
 30
0.0
  0
ENDBLK
  5
3C9
330
3BD
100
AcDbEntity
  8
0
100
AcDbBlockEnd
  0
BLOCK
  5
434
330
429
100
AcDbEntity
  8
0
 62
     1
100
AcDbBlockBegin
  2
*D23
 70
     1
 10
0.0
 20
0.0
 30
0.0
  3
*D23
  1

  0
ARC
  5
50C
330
429
100
AcDbEntity
  8
LAY-1
  6
Continuous
 62
     0
370
    -2
100
AcDbCircle
 10
1064.212691107873
 20
931.7873088921261
 30
0.0
 40
488.8936855125533
100
AcDbArc
 50
301.7365372336815
 51
305.5009658631428
  0
ARC
  5
50D
330
429
100
AcDbEntity
  8
LAY-1
  6
Continuous
 62
     0
370
    -2
100
AcDbCircle
 10
1064.212691107873
 20
931.7873088921261
 30
0.0
 40
488.8936855125533
100
AcDbArc
 50
309.3913977859189
 51
313.2420095993341
  0
SOLID
  5
50E
330
429
100
AcDbEntity
  8
LAY-1
  6
Continuous
 62
     0
100
AcDbTrace
 10
1322.659927312492
 20
513.8489251515851
 30
0.0
 11
1320.095401021722
 21
518.1411512528001
 31
0.0
 12
1308.500985863462
 22
508.3014593298839
 32
0.0
 13
1308.500985863462
 23
508.3014593298839
 33
0.0
  0
SOLID
  5
50F
330
429
100
AcDbEntity
  8
LAY-1
  6
Continuous
 62
     0
100
AcDbTrace
 10
1397.404224482748
 20
577.4393061463324
 30
0.0
 11
1400.88510456782
 21
573.8499505170659
 31
0.0
 12
1409.912731413083
 22
586.0872685869164
 32
0.0
 13
1409.912731413083
 23
586.0872685869164
 33
0.0
  0
MTEXT
  5
510
330
429
100
AcDbEntity
  8
LAY-1
  6
Continuous
 62
     0
100
AcDbMText
 10
1361.759690601056
 20
543.8661586223178
 30
0.0
 40
20.0
 41
0.0
 71
     5
 72
     1
  1
\A1;15°
 73
     1
 44
1.0
  0
POINT
  5
511
330
429
100
AcDbEntity
  8
Defpoints
  6
Continuous
 62
     0
100
AcDbPoint
 10
1344.530613307105
 20
531.2390618257423
 30
0.0
  0
POINT
  5
512
330
429
100
AcDbEntity
  8
Defpoints
  6
Continuous
 62
     0
100
AcDbPoint
 10
1064.0
 20
932.0
 30
0.0
  0
POINT
  5
513
330
429
100
AcDbEntity
  8
Defpoints
  6
Continuous
 62
     0
100
AcDbPoint
 10
1064.089999999998
 20
931.9999999999998
 30
0.0
  0
POINT
  5
514
330
429
100
AcDbEntity
  8
Defpoints
  6
Continuous
 62
     0
100
AcDbPoint
 10
1348.262057713659
 20
439.3736733758635
 30
0.0
  0
POINT
  5
515
330
429
100
AcDbEntity
  8
Defpoints
  6
Continuous
 62
     0
100
AcDbPoint
 10
1444.423448
 20
551.576552
 30
0.0
  0
ENDBLK
  5
435
330
429
100
AcDbEntity
  8
0
 62
     1
100
AcDbBlockEnd
  0
BLOCK
  5
443
330
437
100
AcDbEntity
  8
0
 62
     1
100
AcDbBlockBegin
  2
*D24
 70
     1
 10
0.0
 20
0.0
 30
0.0
  3
*D24
  1

  0
ARC
  5
516
330
437
100
AcDbEntity
  8
LAY-1
  6
Continuous
 62
     0
370
    -2
100
AcDbCircle
 10
1063.602550414235
 20
932.8450179823487
 30
0.0
 40
490.109601182432
100
AcDbArc
 50
286.4860482197812
 51
288.2396768712383
  0
ARC
  5
517
330
437
100
AcDbEntity
  8
LAY-1
  6
Continuous
 62
     0
370
    -2
100
AcDbCircle
 10
1063.602550414235
 20
932.8450179823487
 30
0.0
 40
490.109601182432
100
AcDbArc
 50
301.7321754844727
 51
303.4858041359297
  0
SOLID
  5
518
330
437
100
AcDbEntity
  8
LAY-1
  6
Continuous
 62
     0
100
AcDbTrace
 10
1216.184549028919
 20
469.7228485643257
 30
0.0
 11
1217.821998358864
 21
464.9985751078181
 31
0.0
 12
1231.176094063414
 22
472.273059825907
 32
0.0
 13
1231.176094063414
 23
472.273059825907
 33
0.0
  0
SOLID
  5
519
330
437
100
AcDbEntity
  8
LAY-1
  6
Continuous
 62
     0
100
AcDbTrace
 10
1322.657561278281
 20
513.8528538779032
 30
0.0
 11
1320.09319836627
 21
518.1451775907077
 31
0.0
 12
1308.498408683862
 22
508.305926998273
 32
0.0
 13
1308.498408683862
 23
508.305926998273
 33
0.0
  0
MTEXT
  5
51A
330
437
100
AcDbEntity
  8
LAY-1
  6
Continuous
 62
     0
100
AcDbMText
 10
1270.622703440407
 20
488.6040052288856
 30
0.0
 40
20.0
 41
0.0
 71
     5
 72
     1
  1
\A1;10°
 73
     1
 44
1.0
  0
POINT
  5
51B
330
437
100
AcDbEntity
  8
Defpoints
  6
Continuous
 62
     0
100
AcDbPoint
 10
1257.633820757896
 20
482.7791480254862
 30
0.0
  0
POINT
  5
51C
330
437
100
AcDbEntity
  8
Defpoints
  6
Continuous
 62
     0
100
AcDbPoint
 10
1064.089999999999
 20
932.0
 30
0.0
  0
POINT
  5
51D
330
437
100
AcDbEntity
  8
Defpoints
  6
Continuous
 62
     0
100
AcDbPoint
 10
1063.909999999999
 20
932.0000000000002
 30
0.0
  0
POINT
  5
51E
330
437
100
AcDbEntity
  8
Defpoints
  6
Continuous
 62
     0
100
AcDbPoint
 10
1253.082873877042
 20
412.0627888252077
 30
0.0
  0
POINT
  5
51F
330
437
100
AcDbEntity
  8
Defpoints
  6
Continuous
 62
     0
100
AcDbPoint
 10
1348.262057713659
 20
439.3736733758636
 30
0.0
  0
ENDBLK
  5
444
330
437
100
AcDbEntity
  8
0
 62
     1
100
AcDbBlockEnd
  0
ENDSEC
  0
SECTION
  2
ENTITIES
  0
LINE
  5
83
330
A
100
AcDbEntity
  8
LAY-1
  6
Continuous
 62
     3
100
AcDbLine
 10
2434.0
 20
55.00006599999998
 30
0.0
 11
2434.0
 21
1722.999838
 31
0.0
  0
LINE
  5
84
330
A
100
AcDbEntity
  8
LAY-1
  6
Continuous
 62
     3
100
AcDbLine
 10
2434.0
 20
1722.999838
 30
0.0
 11
76.0
 21
1722.999838
 31
0.0
  0
LINE
  5
85
330
A
100
AcDbEntity
  8
LAY-1
  6
Continuous
 62
     3
100
AcDbLine
 10
76.0
 20
1722.999838
 30
0.0
 11
76.0
 21
55.0
 31
0.0
  0
LINE
  5
86
330
A
100
AcDbEntity
  8
LAY-1
  6
Continuous
 62
     3
100
AcDbLine
 10
76.0
 20
55.0
 30
0.0
 11
2434.0
 21
55.0
 31
0.0
  0
POINT
  5
92
330
A
100
AcDbEntity
  8
LAY-1
  6
Continuous
 62
     5
100
AcDbPoint
 10
2434.0
 20
55.00006599999998
 30
0.0
  0
POINT
  5
93
330
A
100
AcDbEntity
  8
LAY-1
  6
Continuous
 62
     5
100
AcDbPoint
 10
2434.0
 20
115.0000659999999
 30
0.0
  0
POINT
  5
94
330
A
100
AcDbEntity
  8
LAY-1
  6
Continuous
 62
     5
100
AcDbPoint
 10
2434.0
 20
55.00006599999998
 30
0.0
  0
POINT
  5
95
330
A
100
AcDbEntity
  8
LAY-1
  6
Continuous
 62
     5
100
AcDbPoint
 10
2434.0
 20
175.0000659999994
 30
0.0
  0
POINT
  5
96
330
A
100
AcDbEntity
  8
LAY-1
  6
Continuous
 62
     5
100
AcDbPoint
 10
2434.0
 20
55.00006599999998
 30
0.0
  0
POINT
  5
97
330
A
100
AcDbEntity
  8
LAY-1
  6
Continuous
 62
     5
100
AcDbPoint
 10
2434.0
 20
235.000066
 30
0.0
  0
POINT
  5
98
330
A
100
AcDbEntity
  8
LAY-1
  6
Continuous
 62
     5
100
AcDbPoint
 10
2434.0
 20
55.00006599999998
 30
0.0
  0
POINT
  5
99
330
A
100
AcDbEntity
  8
LAY-1
  6
Continuous
 62
     5
100
AcDbPoint
 10
1474.0
 20
55.000114
 30
0.0
  0
POINT
  5
A2
330
A
100
AcDbEntity
  8
LAY-1
  6
Continuous
 62
     5
100
AcDbPoint
 10
2434.0
 20
55.00006599999998
 30
0.0
  0
POINT
  5
A3
330
A
100
AcDbEntity
  8
LAY-1
  6
Continuous
 62
     5
100
AcDbPoint
 10
2074.0
 20
55.00006599999998
 30
0.0
  0
POINT
  5
B9
330
A
100
AcDbEntity
  8
LAY-1
  6
Continuous
 62
     5
100
AcDbPoint
 10
1417.782592
 20
54.99992800000001
 30
0.0
  0
LWPOLYLINE
  5
BA
330
A
100
AcDbEntity
  8
LAY-1
  6
Continuous
 62
     3
100
AcDbPolyline
 90
        5
 70
   128
 43
0.0
 10
2043.499999999999
 20
394.0
 10
2118.5
 20
394.0
 10
2118.5
 20
1470.0
 10
2043.499999999999
 20
1470.0
 10
2043.499999999999
 20
394.0
  0
POINT
  5
C1
330
A
100
AcDbEntity
  8
LAY-1
  6
Continuous
 62
     3
100
AcDbPoint
 10
1652.0
 20
939.4999999999999
 30
0.0
  0
POINT
  5
C2
330
A
100
AcDbEntity
  8
LAY-1
  6
Continuous
 62
     3
100
AcDbPoint
 10
1622.0
 20
1039.5
 30
0.0
  0
POINT
  5
C3
330
A
100
AcDbEntity
  8
LAY-1
  6
Continuous
 62
     3
100
AcDbPoint
 10
1602.0
 20
1039.5
 30
0.0
  0
POINT
  5
C4
330
A
100
AcDbEntity
  8
LAY-1
  6
Continuous
 62
     3
100
AcDbPoint
 10
1652.0
 20
954.4999999999999
 30
0.0
  0
LINE
  5
C5
330
A
100
AcDbEntity
  8
LAY-1
  6
Continuous
 62
     3
100
AcDbLine
 10
1602.0
 20
1039.5
 30
0.0
 11
1591.150595
 21
1039.5
 31
0.0
  0
LINE
  5
C6
330
A
100
AcDbEntity
  8
LAY-1
  6
Continuous
 62
     3
100
AcDbLine
 10
1652.0
 20
939.4999999999999
 30
0.0
 11
1652.0
 21
954.4999999999999
 31
0.0
  0
LINE
  5
C7
330
A
100
AcDbEntity
  8
LAY-1
  6
Continuous
 62
     3
100
AcDbLine
 10
1652.0
 20
954.4999999999999
 30
0.0
 11
1602.0
 21
1039.5
 31
0.0
  0
POINT
  5
C8
330
A
100
AcDbEntity
  8
LAY-1
  6
Continuous
 62
     3
100
AcDbPoint
 10
1652.0
 20
924.5
 30
0.0
  0
POINT
  5
C9
330
A
100
AcDbEntity
  8
LAY-1
  6
Continuous
 62
     3
100
AcDbPoint
 10
1622.0
 20
824.5
 30
0.0
  0
POINT
  5
CA
330
A
100
AcDbEntity
  8
LAY-1
  6
Continuous
 62
     3
100
AcDbPoint
 10
1602.0
 20
824.5
 30
0.0
  0
POINT
  5
CB
330
A
100
AcDbEntity
  8
LAY-1
  6
Continuous
 62
     3
100
AcDbPoint
 10
1652.0
 20
909.5
 30
0.0
  0
LINE
  5
CC
330
A
100
AcDbEntity
  8
LAY-1
  6
Continuous
 62
     3
100
AcDbLine
 10
1602.0
 20
824.5
 30
0.0
 11
1591.150595
 21
824.5
 31
0.0
  0
LINE
  5
CD
330
A
100
AcDbEntity
  8
LAY-1
  6
Continuous
 62
     3
100
AcDbLine
 10
1652.0
 20
924.5
 30
0.0
 11
1652.0
 21
909.5
 31
0.0
  0
LINE
  5
CE
330
A
100
AcDbEntity
  8
LAY-1
  6
Continuous
 62
     3
100
AcDbLine
 10
1652.0
 20
909.5
 30
0.0
 11
1602.0
 21
824.5
 31
0.0
  0
LINE
  5
CF
330
A
100
AcDbEntity
  8
LAY-1
  6
Continuous
 62
     3
100
AcDbLine
 10
1652.0
 20
939.4999999999999
 30
0.0
 11
1599.947525
 21
939.4999999999999
 31
0.0
  0
LINE
  5
D0
330
A
100
AcDbEntity
  8
LAY-1
  6
Continuous
 62
     3
100
AcDbLine
 10
1652.0
 20
924.5
 30
0.0
 11
1599.947525
 21
924.5
 31
0.0
  0
ARC
  5
D1
330
A
100
AcDbEntity
  8
LAY-1
  6
Continuous
 62
     3
100
AcDbCircle
 10
1064.0
 20
932.0
 30
0.0
 40
536.0
100
AcDbArc
 50
0.8017389999999997
 51
359.198261
  0
ARC
  5
D2
330
A
100
AcDbEntity
  8
LAY-1
  6
Continuous
 62
     3
100
AcDbCircle
 10
1064.0
 20
932.0
 30
0.0
 40
538.0
100
AcDbArc
 50
0.798759
 51
359.2012409999998
  0
POINT
  5
D3
330
A
100
AcDbEntity
  8
LAY-1
  6
Continuous
 62
     3
100
AcDbPoint
 10
2113.5
 20
1039.5
 30
0.0
  0
POINT
  5
D4
330
A
100
AcDbEntity
  8
LAY-1
  6
Continuous
 62
     3
100
AcDbPoint
 10
2048.5
 20
1039.5
 30
0.0
  0
LWPOLYLINE
  5
D5
330
A
100
AcDbEntity
  8
LAY-1
  6
Continuous
 62
     3
100
AcDbPolyline
 90
        4
 70
   128
 43
0.0
 10
2048.5
 20
1039.5
 10
2048.5
 20
954.4999999999999
 10
2113.5
 20
954.4999999999999
 10
2113.5
 20
1039.5
  0
POINT
  5
DB
330
A
100
AcDbEntity
  8
LAY-1
  6
Continuous
 62
     3
100
AcDbPoint
 10
2113.5
 20
824.5
 30
0.0
  0
POINT
  5
DC
330
A
100
AcDbEntity
  8
LAY-1
  6
Continuous
 62
     3
100
AcDbPoint
 10
2048.5
 20
824.5
 30
0.0
  0
LWPOLYLINE
  5
DD
330
A
100
AcDbEntity
  8
LAY-1
  6
Continuous
 62
     3
100
AcDbPolyline
 90
        4
 70
   128
 43
0.0
 10
2048.5
 20
824.5
 10
2048.5
 20
909.5
 10
2113.5
 20
909.5
 10
2113.5
 20
824.5
  0
LINE
  5
E3
330
A
100
AcDbEntity
  8
LAY-1
  6
Continuous
 62
     3
100
AcDbLine
 10
2043.499999999999
 20
1039.5
 30
0.0
 11
2118.5
 21
1039.5
 31
0.0
  0
LINE
  5
E4
330
A
100
AcDbEntity
  8
LAY-1
  6
Continuous
 62
     3
100
AcDbLine
 10
2043.499999999999
 20
939.4999999999999
 30
0.0
 11
2118.5
 21
939.4999999999999
 31
0.0
  0
LINE
  5
E5
330
A
100
AcDbEntity
  8
LAY-1
  6
Continuous
 62
     3
100
AcDbLine
 10
2043.499999999999
 20
924.5
 30
0.0
 11
2118.5
 21
924.5
 31
0.0
  0
LINE
  5
E6
330
A
100
AcDbEntity
  8
LAY-1
  6
Continuous
 62
     3
100
AcDbLine
 10
2043.499999999999
 20
824.5
 30
0.0
 11
2118.5
 21
824.5
 31
0.0
  0
DIMENSION
  5
F1
330
A
100
AcDbEntity
  8
LAY-1
  6
Continuous
 62
     1
100
AcDbDimension
  2
*D8
 10
598.078333
 20
663.0
 30
0.0
 11
1594.069724695376
 21
1251.892304859484
 31
0.0
 70
    35
 71
     5
 42
1075.999999591187
  3
STANDARD
100
AcDbDiametricDimension
 15
1529.921667
 25
1201.0
 35
0.0
 40
0.0
1001
ACAD
1000
DSTYLE
1002
{
1070
     6
1000
_EX_NORM
1070
     7
1000
_EX_NORM
1070
    41
1040
18.0
1070
    73
1070
     0
1070
    74
1070
     0
1070
    77
1070
     1
1070
    78
1070
     8
1070
   140
1040
18.0
1070
   147
1040
3.0
1070
   173
1070
     1
1070
   176
1070
     1
1070
   177
1070
     1
1070
   178
1070
     1
1070
   271
1070
     3
1070
   280
1070
     1
1070
   287
1070
     3
1002
}
  0
DIMENSION
  5
FC
330
A
100
AcDbEntity
  8
LAY-1
  6
Continuous
 62
     1
100
AcDbDimension
  2
*D9
 10
684.9907649999998
 20
552.990765
 30
0.0
 11
1491.79960290187
 21
1376.770165650348
 31
0.0
 70
    35
  1
%%c1074
 71
     5
 42
1072.000000803302
  3
STANDARD
100
AcDbDiametricDimension
 15
1443.009234999999
 25
1311.009234999999
 35
0.0
 40
0.0
1001
ACAD
1000
DSTYLE
1002
{
1070
     6
1000
_EX_NORM
1070
     7
1000
_EX_NORM
1070
    41
1040
18.0
1070
    73
1070
     0
1070
    74
1070
     0
1070
    77
1070
     1
1070
    78
1070
     8
1070
   140
1040
18.0
1070
   147
1040
3.0
1070
   173
1070
     1
1070
   176
1070
     1
1070
   177
1070
     1
1070
   178
1070
     1
1070
   271
1070
     3
1070
   280
1070
     1
1070
   287
1070
     3
1002
}
  0
DIMENSION
  5
108
330
A
100
AcDbEntity
  8
LAY-1
  6
Continuous
 62
     1
100
AcDbDimension
  2
*D10
 10
1798.0
 20
939.4999999999999
 30
0.0
 11
1785.999999999999
 21
993.5000000000002
 31
0.0
 70
    32
  1
25
 71
     5
 42
15.0
  3
STANDARD
100
AcDbAlignedDimension
 13
1652.0
 23
924.5
 33
0.0
 14
1652.0
 24
939.4999999999999
 34
0.0
 50
90.0
100
AcDbRotatedDimension
1001
ACAD
1000
DSTYLE
1002
{
1070
     6
1000
_EX_NORM
1070
     7
1000
_EX_NORM
1070
    41
1040
18.0
1070
    42
1040
9.0
1070
    44
1040
9.0
1070
    73
1070
     0
1070
    74
1070
     0
1070
    75
1070
     0
1070
    76
1070
     0
1070
    77
1070
     1
1070
    78
1070
     8
1070
   140
1040
18.0
1070
   147
1040
3.0
1070
   173
1070
     1
1070
   176
1070
     1
1070
   177
1070
     1
1070
   178
1070
     1
1070
   271
1070
     3
1070
   280
1070
     2
1070
   287
1070
     3
1002
}
  0
DIMENSION
  5
116
330
A
100
AcDbEntity
  8
LAY-1
  6
Continuous
 62
     1
100
AcDbDimension
  2
*D11
 10
2043.499999999999
 20
1616.0
 30
0.0
 11
2080.999999999999
 21
1628.0
 31
0.0
 70
    32
 71
     5
 42
75.00000000000091
  3
STANDARD
100
AcDbAlignedDimension
 13
2118.5
 23
1470.0
 33
0.0
 14
2043.499999999999
 24
1470.0
 34
0.0
100
AcDbRotatedDimension
1001
ACAD
1000
DSTYLE
1002
{
1070
     6
1000
_EX_NORM
1070
     7
1000
_EX_NORM
1070
    41
1040
18.0
1070
    42
1040
9.0
1070
    44
1040
9.0
1070
    73
1070
     0
1070
    74
1070
     0
1070
    75
1070
     0
1070
    76
1070
     0
1070
    77
1070
     1
1070
    78
1070
     8
1070
   140
1040
18.0
1070
   147
1040
3.0
1070
   173
1070
     1
1070
   176
1070
     1
1070
   177
1070
     1
1070
   178
1070
     1
1070
   271
1070
     3
1070
   280
1070
     0
1070
   287
1070
     3
1002
}
  0
POINT
  5
117
330
A
100
AcDbEntity
  8
LAY-1
  6
Continuous
 62
     1
100
AcDbPoint
 10
2043.499999999999
 20
1468.0
 30
0.0
  0
POINT
  5
118
330
A
100
AcDbEntity
  8
LAY-1
  6
Continuous
 62
     1
100
AcDbPoint
 10
2043.499999999999
 20
396.0
 30
0.0
  0
LINE
  5
119
330
A
100
AcDbEntity
  8
LAY-1
  6
DOT
 62
     1
100
AcDbLine
 10
2043.499999999999
 20
396.0
 30
0.0
 11
2118.5
 21
396.0
 31
0.0
  0
LINE
  5
11A
330
A
100
AcDbEntity
  8
LAY-1
  6
DOT
 62
     1
100
AcDbLine
 10
2043.499999999999
 20
1468.0
 30
0.0
 11
2118.5
 21
1468.0
 31
0.0
  0
LINE
  5
122
330
A
100
AcDbEntity
  8
LAY-1
  6
Continuous
 62
     1
100
AcDbLine
 10
1064.0
 20
932.0
 30
0.0
 11
1444.423448
 21
551.576552
 31
0.0
  0
CIRCLE
  5
123
330
A
100
AcDbEntity
  8
LAY-1
  6
Continuous
 62
     1
100
AcDbCircle
 10
2081.0
 20
551.576552
 30
0.0
 40
3.25
  0
LINE
  5
124
330
A
100
AcDbEntity
  8
LAY-1
  6
DASHDOT
 62
     1
100
AcDbLine
 10
1064.0
 20
932.0
 30
0.0
 11
499.0
 21
932.0
 31
0.0
  0
LINE
  5
125
330
A
100
AcDbEntity
  8
LAY-1
  6
DASHDOT
 62
     1
100
AcDbLine
 10
1064.0
 20
932.0
 30
0.0
 11
2155.0
 21
932.0
 31
0.0
  0
LINE
  5
126
330
A
100
AcDbEntity
  8
LAY-1
  6
DASHDOT
 62
     1
100
AcDbLine
 10
1064.0
 20
932.0
 30
0.0
 11
1064.0
 21
1494.0
 31
0.0
  0
LINE
  5
127
330
A
100
AcDbEntity
  8
LAY-1
  6
DASHDOT
 62
     1
100
AcDbLine
 10
1064.0
 20
932.0
 30
0.0
 11
1064.0
 21
374.0
 31
0.0
  0
LINE
  5
128
330
A
100
AcDbEntity
  8
LAY-1
  6
Continuous
 62
     1
100
AcDbLine
 10
1064.0
 20
932.0
 30
0.0
 11
561.7337309999998
 21
739.198043
 31
0.0
  0
LINE
  5
129
330
A
100
AcDbEntity
  8
LAY-1
  6
Continuous
 62
     1
100
AcDbLine
 10
561.7337309999998
 20
739.198043
 30
0.0
 11
533.259528
 21
728.267821
 31
0.0
  0
LINE
  5
12A
330
A
100
AcDbEntity
  8
LAY-1
  6
Continuous
 62
     1
100
AcDbLine
 10
1333.012057713659
 20
466.0333327639724
 30
0.0
 11
1348.262057713659
 21
439.619557948547
 31
0.0
  0
ARC
  5
12B
330
A
100
AcDbEntity
  8
LAY-1
  6
Continuous
 62
     1
100
AcDbCircle
 10
1064.0
 20
932.0
 30
0.0
 40
568.5
100
AcDbArc
 50
201.0
 51
270.0
  0
DIMENSION
  5
138
330
A
100
AcDbEntity
  8
LAY-1
  6
Continuous
 62
     1
100
AcDbDimension
  2
*D12
 10
1187.91556114332
 20
1223.926767881964
 30
0.0
 11
1006.206248999997
 21
1243.827173999996
 31
0.0
 70
   165
 71
     5
 42
3.508111796508956
  3
STANDARD
100
AcDb3PointAngularDimension
 13
1561.937499999999
 23
932.0
 33
0.0
 14
570.1943169999997
 24
742.4457579999997
 34
0.0
 15
1064.0
 25
932.0
 35
0.0
1001
ACAD
1000
DSTYLE
1002
{
1070
     6
1000
_EX_NORM
1070
     7
1000
_EX_NORM
1070
    41
1040
18.0
1070
    42
1040
0.0625
1070
    44
1040
9.0
1070
    73
1070
     0
1070
    74
1070
     0
1070
    75
1070
     0
1070
    76
1070
     0
1070
    77
1070
     1
1070
    78
1070
     8
1070
   140
1040
18.0
1070
   147
1040
3.0
1070
   173
1070
     1
1070
   176
1070
     1
1070
   177
1070
     1
1070
   178
1070
     1
1070
   271
1070
     3
1070
   280
1070
     0
1070
   287
1070
     5
1002
}
  0
DIMENSION
  5
144
330
A
100
AcDbEntity
  8
LAY-1
  6
Continuous
 62
     1
100
AcDbDimension
  2
*D13
 10
949.4619859061479
 20
662.1653482328647
 30
0.0
 11
897.9649929999999
 21
690.4175659999999
 31
0.0
 70
   165
 71
     5
 42
1.20427718272692
  3
STANDARD
100
AcDb3PointAngularDimension
 13
779.12944
 23
822.6484369999997
 33
0.0
 14
1064.0
 24
621.0625079999998
 34
0.0
 15
1064.0
 25
932.0
 35
0.0
1001
ACAD
1000
DSTYLE
1002
{
1070
     6
1000
_EX_NORM
1070
     7
1000
_EX_NORM
1070
    41
1040
18.0
1070
    42
1040
0.0625
1070
    44
1040
9.0
1070
    73
1070
     0
1070
    74
1070
     0
1070
    75
1070
     1
1070
    76
1070
     0
1070
    77
1070
     1
1070
    78
1070
     8
1070
   140
1040
18.0
1070
   147
1040
3.0
1070
   173
1070
     1
1070
   176
1070
     1
1070
   177
1070
     1
1070
   178
1070
     1
1070
   271
1070
     3
1070
   280
1070
     0
1070
   287
1070
     5
1002
}
  0
DIMENSION
  5
150
330
A
100
AcDbEntity
  8
LAY-1
  6
Continuous
 62
     1
100
AcDbDimension
  2
*D14
 10
1210.568836853685
 20
678.135327763143
 30
0.0
 11
1176.178930999999
 21
661.176103
 31
0.0
 70
   165
 71
     5
 42
0.7853981633974483
  3
STANDARD
100
AcDb3PointAngularDimension
 13
1064.0
 23
626.8623259999998
 33
0.0
 14
1298.591846
 24
697.408154
 34
0.0
 15
1064.0
 25
932.0
 35
0.0
1001
ACAD
1000
DSTYLE
1002
{
1070
     6
1000
_EX_NORM
1070
     7
1000
_EX_NORM
1070
    41
1040
18.0
1070
    42
1040
0.0625
1070
    44
1040
9.0
1070
    73
1070
     0
1070
    74
1070
     0
1070
    75
1070
     1
1070
    76
1070
     0
1070
    77
1070
     1
1070
    78
1070
     8
1070
   140
1040
18.0
1070
   147
1040
3.0
1070
   173
1070
     1
1070
   176
1070
     1
1070
   177
1070
     1
1070
   178
1070
     1
1070
   271
1070
     3
1070
   280
1070
     0
1070
   287
1070
     5
1002
}
  0
DIMENSION
  5
15C
330
A
100
AcDbEntity
  8
LAY-1
  6
Continuous
 62
     1
100
AcDbDimension
  2
*D15
 10
1317.864672236857
 20
785.4311631463144
 30
0.0
 11
1334.823897
 21
819.8210690000001
 31
0.0
 70
   165
 71
     5
 42
0.7853981633974492
  3
STANDARD
100
AcDb3PointAngularDimension
 13
1279.764918
 23
716.235082
 33
0.0
 14
1388.937508
 24
932.0
 34
0.0
 15
1064.0
 25
932.0
 35
0.0
1001
ACAD
1000
DSTYLE
1002
{
1070
     6
1000
_EX_NORM
1070
     7
1000
_EX_NORM
1070
    41
1040
18.0
1070
    42
1040
0.0625
1070
    44
1040
9.0
1070
    73
1070
     0
1070
    74
1070
     0
1070
    75
1070
     1
1070
    76
1070
     0
1070
    77
1070
     1
1070
    78
1070
     8
1070
   140
1040
18.0
1070
   147
1040
3.0
1070
   173
1070
     1
1070
   176
1070
     1
1070
   177
1070
     1
1070
   178
1070
     1
1070
   271
1070
     3
1070
   280
1070
     0
1070
   287
1070
     5
1002
}
  0
TEXT
  5
15D
330
A
100
AcDbEntity
  8
LAY-1
  6
Continuous
 62
     1
100
AcDbText
 10
1587.5
 20
452.0
 30
0.0
 40
18.0
  1
φ6.5
 41
1.034482758620676
  7
EXCADSTD
 72
     5
 11
1659.499999999999
 21
452.0
 31
0.0
100
AcDbText
  0
LEADER
  5
15E
330
A
100
AcDbEntity
  8
LAY-1
  6
Continuous
 62
     1
100
AcDbLeader
  3
STANDARD
 76
     3
 10
1444.423448
 20
551.576552
 30
0.0
 10
1547.0
 20
449.0
 30
0.0
 10
1700.0
 20
449.0
 30
0.0
1001
ACAD
1000
DSTYLE
1002
{
1070
    41
1040
18.0
1070
     5
1000
_EX_NORM
1070
     6
1000
_EX_NORM
1070
     7
1000
_EX_NORM
1002
}
  0
DIMENSION
  5
168
330
A
100
AcDbEntity
  8
LAY-1
  6
Continuous
 62
     1
100
AcDbDimension
  2
*D16
 10
2081.0
 20
287.0
 30
0.0
 11
2153.0
 21
299.0
 31
0.0
 70
    32
 71
     5
 42
37.50000000000091
  3
STANDARD
100
AcDbAlignedDimension
 13
2043.499999999999
 23
394.0
 33
0.0
 14
2081.0
 24
551.576552
 34
0.0
100
AcDbRotatedDimension
1001
ACAD
1000
DSTYLE
1002
{
1070
     6
1000
_EX_NORM
1070
     7
1000
_EX_NONE
1070
    41
1040
18.0
1070
    42
1040
9.0
1070
    44
1040
9.0
1070
    73
1070
     0
1070
    74
1070
     0
1070
    75
1070
     0
1070
    76
1070
     0
1070
    77
1070
     1
1070
    78
1070
     8
1070
   140
1040
18.0
1070
   147
1040
3.0
1070
   173
1070
     1
1070
   176
1070
     1
1070
   177
1070
     1
1070
   178
1070
     1
1070
   271
1070
     3
1070
   280
1070
     0
1070
   287
1070
     3
1002
}
  0
DIMENSION
  5
173
330
A
100
AcDbEntity
  8
LAY-1
  6
Continuous
 62
     1
100
AcDbDimension
  2
*D17
 10
2118.5
 20
287.0
 30
0.0
 11
2187.5
 21
320.0
 31
0.0
 70
    32
 71
     5
 42
37.5
  3
STANDARD
100
AcDbAlignedDimension
 13
2081.0
 23
551.576552
 33
0.0
 14
2118.5
 24
394.0
 34
0.0
100
AcDbRotatedDimension
1001
ACAD
1000
DSTYLE
1002
{
1070
     6
1000
_EX_BCIR
1070
     7
1000
_EX_NORM
1070
    41
1040
6.0
1070
    42
1040
9.0
1070
    44
1040
9.0
1070
    73
1070
     0
1070
    74
1070
     0
1070
    75
1070
     1
1070
    76
1070
     0
1070
    77
1070
     1
1070
    78
1070
     8
1070
   140
1040
18.0
1070
   147
1040
24.0
1070
   173
1070
     1
1070
   176
1070
     1
1070
   177
1070
     1
1070
   178
1070
     1
1070
   271
1070
     3
1070
   280
1070
     0
1070
   287
1070
     3
1002
}
  0
LEADER
  5
34B
330
A
100
AcDbEntity
  8
LAY-1
  6
Continuous
100
AcDbLeader
  3
STANDARD
 40
40.0
 41
20.0
 76
     3
 10
1613.460142426624
 20
986.6179768971782
 30
0.0
 10
1741.413163438114
 20
1137.727468348318
 30
0.0
 10
1779.217467285155
 20
1137.727468348318
 30
0.0
213
0.0
223
-20.0
233
0.0
1001
ACAD
1000
DSTYLE
1002
{
1070
   147
1040
0.09
1070
    77
1070
     0
1002
}
  0
CIRCLE
  5
34E
330
A
100
AcDbEntity
  8
LAY-1
  6
Continuous
100
AcDbCircle
 10
1837.377934742146
 20
1137.727468348318
 30
0.0
 40
58.16046745698987
  0
MTEXT
  5
34F
330
A
100
AcDbEntity
  8
LAY-1
  6
Continuous
100
AcDbMText
 10
1819.929794505047
 20
1155.163178739566
 30
0.0
 40
40.0
 41
35.7229
 71
     1
 72
     5
  1
1
 73
     1
 44
1.0
  0
CIRCLE
  5
359
330
A
100
AcDbEntity
  8
LAY-1
  6
Continuous
100
AcDbCircle
 10
463.287437053792
 20
400.7774053524848
 30
0.0
 40
58.16046745698987
  0
LEADER
  5
35A
330
A
100
AcDbEntity
  8
LAY-1
  6
Continuous
100
AcDbLeader
  3
STANDARD
 40
40.0
 41
20.0
 76
     3
 10
734.0457215106506
 20
498.2105480243385
 30
0.0
 10
584.8138314784272
 20
400.7774053524848
 30
0.0
 10
521.4479045107816
 20
400.7774053524848
 30
0.0
213
0.0
223
-20.0
233
0.0
1001
ACAD
1000
DSTYLE
1002
{
1070
   147
1040
0.09
1070
    77
1070
     0
1002
}
  0
MTEXT
  5
35B
330
A
100
AcDbEntity
  8
LAY-1
  6
Continuous
100
AcDbMText
 10
445.8392968166933
 20
418.2131157437336
 30
0.0
 40
40.0
 41
35.7229
 71
     1
 72
     5
  1
2
 73
     1
 44
1.0
  0
MTEXT
  5
389
330
A
100
AcDbEntity
  8
LAY-1
  6
Continuous
100
AcDbMText
 10
117.135196552619
 20
302.1245126942058
 30
0.0
 40
20.0
 41
576.7338606273644
 71
     1
 72
     5
  1
MATERIAL : BRASS (SUS304)
 73
     1
 44
1.0
  0
LINE
  5
38E
330
A
100
AcDbEntity
  8
LAY-1
  6
Continuous
100
AcDbLine
 10
1433.999992885834
 20
95.0000260816232
 30
0.0
 11
433.9999928858343
 21
95.0000260816232
 31
0.0
  0
LINE
  5
38F
330
A
100
AcDbEntity
  8
LAY-1
  6
Continuous
100
AcDbLine
 10
1433.999992885834
 20
125.000026081623
 30
0.0
 11
433.9999928858343
 21
125.000026081623
 31
0.0
  0
LINE
  5
390
330
A
100
AcDbEntity
  8
LAY-1
  6
Continuous
100
AcDbLine
 10
1433.999992885834
 20
155.0000260816231
 30
0.0
 11
433.9999928858343
 21
155.0000260816231
 31
0.0
  0
LINE
  5
391
330
A
100
AcDbEntity
  8
LAY-1
  6
Continuous
370
   100
100
AcDbLine
 10
433.9999928858343
 20
185.000026081623
 30
0.0
 11
433.9999928858343
 21
55.0
 31
0.0
  0
MTEXT
  5
392
330
A
100
AcDbEntity
  8
LAY-1
  6
Continuous
100
AcDbMText
 10
756.3563357662197
 20
117.238973798045
 30
0.0
 40
18.0
 41
678.2992
 71
     1
 72
     5
  1
105-219-018   Belt cramp  (welding)
 73
     1
 44
1.0
  0
MTEXT
  5
393
330
A
100
AcDbEntity
  8
LAY-1
  6
Continuous
100
AcDbMText
 10
757.1468869306343
 20
146.7081667540437
 30
0.0
 40
18.0
 41
678.2992
 71
     1
 72
     5
  1
105-219-002   Base fix    (welding)
 73
     1
 44
1.0
  0
MTEXT
  5
394
330
A
100
AcDbEntity
  8
LAY-1
  6
Continuous
100
AcDbMText
 10
645.5699953909296
 20
118.0058671161563
 30
0.0
 40
20.0
 41
49.7125
 71
     1
 72
     5
  1
2
 73
     1
 44
1.0
  0
MTEXT
  5
395
330
A
100
AcDbEntity
  8
LAY-1
  6
Continuous
100
AcDbMText
 10
621.2661213851434
 20
91.49732258114635
 30
0.0
 40
12.0
 41
89.48249999999999
 71
     1
 72
     5
  1
NUMBER\P{\fMS UI Gothic|b0|i0|c0|p17;REQD}
 73
     1
 44
1.0
  0
MTEXT
  5
396
330
A
100
AcDbEntity
  8
LAY-1
  6
Continuous
100
AcDbMText
 10
493.1183979427603
 20
150.0199720931572
 30
0.0
 40
20.0
 41
49.7125
 71
     1
 72
     5
  1
2
 73
     1
 44
1.0
  0
LINE
  5
397
330
A
100
AcDbEntity
  8
LAY-1
  6
Continuous
100
AcDbLine
 10
583.9999928858343
 20
185.000026081623
 30
0.0
 11
583.9999928858343
 21
55.0
 31
0.0
  0
MTEXT
  5
398
330
A
100
AcDbEntity
  8
LAY-1
  6
Continuous
100
AcDbMText
 10
469.9192347541802
 20
91.51142839357815
 30
0.0
 40
12.0
 41
89.48246129588644
 71
     1
 72
     5
  1
ITEM\PNUMBER
 73
     1
 44
1.0
  0
MTEXT
  5
399
330
A
100
AcDbEntity
  8
LAY-1
  6
Continuous
100
AcDbMText
 10
493.1183979427603
 20
118.0058711064851
 30
0.0
 40
20.0
 41
49.7125
 71
     1
 72
     5
  1
1
 73
     1
 44
1.0
  0
MTEXT
  5
39A
330
A
100
AcDbEntity
  8
LAY-1
  6
Continuous
100
AcDbMText
 10
646.6747135839876
 20
148.9160396403385
 30
0.0
 40
20.0
 41
49.7125
 71
     1
 72
     5
  1
2
 73
     1
 44
1.0
  0
LINE
  5
39B
330
A
100
AcDbEntity
  8
LAY-1
  6
Continuous
100
AcDbLine
 10
733.9999928858341
 20
185.000026081623
 30
0.0
 11
733.9999928858341
 21
55.0
 31
0.0
  0
MTEXT
  5
39C
330
A
100
AcDbEntity
  8
LAY-1
  6
Continuous
100
AcDbMText
 10
977.0979866780852
 20
80.08171802449169
 30
0.0
 40
12.0
 41
198.7384999999999
 71
     1
 72
     5
  1
{\fMS UI Gothic|b0|i0|c0|p17;DESCRIPTION}
 73
     1
 44
1.0
  0
LINE
  5
39D
330
A
100
AcDbEntity
  8
LAY-1
  6
Continuous
370
   100
100
AcDbLine
 10
2433.999992885834
 20
235.0000659999998
 30
0.0
 11
1433.999992885834
 21
235.0000264768547
 31
0.0
210
0.0
220
0.0
230
-1.0
  0
LINE
  5
39E
330
A
100
AcDbEntity
  8
LAY-1
  6
Continuous
370
   100
100
AcDbLine
 10
2433.999995257222
 20
175.0000659999993
 30
0.0
 11
1433.999995257223
 21
175.0000264768547
 31
0.0
210
0.0
220
0.0
230
-1.0
  0
LINE
  5
39F
330
A
100
AcDbEntity
  8
LAY-1
  6
Continuous
370
   100
100
AcDbLine
 10
2433.99999762861
 20
115.0000659999999
 30
0.0
 11
1433.999997628611
 21
115.0000264768548
 31
0.0
210
0.0
220
0.0
230
-1.0
  0
MTEXT
  5
3A0
330
A
100
AcDbEntity
  8
LAY-1
  6
Continuous
100
AcDbMText
 10
1843.286172451749
 20
90.17493159560672
 30
0.0
 40
18.0
 41
191.3840999999998
 71
     1
 72
     5
  1
DRAWING NO.
 73
     1
 44
1.0
  0
MTEXT
  5
3A1
330
A
100
AcDbEntity
  8
LAY-1
  6
Continuous
100
AcDbMText
 10
1843.711967339769
 20
168.0906998121317
 30
0.0
 40
18.0
 41
200.0
 71
     1
 72
     5
  1
PHENIX\PDRAWUNG NO.
 73
     1
 44
1.0
  0
MTEXT
  5
3A2
330
A
100
AcDbEntity
  8
LAY-1
  6
Continuous
100
AcDbMText
 10
1474.551422310832
 20
171.8053289173614
 30
0.0
 40
18.0
 41
335.4916928731971
 71
     1
 72
     5
  1
{\fArial|b1|i0|c0|p34;PHENIX TOC IN TSUKUBA\P\fArial|b0|i0|c0|p34;\H0.6667x;Dept. of Physics , Tsukuba Univ.  Japan}
 73
     1
 44
1.0
  0
MTEXT
  5
3A3
330
A
100
AcDbEntity
  8
LAY-1
  6
Continuous
100
AcDbMText
 10
1447.925091742852
 20
106.1738447408069
 30
0.0
 40
15.0
 41
386.9692999999998
 71
     1
 72
     5
  1
{\fArial|b0|i0|c0|p34;JUL 31 2001\P\fArial|b1|i0|c0|p34;\H1.2x;CI \fMS UI Gothic|b1|i0|c0|p17; \fArial|b1|i0|c0|p34;INDUSTRIES, LTD. (JAPAN)}
 73
     1
 44
1.0
  0
MTEXT
  5
3A4
330
A
100
AcDbEntity
  8
LAY-1
  6
Continuous
100
AcDbMText
 10
1445.162539768839
 20
214.1744884773585
 30
0.0
 40
20.0
 41
79.73926402451667
 71
     1
 72
     5
  1
UNIT
 73
     1
 44
1.0
  0
LINE
  5
3A5
330
A
100
AcDbEntity
  8
LAY-1
  6
Continuous
370
   100
100
AcDbLine
 10
1433.999992885834
 20
235.0000264768545
 30
0.0
 11
1434.0
 21
55.00002647685477
 31
0.0
210
0.0
220
0.0
230
-1.0
  0
LINE
  5
3A6
330
A
100
AcDbEntity
  8
LAY-1
  6
Continuous
370
   100
100
AcDbLine
 10
1833.999992885834
 20
235.0000422861126
 30
0.0
 11
1833.999992885834
 21
55.0
 31
0.0
210
0.0
220
0.0
230
-1.0
  0
MTEXT
  5
3A7
330
A
100
AcDbEntity
  8
LAY-1
  6
Continuous
100
AcDbMText
 10
1870.29310870866
 20
214.5133743437571
 30
0.0
 40
20.0
 41
200.0
 71
     1
 72
     5
  1
TITLE
 73
     1
 44
1.0
  0
MTEXT
  5
3A8
330
A
100
AcDbEntity
  8
LAY-1
  6
Continuous
100
AcDbMText
 10
2106.678125435206
 20
162.626198996567
 30
0.0
 40
30.0
 41
279.5142962216194
 71
     1
 72
     5
  1
{\fArial|b0|i0|c0|p34;105-219-001}
 73
     1
 44
1.0
  0
MTEXT
  5
3A9
330
A
100
AcDbEntity
  8
LAY-1
  6
Continuous
100
AcDbMText
 10
2165.060779960519
 20
222.9362125615984
 30
0.0
 40
30.0
 41
124.2562
 71
     1
 72
     5
  1
{\fArial|b1|i0|c0|p34;Belt}
 73
     1
 44
1.0
  0
LINE
  5
3AA
330
A
100
AcDbEntity
  8
LAY-1
  6
Continuous
100
AcDbLine
 10
2033.999992885834
 20
235.0000422861126
 30
0.0
 11
2033.999992885834
 21
55.0
 31
0.0
210
0.0
220
0.0
230
-1.0
  0
MTEXT
  5
3AB
330
A
100
AcDbEntity
  8
LAY-1
  6
Continuous
100
AcDbMText
 10
2168.61984232058
 20
94.16546792755481
 30
0.0
 40
20.0
 41
107.8721192286921
 71
     1
 72
     5
  1
014
 73
     1
 44
1.0
  0
LINE
  5
3CA
330
A
100
AcDbEntity
  8
LAY-1
  6
Continuous
370
   100
100
AcDbLine
 10
1533.999992885834
 20
235.000030429169
 30
0.0
 11
1533.999995257222
 21
175.000030429169
 31
0.0
210
0.0
220
0.0
230
-1.0
  0
LINE
  5
3CB
330
A
100
AcDbEntity
  8
LAY-1
  6
Continuous
370
   100
100
AcDbLine
 10
1633.999992885834
 20
235.0000343814834
 30
0.0
 11
1633.999995257222
 21
175.0000343814836
 31
0.0
210
0.0
220
0.0
230
-1.0
  0
LINE
  5
3CC
330
A
100
AcDbEntity
  8
LAY-1
  6
Continuous
370
   100
100
AcDbLine
 10
1733.999992885834
 20
235.0000383337979
 30
0.0
 11
1733.999995257222
 21
175.0000383337981
 31
0.0
210
0.0
220
0.0
230
-1.0
  0
MTEXT
  5
3D3
330
A
100
AcDbEntity
  8
LAY-1
  6
Continuous
100
AcDbMText
 10
1641.798448743031
 20
215.9083264757229
 30
0.0
 40
20.0
 41
99.99999997337596
 71
     1
 72
     5
  1
{\fMS UI Gothic|b0|i0|c0|p17;SCALE}
 73
     1
 44
1.0
  0
MTEXT
  5
3D9
330
A
100
AcDbEntity
  8
LAY-1
  6
Continuous
100
AcDbMText
 10
1539.997120718742
 20
191.2791264111154
 30
0.0
 40
10.0
 41
79.7393
 71
     1
 72
     5
  1
{\fArial|b0|i0|c0|p34;MILLIMETERS}
 73
     1
 44
1.0
  0
MTEXT
  5
3DF
330
A
100
AcDbEntity
  8
LAY-1
  6
Continuous
100
AcDbMText
 10
1558.19350054988
 20
226.3471545063665
 30
0.0
 40
20.0
 41
79.7393
 71
     1
 72
     5
  1
{\fArial|b1|i1|c0|p34;mm}
 73
     1
 44
1.0
  0
MTEXT
  5
3E7
330
A
100
AcDbEntity
  8
LAY-1
  6
Continuous
100
AcDbMText
 10
1761.643106605596
 20
213.3476991807543
 30
0.0
 40
20.0
 41
79.7393
 71
     1
 72
     5
  1
{\fArial|b1|i0|c0|p34;1:6}
 73
     1
 44
1.0
  0
LINE
  5
41E
330
A
100
AcDbEntity
  8
LAY-1
  6
Continuous
 62
     3
100
AcDbLine
 10
1333.012057713659
 20
466.0333327639724
 30
0.0
 11
1341.672311751503
 21
471.0333327639724
 31
0.0
  0
LINE
  5
41F
330
A
100
AcDbEntity
  8
LAY-1
  6
Continuous
100
AcDbLine
 10
1333.012057713659
 20
466.0333327639724
 30
0.0
 11
1348.012057713659
 21
440.0525706504392
 31
0.0
  0
LINE
  5
420
330
A
100
AcDbEntity
  8
LAY-1
  6
Continuous
 62
     3
100
AcDbLine
 10
1348.012057713659
 20
440.0525706504392
 30
0.0
 11
1365.332565789348
 21
450.0525706504393
 31
0.0
  0
LINE
  5
421
330
A
100
AcDbEntity
  8
LAY-1
  6
Continuous
 62
     1
100
AcDbLine
 10
1333.012057713659
 20
465.787448191289
 30
0.0
 11
1348.262057713659
 21
439.3736733758636
 31
0.0
  0
LINE
  5
422
330
A
100
AcDbEntity
  8
LAY-1
  6
Continuous
 62
     3
100
AcDbLine
 10
1333.012057713659
 20
465.787448191289
 30
0.0
 11
1348.012057713659
 21
439.8066860777559
 31
0.0
  0
LINE
  5
423
330
A
100
AcDbEntity
  8
LAY-1
  6
Continuous
 62
     3
100
AcDbLine
 10
1258.213176026927
 20
397.9673995134193
 30
0.0
 11
1277.007028442645
 21
404.8078023799327
 31
0.0
  0
LINE
  5
424
330
A
100
AcDbEntity
  8
LAY-1
  6
Continuous
 62
     3
100
AcDbLine
 10
1247.952571727157
 20
426.1581781369965
 30
0.0
 11
1257.349497935016
 21
429.5783795702532
 31
0.0
  0
LINE
  5
425
330
A
100
AcDbEntity
  8
LAY-1
  6
Continuous
 62
     3
100
AcDbLine
 10
1247.952571727157
 20
426.1581781369965
 30
0.0
 11
1258.213176026927
 21
397.9673995134193
 31
0.0
  0
LINE
  5
426
330
A
100
AcDbEntity
  8
LAY-1
  6
Continuous
 62
     1
100
AcDbLine
 10
1064.089999999999
 20
932.0
 30
0.0
 11
1348.262057713659
 21
439.3736733758636
 31
0.0
  0
LINE
  5
427
330
A
100
AcDbEntity
  8
LAY-1
  6
Continuous
 62
     1
100
AcDbLine
 10
1063.909999999999
 20
932.0000000000003
 30
0.0
 11
1253.082873877042
 21
412.0627888252078
 31
0.0
  0
DIMENSION
  5
428
330
A
100
AcDbEntity
  8
LAY-1
  6
Continuous
 62
     1
100
AcDbDimension
  2
*D23
 10
1444.423448
 20
551.576552
 30
0.0
 11
1361.759690601056
 21
543.8661586223179
 31
0.0
 70
    34
 71
     5
 42
0.2621738161980067
  3
STANDARD
100
AcDb2LineAngularDimension
 13
1064.089999999999
 23
932.0
 33
0.0
 14
1348.262057713659
 24
439.3736733758636
 34
0.0
 15
1064.0
 25
932.0
 35
0.0
 16
1344.530613307105
 26
531.2390618257423
 36
0.0
  0
DIMENSION
  5
436
330
A
100
AcDbEntity
  8
LAY-1
  6
Continuous
 62
     1
100
AcDbDimension
  2
*D24
 10
1348.262057713659
 20
439.3736733758636
 30
0.0
 11
1270.622703440407
 21
488.6040052288857
 31
0.0
 70
    34
 71
     5
 42
0.1742753374712409
  3
STANDARD
100
AcDb2LineAngularDimension
 13
1063.909999999999
 23
932.0000000000003
 33
0.0
 14
1253.082873877042
 24
412.0627888252078
 34
0.0
 15
1064.089999999999
 25
932.0
 35
0.0
 16
1257.633820757896
 26
482.7791480254862
 36
0.0
  0
LINE
  5
520
330
A
100
AcDbEntity
  8
LAY-1
  6
Continuous
100
AcDbLine
 10
1433.999992885834
 20
185.0000260816231
 30
0.0
 11
433.9999928858343
 21
185.0000260816231
 31
0.0
  0
MTEXT
  5
521
330
A
100
AcDbEntity
  8
LAY-1
  6
Continuous
100
AcDbMText
 10
493.1183979427603
 20
180.0199720931573
 30
0.0
 40
20.0
 41
49.7125
 71
     1
 72
     5
  1
3
 73
     1
 44
1.0
  0
MTEXT
  5
522
330
A
100
AcDbEntity
  8
LAY-1
  6
Continuous
100
AcDbMText
 10
646.6747135839876
 20
178.9160396403386
 30
0.0
 40
20.0
 41
49.7125
 71
     1
 72
     5
  1
2
 73
     1
 44
1.0
  0
MTEXT
  5
523
330
A
100
AcDbEntity
  8
LAY-1
  6
Continuous
100
AcDbMText
 10
757.1468869306343
 20
176.7081667540438
 30
0.0
 40
18.0
 41
678.2992
 71
     1
 72
     5
  1
105-219-019   cable cramp (welding)
 73
     1
 44
1.0
  0
LEADER
  5
52E
330
A
100
AcDbEntity
  8
LAY-1
  6
Continuous
100
AcDbLeader
  3
STANDARD
 40
40.0
 41
20.0
 76
     3
 10
1352.376994601543
 20
432.2402266194229
 30
0.0
 10
1416.643271185988
 20
334.8070839475691
 30
0.0
 10
1469.150739637911
 20
334.8070839475691
 30
0.0
213
0.0
223
-20.0
233
0.0
1001
ACAD
1000
DSTYLE
1002
{
1070
   147
1040
0.09
1070
    77
1070
     0
1002
}
  0
CIRCLE
  5
536
330
A
100
AcDbEntity
  8
LAY-1
  6
Continuous
100
AcDbCircle
 10
1523.544617174777
 20
314.2171334541862
 30
0.0
 40
58.16046745698987
  0
MTEXT
  5
537
330
A
100
AcDbEntity
  8
LAY-1
  6
Continuous
100
AcDbMText
 10
1506.096476937678
 20
331.652843845435
 30
0.0
 40
40.0
 41
35.7229
 71
     1
 72
     5
  1
3
 73
     1
 44
1.0
  0
ENDSEC
  0
SECTION
  2
OBJECTS
  0
DICTIONARY
  5
19
330
0
100
AcDbDictionary
281
     1
  3
ACAD_GROUP
350
1A
  3
ACAD_LAYOUT
350
17E
  3
ACAD_MLINESTYLE
350
1B
  3
ACAD_PLOTSETTINGS
350
17F
  3
ACAD_PLOTSTYLENAME
350
17C
  3
AcDbVariableDictionary
350
363
  3
ASE_INDEX_DICTIONARY
350
538
  0
DICTIONARY
  5
1A
102
{ACAD_REACTORS
330
19
102
}
330
19
100
AcDbDictionary
281
     1
  0
DICTIONARY
  5
17E
102
{ACAD_REACTORS
330
19
102
}
330
19
100
AcDbDictionary
281
     1
  3
Model
350
180
  3
ﾚｲｱｳﾄ1
350
181
  0
DICTIONARY
  5
1B
102
{ACAD_REACTORS
330
19
102
}
330
19
100
AcDbDictionary
281
     1
  3
STANDARD
350
1C
  0
DICTIONARY
  5
17F
102
{ACAD_REACTORS
330
19
102
}
330
19
100
AcDbDictionary
281
     1
  0
ACDBDICTIONARYWDFLT
  5
17C
102
{ACAD_REACTORS
330
19
102
}
330
19
100
AcDbDictionary
281
     1
  3
Normal
350
17D
100
AcDbDictionaryWithDefault
340
17D
  0
DICTIONARY
  5
363
102
{ACAD_REACTORS
330
19
102
}
330
19
100
AcDbDictionary
281
     1
  3
SORTENTS
350
364
  0
DICTIONARY
  5
538
102
{ACAD_REACTORS
330
19
102
}
330
19
100
AcDbDictionary
281
     1
  3
ASEBlockHierarchyIndexRecord
350
539
1001
DCO15
1040
1413149190.0
  0
LAYOUT
  5
180
102
{ACAD_REACTORS
330
17E
102
}
330
17E
100
AcDbPlotSettings
  1

  2
Tektronix Phaser 850DP
  4
A4
  6

 40
6.103663921356201
 41
6.048923969268797
 42
5.665725708007811
 43
6.103668212890625
 44
209.8784484863279
 45
297.0267333984375
 46
0.0
 47
0.0
 48
0.0
 49
0.0
140
0.0
141
0.0
142
1.0
143
1.0
 70
 11952
 72
     0
 73
     1
 74
     0
  7

 75
     0
147
1.0
148
-21691.63142313719
149
8068.508636104523
100
AcDbLayout
  1
Model
 70
     1
 71
     0
 10
0.0
 20
0.0
 11
12.0
 21
9.0
 12
0.0
 22
0.0
 32
0.0
 14
0.0
 24
0.0
 34
0.0
 15
0.0
 25
0.0
 35
0.0
146
0.0
 13
0.0
 23
0.0
 33
0.0
 16
1.0
 26
0.0
 36
0.0
 17
0.0
 27
1.0
 37
0.0
 76
     0
330
A
  0
LAYOUT
  5
181
102
{ACAD_REACTORS
330
17E
102
}
330
17E
100
AcDbPlotSettings
  1

  2
Tektronix Phaser 850DP
  4

  6

 40
0.0
 41
0.0
 42
0.0
 43
0.0
 44
0.0
 45
0.0
 46
0.0
 47
0.0
 48
0.0
 49
0.0
140
0.0
141
0.0
142
1.0
143
1.0
 70
   688
 72
     0
 73
     0
 74
     5
  7

 75
    16
147
1.0
148
0.0
149
0.0
100
AcDbLayout
  1
ﾚｲｱｳﾄ1
 70
     0
 71
     1
 10
0.0
 20
0.0
 11
12.0
 21
9.0
 12
0.0
 22
0.0
 32
0.0
 14
1.000000000000000E+20
 24
1.000000000000000E+20
 34
1.000000000000000E+20
 15
-1.000000000000000E+20
 25
-1.000000000000000E+20
 35
-1.000000000000000E+20
146
0.0
 13
0.0
 23
0.0
 33
0.0
 16
1.0
 26
0.0
 36
0.0
 17
0.0
 27
1.0
 37
0.0
 76
     0
330
B
  0
MLINESTYLE
  5
1C
102
{ACAD_REACTORS
330
1B
102
}
330
1B
100
AcDbMlineStyle
  2
STANDARD
 70
     0
  3

 62
     0
 51
90.0
 52
90.0
 71
     2
 49
0.5
 62
   256
  6
BYLAYER
 49
-0.5
 62
   256
  6
BYLAYER
  0
ACDBPLACEHOLDER
  5
17D
102
{ACAD_REACTORS
330
17C
102
}
330
17C
  0
DICTIONARYVAR
  5
364
102
{ACAD_REACTORS
330
363
102
}
330
363
100
DictionaryVariables
280
     0
  1
96
  0
XRECORD
  5
539
102
{ACAD_REACTORS
330
538
102
}
330
538
100
AcDbXrecord
280
     1
330
4B5
330
4BC
330
4C5
330
4C6
330
4CE
330
4CF
330
4D7
330
4D8
330
4E0
330
4E1
330
4E9
330
4EA
330
4F2
330
4F3
330
4FD
330
4FE
330
506
330
507
  0
ENDSEC
  0
EOF
